  0
SECTION
  2
HEADER
  9
$ACADVER
  1
AC1018
  9
$ACADMAINTVER
 70
     0
  9
$DWGCODEPAGE
  3
ANSI_1252
  9
$INSBASE
 10
0.0
 20
0.0
 30
0.0
  9
$EXTMIN
 10
0.0
 20
0.0
 30
0.0
  9
$EXTMAX
 10
2970.0
 20
2100.0
 30
0.0
  9
$LIMMIN
 10
0.0
 20
0.0
  9
$LIMMAX
 10
2970.0
 20
2100.0
  9
$ORTHOMODE
 70
     0
  9
$REGENMODE
 70
     1
  9
$FILLMODE
 70
     1
  9
$QTEXTMODE
 70
     0
  9
$MIRRTEXT
 70
     1
  9
$LTSCALE
 40
10.0
  9
$ATTMODE
 70
     1
  9
$TEXTSIZE
 40
35.0
  9
$TRACEWID
 40
1.0
  9
$TEXTSTYLE
  7
Standard
  9
$CLAYER
  8
0
  9
$CELTYPE
  6
ByLayer
  9
$CECOLOR
 62
   256
  9
$CELTSCALE
 40
1.0
  9
$DISPSILH
 70
     0
  9
$DIMSCALE
 40
1.0
  9
$DIMASZ
 40
33.02
  9
$DIMEXO
 40
10.0
  9
$DIMDLI
 40
3.75
  9
$DIMRND
 40
0.0
  9
$DIMDLE
 40
0.0
  9
$DIMEXE
 40
10.0
  9
$DIMTP
 40
0.0
  9
$DIMTM
 40
0.0
  9
$DIMTXT
 40
35.0
  9
$DIMCEN
 40
2.5
  9
$DIMTSZ
 40
0.0
  9
$DIMTOL
 70
     0
  9
$DIMLIM
 70
     0
  9
$DIMTIH
 70
     1
  9
$DIMTOH
 70
     1
  9
$DIMSE1
 70
     0
  9
$DIMSE2
 70
     0
  9
$DIMTAD
 70
     1
  9
$DIMZIN
 70
     0
  9
$DIMBLK
  1

  9
$DIMASO
 70
     1
  9
$DIMSHO
 70
     1
  9
$DIMPOST
  1

  9
$DIMAPOST
  1

  9
$DIMALT
 70
     0
  9
$DIMALTD
 70
     3
  9
$DIMALTF
 40
0.0393700787
  9
$DIMLFAC
 40
1.0
  9
$DIMTOFL
 70
     1
  9
$DIMTVP
 40
0.0
  9
$DIMTIX
 70
     0
  9
$DIMSOXD
 70
     0
  9
$DIMSAH
 70
     0
  9
$DIMBLK1
  1

  9
$DIMBLK2
  1

  9
$DIMSTYLE
  2
ISO-25
  9
$DIMCLRD
 70
     0
  9
$DIMCLRE
 70
     0
  9
$DIMCLRT
 70
     0
  9
$DIMTFAC
 40
1.0
  9
$DIMGAP
 40
15.24
  9
$DIMJUST
 70
     0
  9
$DIMSD1
 70
     0
  9
$DIMSD2
 70
     0
  9
$DIMTOLJ
 70
     0
  9
$DIMTZIN
 70
     0
  9
$DIMALTZ
 70
     0
  9
$DIMALTTZ
 70
     0
  9
$DIMUPT
 70
     0
  9
$DIMDEC
 70
     2
  9
$DIMTDEC
 70
     2
  9
$DIMALTU
 70
     2
  9
$DIMALTTD
 70
     3
  9
$DIMTXSTY
  7
Standard
  9
$DIMAUNIT
 70
     0
  9
$DIMADEC
 70
     2
  9
$DIMALTRND
 40
0.0
  9
$DIMAZIN
 70
     0
  9
$DIMDSEP
 70
    44
  9
$DIMATFIT
 70
     3
  9
$DIMFRAC
 70
     0
  9
$DIMLDRBLK
  1

  9
$DIMLUNIT
 70
     2
  9
$DIMLWD
 70
    -2
  9
$DIMLWE
 70
    -2
  9
$DIMTMOVE
 70
     0
  9
$LUNITS
 70
     2
  9
$LUPREC
 70
     2
  9
$SKETCHINC
 40
1.0
  9
$FILLETRAD
 40
10.0
  9
$AUNITS
 70
     0
  9
$AUPREC
 70
     2
  9
$MENU
  1
.
  9
$ELEVATION
 40
0.0
  9
$PELEVATION
 40
0.0
  9
$THICKNESS
 40
0.0
  9
$LIMCHECK
 70
     0
  9
$CHAMFERA
 40
10.0
  9
$CHAMFERB
 40
10.0
  9
$CHAMFERC
 40
20.0
  9
$CHAMFERD
 40
0.0
  9
$SKPOLY
 70
     0
  9
$TDCREATE
 40
2456927.720450533
  9
$TDUCREATE
 40
2456927.678783866
  9
$TDUPDATE
 40
2456927.720451042
  9
$TDUUPDATE
 40
2456927.678784375
  9
$TDINDWG
 40
0.0000000116
  9
$TDUSRTIMER
 40
0.0000000116
  9
$USRTIMER
 70
     1
  9
$ANGBASE
 50
0.0
  9
$ANGDIR
 70
     0
  9
$PDMODE
 70
     0
  9
$PDSIZE
 40
-1.0
  9
$PLINEWID
 40
0.0
  9
$SPLFRAME
 70
     0
  9
$SPLINETYPE
 70
     6
  9
$SPLINESEGS
 70
     8
  9
$HANDSEED
  5
32F
  9
$SURFTAB1
 70
     6
  9
$SURFTAB2
 70
     6
  9
$SURFTYPE
 70
     6
  9
$SURFU
 70
     6
  9
$SURFV
 70
     6
  9
$UCSBASE
  2

  9
$UCSNAME
  2

  9
$UCSORG
 10
0.0
 20
0.0
 30
0.0
  9
$UCSXDIR
 10
1.0
 20
0.0
 30
0.0
  9
$UCSYDIR
 10
0.0
 20
1.0
 30
0.0
  9
$UCSORTHOREF
  2

  9
$UCSORTHOVIEW
 70
     0
  9
$UCSORGTOP
 10
0.0
 20
0.0
 30
0.0
  9
$UCSORGBOTTOM
 10
0.0
 20
0.0
 30
0.0
  9
$UCSORGLEFT
 10
0.0
 20
0.0
 30
0.0
  9
$UCSORGRIGHT
 10
0.0
 20
0.0
 30
0.0
  9
$UCSORGFRONT
 10
0.0
 20
0.0
 30
0.0
  9
$UCSORGBACK
 10
0.0
 20
0.0
 30
0.0
  9
$PUCSBASE
  2

  9
$PUCSNAME
  2

  9
$PUCSORG
 10
0.0
 20
0.0
 30
0.0
  9
$PUCSXDIR
 10
1.0
 20
0.0
 30
0.0
  9
$PUCSYDIR
 10
0.0
 20
1.0
 30
0.0
  9
$PUCSORTHOREF
  2

  9
$PUCSORTHOVIEW
 70
     0
  9
$PUCSORGTOP
 10
0.0
 20
0.0
 30
0.0
  9
$PUCSORGBOTTOM
 10
0.0
 20
0.0
 30
0.0
  9
$PUCSORGLEFT
 10
0.0
 20
0.0
 30
0.0
  9
$PUCSORGRIGHT
 10
0.0
 20
0.0
 30
0.0
  9
$PUCSORGFRONT
 10
0.0
 20
0.0
 30
0.0
  9
$PUCSORGBACK
 10
0.0
 20
0.0
 30
0.0
  9
$USERI1
 70
     0
  9
$USERI2
 70
     0
  9
$USERI3
 70
     0
  9
$USERI4
 70
     0
  9
$USERI5
 70
     0
  9
$USERR1
 40
0.0
  9
$USERR2
 40
0.0
  9
$USERR3
 40
0.0
  9
$USERR4
 40
0.0
  9
$USERR5
 40
0.0
  9
$WORLDVIEW
 70
     1
  9
$SHADEDGE
 70
     3
  9
$SHADEDIF
 70
    70
  9
$TILEMODE
 70
     1
  9
$MAXACTVP
 70
    64
  9
$PINSBASE
 10
0.0
 20
0.0
 30
0.0
  9
$PLIMCHECK
 70
     0
  9
$PEXTMIN
 10
1.0000000000E+20
 20
1.0000000000E+20
 30
1.0000000000E+20
  9
$PEXTMAX
 10
-1.0000000000E+20
 20
-1.0000000000E+20
 30
-1.0000000000E+20
  9
$PLIMMIN
 10
0.0
 20
0.0
  9
$PLIMMAX
 10
420.0
 20
297.0
  9
$UNITMODE
 70
     0
  9
$VISRETAIN
 70
     1
  9
$PLINEGEN
 70
     0
  9
$PSLTSCALE
 70
     1
  9
$TREEDEPTH
 70
  3020
  9
$CMLSTYLE
  2
Standard
  9
$CMLJUST
 70
     0
  9
$CMLSCALE
 40
20.0
  9
$PROXYGRAPHICS
 70
     1
  9
$MEASUREMENT
 70
     1
  9
$CELWEIGHT
370
    -1
  9
$ENDCAPS
280
     0
  9
$JOINSTYLE
280
     0
  9
$LWDISPLAY
290
     1
  9
$INSUNITS
 70
     4
  9
$HYPERLINKBASE
  1

  9
$STYLESHEET
  1

  9
$XEDIT
290
     1
  9
$CEPSNTYPE
380
     0
  9
$PSTYLEMODE
290
     1
  9
$FINGERPRINTGUID
  2
{FD7937E4-C3C8-4A47-8FC3-DA5A6B4312F0}
  9
$VERSIONGUID
  2
{FAEB1C32-E019-11D5-929B-00C0DF256EC4}
  9
$EXTNAMES
290
     1
  9
$PSVPSCALE
 40
0.0
  9
$OLESTARTUP
290
     0
  9
$SORTENTS
280
   127
  9
$INDEXCTL
280
     0
  9
$HIDETEXT
280
     1
  9
$XCLIPFRAME
290
     0
  9
$HALOGAP
280
     0
  9
$OBSCOLOR
 70
   257
  9
$OBSLTYPE
280
     0
  9
$INTERSECTIONDISPLAY
280
     0
  9
$INTERSECTIONCOLOR
 70
   257
  9
$DIMASSOC
280
     2
  9
$PROJECTNAME
  1

  0
ENDSEC
  0
SECTION
  2
CLASSES
  0
CLASS
  1
ACDBDICTIONARYWDFLT
  2
AcDbDictionaryWithDefault
  3
ObjectDBX Classes
 90
        0
 91
        4
280
     0
281
     0
  0
CLASS
  1
VISUALSTYLE
  2
AcDbVisualStyle
  3
ObjectDBX Classes
 90
     4095
 91
        4
280
     0
281
     0
  0
CLASS
  1
MATERIAL
  2
AcDbMaterial
  3
ObjectDBX Classes
 90
     1153
 91
        4
280
     0
281
     0
  0
ENDSEC
  0
SECTION
  2
TABLES
  0
TABLE
  2
VPORT
  5
8
330
0
100
AcDbSymbolTable
 70
     1
  0
VPORT
  5
29
330
8
100
AcDbSymbolTableRecord
100
AcDbViewportTableRecord
  2
*Active
 70
     0
 10
0.0
 20
0.0
 11
1.0
 21
1.0
 12
1485.0
 22
1050.0
 13
0.0
 23
0.0
 14
10.0
 24
10.0
 15
10.0
 25
10.0
 16
0.0
 26
0.0
 36
1.0
 17
0.0
 27
0.0
 37
0.0
 40
2100.0
 41
1.4142857143
 42
50.0
 43
0.0
 44
0.0
 50
0.0
 51
0.0
 71
     0
 72
  2000
 73
     1
 74
     3
 75
     0
 76
     0
 77
     0
 78
     0
281
     0
 65
     1
110
0.0
120
0.0
130
0.0
111
1.0
121
0.0
131
0.0
112
0.0
122
1.0
132
0.0
 79
     0
146
0.0
  0
ENDTAB
  0
TABLE
  2
LTYPE
  5
5
330
0
100
AcDbSymbolTable
 70
     6
  0
LTYPE
  5
14
330
5
100
AcDbSymbolTableRecord
100
AcDbLinetypeTableRecord
  2
ByBlock
 70
     0
  3

 72
    65
 73
     0
 40
0.0
  0
LTYPE
  5
15
330
5
100
AcDbSymbolTableRecord
100
AcDbLinetypeTableRecord
  2
ByLayer
 70
     0
  3

 72
    65
 73
     0
 40
0.0
  0
LTYPE
  5
16
330
5
100
AcDbSymbolTableRecord
100
AcDbLinetypeTableRecord
  2
Continuous
 70
     0
  3
Solid line
 72
    65
 73
     0
 40
0.0
  0
LTYPE
  5
3F
330
5
100
AcDbSymbolTableRecord
100
AcDbLinetypeTableRecord
  2
HIDDEN
 70
     0
  3
Hidden __ __ __ __ __ __ __ __ __ __ __ __ __ __
 72
    65
 73
     2
 40
1.905
 49
1.27
 74
     0
 49
-0.635
 74
     0
  0
LTYPE
  5
40
330
5
100
AcDbSymbolTableRecord
100
AcDbLinetypeTableRecord
  2
PHANTOM
 70
     0
  3
Phantom ______  __  __  ______  __  __  ______
 72
    65
 73
     6
 40
12.7
 49
6.35
 74
     0
 49
-1.27
 74
     0
 49
1.27
 74
     0
 49
-1.27
 74
     0
 49
1.27
 74
     0
 49
-1.27
 74
     0
  0
LTYPE
  5
41
330
5
100
AcDbSymbolTableRecord
100
AcDbLinetypeTableRecord
  2
CENTER
 70
     0
  3
Center ____ _ ____ _ ____ _ ____ _ ____ _ ____
 72
    65
 73
     4
 40
10.16
 49
6.35
 74
     0
 49
-1.27
 74
     0
 49
1.27
 74
     0
 49
-1.27
 74
     0
  0
LTYPE
  5
42
330
5
100
AcDbSymbolTableRecord
100
AcDbLinetypeTableRecord
  2
CENTERX2
 70
     0
  3
Center (2x) ________  __  ________  __  _____
 72
    65
 73
     4
 40
20.32
 49
12.7
 74
     0
 49
-2.54
 74
     0
 49
2.54
 74
     0
 49
-2.54
 74
     0
  0
LTYPE
  5
43
330
5
100
AcDbSymbolTableRecord
100
AcDbLinetypeTableRecord
  2
DOT2
 70
     0
  3
Dot (.5x) ........................................
 72
    65
 73
     2
 40
0.635
 49
0.0
 74
     0
 49
-0.635
 74
     0
  0
ENDTAB
  0
TABLE
  2
LAYER
  5
2
330
0
100
AcDbSymbolTable
 70
     3
  0
LAYER
  5
10
330
2
100
AcDbSymbolTableRecord
100
AcDbLayerTableRecord
  2
0
 70
     0
 62
     7
  6
Continuous
370
    -3
390
F
  0
LAYER
  5
44
330
2
100
AcDbSymbolTableRecord
100
AcDbLayerTableRecord
  2
MEDIÇÕES
 70
     0
 62
     7
  6
Continuous
370
    -3
390
F
  0
LAYER
  5
45
330
2
100
AcDbSymbolTableRecord
100
AcDbLayerTableRecord
  2
ACABAMENTO
 70
     0
 62
     7
  6
Continuous
370
    80
390
F
  0
ENDTAB
  0
TABLE
  2
STYLE
  5
3
330
0
100
AcDbSymbolTable
 70
     4
  0
STYLE
  5
11
330
3
100
AcDbSymbolTableRecord
100
AcDbTextStyleTableRecord
  2
Standard
 70
     0
 40
0.0
 41
1.0
 50
0.0
 71
     0
 42
35.0
  3
txt
  4

  0
STYLE
  5
111
330
3
100
AcDbSymbolTableRecord
100
AcDbTextStyleTableRecord
  2
SLDTEXTSTYLE0
 70
     0
 40
0.0
 41
0.6875
 50
0.0
 71
     0
 42
0.2
  3
TXT
  4

  0
STYLE
  5
113
330
3
100
AcDbSymbolTableRecord
100
AcDbTextStyleTableRecord
  2
SLDTEXTSTYLE1
 70
     0
 40
0.0
 41
0.75
 50
0.0
 71
     0
 42
0.2
  3
TXT
  4

  0
STYLE
  5
115
330
3
100
AcDbSymbolTableRecord
100
AcDbTextStyleTableRecord
  2
SLDTEXTSTYLE2
 70
     0
 40
0.0
 41
0.605
 50
0.0
 71
     0
 42
0.2
  3
TXT
  4

  0
ENDTAB
  0
TABLE
  2
VIEW
  5
6
330
0
100
AcDbSymbolTable
 70
     0
  0
ENDTAB
  0
TABLE
  2
UCS
  5
7
330
0
100
AcDbSymbolTable
 70
     0
  0
ENDTAB
  0
TABLE
  2
APPID
  5
9
330
0
100
AcDbSymbolTable
 70
     1
  0
APPID
  5
12
330
9
100
AcDbSymbolTableRecord
100
AcDbRegAppTableRecord
  2
ACAD
 70
     0
  0
ENDTAB
  0
TABLE
  2
DIMSTYLE
  5
A
330
0
100
AcDbSymbolTable
 70
     3
100
AcDbDimStyleTable
  0
DIMSTYLE
105
27
330
A
100
AcDbSymbolTableRecord
100
AcDbDimStyleTableRecord
  2
ISO-25
 70
     0
 41
2.5
 42
0.625
 43
3.75
 44
1.25
 73
     0
 74
     0
 77
     1
 78
     8
140
2.5
141
2.5
143
0.0393700787
147
0.625
171
     3
172
     1
178
     0
271
     2
272
     2
274
     3
278
    44
283
     0
284
     8
340
11
  0
DIMSTYLE
105
17F
102
{ACAD_REACTORS
330
17E
102
}
330
A
100
AcDbSymbolTableRecord
100
AcDbDimStyleTableRecord
  2
SLDDIMSTYLE0
 70
     0
 41
33.02
 44
0.0
 45
0.000000001
 73
     0
 74
     0
 77
     1
 78
    12
 79
     3
140
35.0
147
8.75
172
     1
173
     1
178
     0
271
     2
272
     2
276
     2
284
    12
289
     0
340
113
  0
DIMSTYLE
105
231
102
{ACAD_REACTORS
330
230
330
269
102
}
330
A
100
AcDbSymbolTableRecord
100
AcDbDimStyleTableRecord
  2
SLDDIMSTYLE1
 70
     0
 41
33.02
 44
0.0
 45
0.000000001
 73
     0
 74
     0
 77
     1
 78
    12
 79
     3
140
35.0
147
8.75
173
     1
178
     0
271
     2
272
     2
276
     2
284
    12
340
113
  0
ENDTAB
  0
TABLE
  2
BLOCK_RECORD
  5
1
330
0
100
AcDbSymbolTable
 70
     5
  0
BLOCK_RECORD
  5
1F
330
1
100
AcDbSymbolTableRecord
100
AcDbBlockTableRecord
  2
*Model_Space
340
22
  0
BLOCK_RECORD
  5
1B
330
1
100
AcDbSymbolTableRecord
100
AcDbBlockTableRecord
  2
*Paper_Space
340
1E
  0
BLOCK_RECORD
  5
23
330
1
100
AcDbSymbolTableRecord
100
AcDbBlockTableRecord
  2
*Paper_Space0
340
26
  0
BLOCK_RECORD
  5
46
330
1
100
AcDbSymbolTableRecord
100
AcDbBlockTableRecord
  2
Logo_Next.V3
340
0
102
{BLKREFS
331
110
102
}
  0
BLOCK_RECORD
  5
180
330
1
100
AcDbSymbolTableRecord
100
AcDbBlockTableRecord
  2
_D
340
0
  0
BLOCK_RECORD
  5
232
330
1
100
AcDbSymbolTableRecord
100
AcDbBlockTableRecord
  2
_D_1
340
0
  0
BLOCK_RECORD
  5
26A
330
1
100
AcDbSymbolTableRecord
100
AcDbBlockTableRecord
  2
_D_2
340
0
  0
ENDTAB
  0
ENDSEC
  0
SECTION
  2
BLOCKS
  0
BLOCK
  5
20
330
1F
100
AcDbEntity
  8
0
100
AcDbBlockBegin
  2
*Model_Space
 70
     0
 10
0.0
 20
0.0
 30
0.0
  3
*Model_Space
  1

  0
ENDBLK
  5
21
330
1F
100
AcDbEntity
  8
0
100
AcDbBlockEnd
  0
BLOCK
  5
1C
330
1B
100
AcDbEntity
 67
     1
  8
0
100
AcDbBlockBegin
  2
*Paper_Space
 70
     0
 10
0.0
 20
0.0
 30
0.0
  3
*Paper_Space
  1

  0
ENDBLK
  5
1D
330
1B
100
AcDbEntity
 67
     1
  8
0
100
AcDbBlockEnd
  0
BLOCK
  5
24
330
23
100
AcDbEntity
  8
0
100
AcDbBlockBegin
  2
*Paper_Space0
 70
     0
 10
0.0
 20
0.0
 30
0.0
  3
*Paper_Space0
  1

  0
ENDBLK
  5
25
330
23
100
AcDbEntity
  8
0
100
AcDbBlockEnd
  0
BLOCK
  5
47
330
46
100
AcDbEntity
  8
0
100
AcDbBlockBegin
  2
Logo_Next.V3
 70
     0
 10
0.0
 20
0.0
 30
0.0
  3
Logo_Next.V3
  1

  0
ARC
  5
49
330
46
100
AcDbEntity
  8
0
  6
Continuous
 62
     7
370
     0
100
AcDbCircle
 10
-1587.1800722805
 20
422.6709638731
 30
0.0
 40
35.62761368349867
100
AcDbArc
 50
33.8993301947
 51
90.0
  0
ARC
  5
4A
330
46
100
AcDbEntity
  8
0
  6
Continuous
 62
     7
370
     0
100
AcDbCircle
 10
-1131.6851711632
 20
422.6709638731
 30
0.0
 40
35.6276136834984
100
AcDbArc
 50
90.0
 51
180.0
  0
ARC
  5
4B
330
46
100
AcDbEntity
  8
0
  6
Continuous
 62
     7
370
     0
100
AcDbCircle
 10
-883.6670100843
 20
422.6709638731
 30
0.0
 40
35.62761368349868
100
AcDbArc
 50
0.0
 51
90.0
  0
ARC
  5
4C
330
46
100
AcDbEntity
  8
0
  6
Continuous
 62
     7
370
     0
100
AcDbCircle
 10
-883.6670100843
 20
-422.6709638716
 30
0.0
 40
35.62761368349857
100
AcDbArc
 50
270.0
 51
0.0
  0
ARC
  5
4D
330
46
100
AcDbEntity
  8
0
  6
Continuous
 62
     7
370
     0
100
AcDbCircle
 10
-1213.6286423958
 20
-422.6709638716
 30
0.0
 40
35.62761368349845
100
AcDbArc
 50
215.8239333713
 51
270.0
  0
ARC
  5
4E
330
46
100
AcDbEntity
  8
0
  6
Continuous
 62
     7
370
     0
100
AcDbCircle
 10
-1700.7949027296
 20
-422.6709638716
 30
0.0
 40
35.62761368349834
100
AcDbArc
 50
270.0
 51
0.0
  0
ARC
  5
4F
330
46
100
AcDbEntity
  8
0
  6
Continuous
 62
     7
370
     0
100
AcDbCircle
 10
-1775.2437764562
 20
-437.8290234302
 30
0.0
 40
20.46955412487762
100
AcDbArc
 50
180.0
 51
270.0
  0
ARC
  5
50
330
46
100
AcDbEntity
  8
0
  6
Continuous
 62
     7
370
     0
100
AcDbCircle
 10
-1775.2437764562
 20
437.8290234317
 30
0.0
 40
20.46955412487785
100
AcDbArc
 50
90.0
 51
180.0
  0
ARC
  5
51
330
46
100
AcDbEntity
  8
0
  6
Continuous
 62
     7
370
     0
100
AcDbCircle
 10
273.7504665449
 20
598.8614812289
 30
0.0
 40
35.62761368349846
100
AcDbArc
 50
38.8556584896
 51
105.8183764148
  0
ARC
  5
52
330
46
100
AcDbEntity
  8
0
  6
Continuous
 62
     7
370
     0
100
AcDbCircle
 10
604.2801104592
 20
693.8639124127
 30
0.0
 40
35.62761368349815
100
AcDbArc
 50
106.1668587455
 51
171.8012460536
  0
ARC
  5
53
330
46
100
AcDbEntity
  8
0
  6
Continuous
 62
     7
370
     0
100
AcDbCircle
 10
905.7459044969
 20
781.2587603884
 30
0.0
 40
35.62761368349857
100
AcDbArc
 50
347.4974268902
 51
106.1668587455
  0
ARC
  5
54
330
46
100
AcDbEntity
  8
0
  6
Continuous
 62
     7
370
     0
100
AcDbCircle
 10
978.923471261
 20
291.6141658775
 30
0.0
 40
35.62761368350721
100
AcDbArc
 50
180.0
 51
270.0
  0
ARC
  5
55
330
46
100
AcDbEntity
  8
0
  6
Continuous
 62
     7
370
     0
100
AcDbCircle
 10
978.923471261
 20
422.5043183007
 30
0.0
 40
35.62761368352926
100
AcDbArc
 50
90.0
 51
180.0
  0
ARC
  5
56
330
46
100
AcDbEntity
  8
0
  6
Continuous
 62
     7
370
     0
100
AcDbCircle
 10
1774.8734010732
 20
437.6623778593
 30
0.0
 40
20.46955412487767
100
AcDbArc
 50
0.0
 51
90.0
  0
ARC
  5
57
330
46
100
AcDbEntity
  8
0
  6
Continuous
 62
     7
370
     0
100
AcDbCircle
 10
1774.8734010732
 20
276.8465881355
 30
0.0
 40
20.46955412487756
100
AcDbArc
 50
270.0
 51
0.0
  0
ARC
  5
58
330
46
100
AcDbEntity
  8
0
  6
Continuous
 62
     7
370
     0
100
AcDbCircle
 10
1586.1281146836
 20
-423.5855275187
 30
0.0
 40
35.62761368349857
100
AcDbArc
 50
270.0
 51
0.0
  0
ARC
  5
59
330
46
100
AcDbEntity
  8
0
  6
Continuous
 62
     7
370
     0
100
AcDbCircle
 10
997.8332858737
 20
-580.3602954418
 30
0.0
 40
35.62761368353062
100
AcDbArc
 50
219.5992848036
 51
286.1919412867
  0
ARC
  5
5A
330
46
100
AcDbEntity
  8
0
  6
Continuous
 62
     7
370
     0
100
AcDbCircle
 10
598.2914840963
 20
-693.766887036
 30
0.0
 40
35.62761368349779
100
AcDbArc
 50
286.0985506514
 51
351.7882282766
  0
ARC
  5
5B
330
46
100
AcDbEntity
  8
0
  6
Continuous
 62
     7
370
     0
100
AcDbCircle
 10
278.1330387818
 20
-786.1671005913
 30
0.0
 40
35.62761368352944
100
AcDbArc
 50
166.6872067774
 51
286.0985506513
  0
ARC
  5
5C
330
46
100
AcDbEntity
  8
0
  6
Continuous
 62
     7
370
     0
100
AcDbCircle
 10
63.5912815337
 20
73.5879902946
 30
0.0
 40
35.62761368350465
100
AcDbArc
 50
0.0
 51
90.0
  0
ARC
  5
5D
330
46
100
AcDbEntity
  8
0
  6
Continuous
 62
     7
370
     0
100
AcDbCircle
 10
63.5912815337
 20
-51.5698150553
 30
0.0
 40
35.62761368350699
100
AcDbArc
 50
270.0
 51
0.0
  0
ARC
  5
5E
330
46
100
AcDbEntity
  8
0
  6
Continuous
 62
     7
370
     0
100
AcDbCircle
 10
219.1309173284
 20
-287.598587012
 30
0.0
 40
35.62761368349848
100
AcDbArc
 50
0.0
 51
90.0
  0
ARC
  5
5F
330
46
100
AcDbEntity
  8
0
  6
Continuous
 62
     7
370
     0
100
AcDbCircle
 10
219.1309173284
 20
-423.7014330253
 30
0.0
 40
35.6276136834864
100
AcDbArc
 50
270.0
 51
0.0
  0
ARC
  5
60
330
46
100
AcDbEntity
  8
0
  6
Continuous
 62
     7
370
     0
100
AcDbCircle
 10
-716.7680027826
 20
-423.7014330253
 30
0.0
 40
35.62761368349868
100
AcDbArc
 50
180.0
 51
270.0
  0
ARC
  5
61
330
46
100
AcDbEntity
  8
0
  6
Continuous
 62
     7
370
     0
100
AcDbCircle
 10
-716.7680027826
 20
423.1800330044
 30
0.0
 40
35.62761368351687
100
AcDbArc
 50
90.0
 51
180.0
  0
ARC
  5
62
330
46
100
AcDbEntity
  8
0
  6
Continuous
 62
     7
370
     0
100
AcDbCircle
 10
751.1693702587
 20
84.1572284311
 30
0.0
 40
75.62761368389583
100
AcDbArc
 50
167.4974268903
 51
224.796493861
  0
ARC
  5
63
330
46
100
AcDbEntity
  8
0
  6
Continuous
 62
     7
370
     0
100
AcDbCircle
 10
671.5727689264
 20
-185.9690548709
 30
0.0
 40
75.62761368389594
100
AcDbArc
 50
39.5992848035
 51
171.7882282765
  0
ARC
  5
64
330
46
100
AcDbEntity
  8
0
  6
Continuous
 62
     7
370
     0
100
AcDbCircle
 10
464.4284846463
 20
1.1328478898
 30
0.0
 40
75.62761368391911
100
AcDbArc
 50
346.6872067774
 51
44.28188045
  0
ARC
  5
65
330
46
100
AcDbEntity
  8
0
  6
Continuous
 62
     7
370
     0
100
AcDbCircle
 10
542.5238335845
 20
265.2390096659
 30
0.0
 40
75.62761368389592
100
AcDbArc
 50
218.8556584896
 51
351.8012460535
  0
ARC
  5
66
330
46
100
AcDbEntity
  8
0
  6
Continuous
 62
     7
370
     0
100
AcDbCircle
 10
-883.6670100843
 20
-422.6709638716
 30
0.0
 40
55.6276136836683
100
AcDbArc
 50
270.0
 51
0.0
  0
ARC
  5
67
330
46
100
AcDbEntity
  8
0
  6
Continuous
 62
     7
370
     0
100
AcDbCircle
 10
-1213.6286423958
 20
-422.6709638716
 30
0.0
 40
55.62761368366832
100
AcDbArc
 50
215.8239333713
 51
270.0
  0
ARC
  5
68
330
46
100
AcDbEntity
  8
0
  6
Continuous
 62
     7
370
     0
100
AcDbCircle
 10
-1700.7949027296
 20
-422.6709638716
 30
0.0
 40
55.62761368366824
100
AcDbArc
 50
270.0
 51
0.0
  0
ARC
  5
69
330
46
100
AcDbEntity
  8
0
  6
Continuous
 62
     7
370
     0
100
AcDbCircle
 10
-1775.2437764562
 20
-437.8290234302
 30
0.0
 40
40.46955412504764
100
AcDbArc
 50
180.0
 51
270.0
  0
ARC
  5
6A
330
46
100
AcDbEntity
  8
0
  6
Continuous
 62
     7
370
     0
100
AcDbCircle
 10
-1775.2437764562
 20
437.8290234317
 30
0.0
 40
40.46955412504764
100
AcDbArc
 50
90.0
 51
180.0
  0
ARC
  5
6B
330
46
100
AcDbEntity
  8
0
  6
Continuous
 62
     7
370
     0
100
AcDbCircle
 10
-1587.1800722805
 20
422.6709638731
 30
0.0
 40
55.62761368366836
100
AcDbArc
 50
33.8993301947
 51
90.0
  0
ARC
  5
6C
330
46
100
AcDbEntity
  8
0
  6
Continuous
 62
     7
370
     0
100
AcDbCircle
 10
-1131.6851711632
 20
422.6709638731
 30
0.0
 40
55.6276136836683
100
AcDbArc
 50
90.0
 51
180.0
  0
ARC
  5
6D
330
46
100
AcDbEntity
  8
0
  6
Continuous
 62
     7
370
     0
100
AcDbCircle
 10
-883.6670100843
 20
422.6709638731
 30
0.0
 40
55.62761368366819
100
AcDbArc
 50
0.0
 51
90.0
  0
ARC
  5
6E
330
46
100
AcDbEntity
  8
0
  6
Continuous
 62
     7
370
     0
100
AcDbCircle
 10
751.1693702587
 20
84.1572284311
 30
0.0
 40
55.62761368366852
100
AcDbArc
 50
167.4974268903
 51
224.796493861
  0
ARC
  5
6F
330
46
100
AcDbEntity
  8
0
  6
Continuous
 62
     7
370
     0
100
AcDbCircle
 10
542.5238335845
 20
265.2390096659
 30
0.0
 40
55.62761368366862
100
AcDbArc
 50
218.8556584895
 51
351.8012460535
  0
ARC
  5
70
330
46
100
AcDbEntity
  8
0
  6
Continuous
 62
     7
370
     0
100
AcDbCircle
 10
464.4284846463
 20
1.1328478898
 30
0.0
 40
55.62761368368375
100
AcDbArc
 50
346.6872067774
 51
44.2818804499
  0
ARC
  5
71
330
46
100
AcDbEntity
  8
0
  6
Continuous
 62
     7
370
     0
100
AcDbCircle
 10
671.5727689264
 20
-185.9690548709
 30
0.0
 40
55.62761368366825
100
AcDbArc
 50
39.5992848036
 51
171.7882282766
  0
ARC
  5
72
330
46
100
AcDbEntity
  8
0
  6
Continuous
 62
     7
370
     0
100
AcDbCircle
 10
219.1309173284
 20
-287.598587012
 30
0.0
 40
55.62761368366822
100
AcDbArc
 50
0.0
 51
90.0
  0
ARC
  5
73
330
46
100
AcDbEntity
  8
0
  6
Continuous
 62
     7
370
     0
100
AcDbCircle
 10
63.5912815337
 20
-51.5698150553
 30
0.0
 40
55.62761368370145
100
AcDbArc
 50
270.0
 51
0.0
  0
ARC
  5
74
330
46
100
AcDbEntity
  8
0
  6
Continuous
 62
     7
370
     0
100
AcDbCircle
 10
63.5912815337
 20
73.5879902946
 30
0.0
 40
55.62761368370145
100
AcDbArc
 50
0.0
 51
90.0
  0
ARC
  5
75
330
46
100
AcDbEntity
  8
0
  6
Continuous
 62
     7
370
     0
100
AcDbCircle
 10
278.1330387818
 20
-786.1671005913
 30
0.0
 40
55.6276136836991
100
AcDbArc
 50
166.6872067774
 51
286.0985506513
  0
ARC
  5
76
330
46
100
AcDbEntity
  8
0
  6
Continuous
 62
     7
370
     0
100
AcDbCircle
 10
598.2914840963
 20
-693.766887036
 30
0.0
 40
55.6276136836682
100
AcDbArc
 50
286.0985506514
 51
351.7882282766
  0
ARC
  5
77
330
46
100
AcDbEntity
  8
0
  6
Continuous
 62
     7
370
     0
100
AcDbCircle
 10
997.8332858737
 20
-580.3602954418
 30
0.0
 40
55.62761368370253
100
AcDbArc
 50
219.5992848036
 51
286.1919412867
  0
ARC
  5
78
330
46
100
AcDbEntity
  8
0
  6
Continuous
 62
     7
370
     0
100
AcDbCircle
 10
1586.1281146836
 20
-423.5855275187
 30
0.0
 40
55.62761368366864
100
AcDbArc
 50
270.0
 51
0.0
  0
ARC
  5
79
330
46
100
AcDbEntity
  8
0
  6
Continuous
 62
     7
370
     0
100
AcDbCircle
 10
1774.8734010732
 20
276.8465881355
 30
0.0
 40
40.46955412504767
100
AcDbArc
 50
270.0
 51
0.0
  0
ARC
  5
7A
330
46
100
AcDbEntity
  8
0
  6
Continuous
 62
     7
370
     0
100
AcDbCircle
 10
1774.8734010732
 20
437.6623778593
 30
0.0
 40
40.46955412504775
100
AcDbArc
 50
0.0
 51
90.0
  0
ARC
  5
7B
330
46
100
AcDbEntity
  8
0
  6
Continuous
 62
     7
370
     0
100
AcDbCircle
 10
978.923471261
 20
422.5043183007
 30
0.0
 40
55.62761368369934
100
AcDbArc
 50
90.0
 51
180.0
  0
ARC
  5
7C
330
46
100
AcDbEntity
  8
0
  6
Continuous
 62
     7
370
     0
100
AcDbCircle
 10
978.923471261
 20
291.6141658775
 30
0.0
 40
55.62761368369922
100
AcDbArc
 50
180.0
 51
270.0
  0
ARC
  5
7D
330
46
100
AcDbEntity
  8
0
  6
Continuous
 62
     7
370
     0
100
AcDbCircle
 10
905.7459044969
 20
781.2587603884
 30
0.0
 40
55.62761368366819
100
AcDbArc
 50
347.4974268903
 51
106.1668587455
  0
ARC
  5
7E
330
46
100
AcDbEntity
  8
0
  6
Continuous
 62
     7
370
     0
100
AcDbCircle
 10
604.2801104592
 20
693.8639124127
 30
0.0
 40
55.6276136836683
100
AcDbArc
 50
106.1668587455
 51
171.8012460535
  0
ARC
  5
7F
330
46
100
AcDbEntity
  8
0
  6
Continuous
 62
     7
370
     0
100
AcDbCircle
 10
273.7504665449
 20
598.8614812289
 30
0.0
 40
55.62761368366799
100
AcDbArc
 50
38.8556584895
 51
105.8183764146
  0
ARC
  5
80
330
46
100
AcDbEntity
  8
0
  6
Continuous
 62
     7
370
     0
100
AcDbCircle
 10
-716.7680027826
 20
423.1800330044
 30
0.0
 40
55.62761368369939
100
AcDbArc
 50
90.0
 51
180.0
  0
ARC
  5
81
330
46
100
AcDbEntity
  8
0
  6
Continuous
 62
     7
370
     0
100
AcDbCircle
 10
-716.7680027826
 20
-423.7014330253
 30
0.0
 40
55.62761368366853
100
AcDbArc
 50
180.0
 51
270.0
  0
ARC
  5
82
330
46
100
AcDbEntity
  8
0
  6
Continuous
 62
     7
370
     0
100
AcDbCircle
 10
219.1309173284
 20
-423.7014330253
 30
0.0
 40
55.62761368369945
100
AcDbArc
 50
270.0
 51
0.0
  0
LINE
  5
83
330
46
100
AcDbEntity
  8
0
  6
Continuous
 62
     7
370
     0
100
AcDbLine
 10
-1775.2437764562
 20
458.2985775566
 30
0.0
 11
-1587.1800722805
 21
458.2985775566
 31
0.0
  0
LINE
  5
84
330
46
100
AcDbEntity
  8
0
  6
Continuous
 62
     7
370
     0
100
AcDbLine
 10
-1557.608482937
 20
442.5417454501
 30
0.0
 11
-1167.3127848467
 21
-138.2941950862
 31
0.0
  0
LINE
  5
85
330
46
100
AcDbEntity
  8
0
  6
Continuous
 62
     7
370
     0
100
AcDbLine
 10
-1167.3127848467
 20
422.6709638731
 30
0.0
 11
-1167.3127848467
 21
-138.2941950862
 31
0.0
  0
LINE
  5
86
330
46
100
AcDbEntity
  8
0
  6
Continuous
 62
     7
370
     0
100
AcDbLine
 10
-1131.6851711632
 20
458.2985775566
 30
0.0
 11
-883.6670100843
 21
458.2985775566
 31
0.0
  0
LINE
  5
87
330
46
100
AcDbEntity
  8
0
  6
Continuous
 62
     7
370
     0
100
AcDbLine
 10
-848.0393964008
 20
422.6709638731
 30
0.0
 11
-848.0393964008
 21
-422.6709638716
 31
0.0
  0
LINE
  5
88
330
46
100
AcDbEntity
  8
0
  6
Continuous
 62
     7
370
     0
100
AcDbLine
 10
-883.6670100843
 20
-458.2985775551
 30
0.0
 11
-1213.6286423958
 21
-458.2985775551
 31
0.0
  0
LINE
  5
89
330
46
100
AcDbEntity
  8
0
  6
Continuous
 62
     7
370
     0
100
AcDbLine
 10
-1665.1672890461
 20
141.98084568
 30
0.0
 11
-1242.5162028167
 21
-443.5236785561
 31
0.0
  0
LINE
  5
8A
330
46
100
AcDbEntity
  8
0
  6
Continuous
 62
     7
370
     0
100
AcDbLine
 10
-1665.1672890461
 20
-422.6709638716
 30
0.0
 11
-1665.1672890461
 21
141.98084568
 31
0.0
  0
LINE
  5
8B
330
46
100
AcDbEntity
  8
0
  6
Continuous
 62
     7
370
     0
100
AcDbLine
 10
-1775.2437764562
 20
-458.2985775551
 30
0.0
 11
-1700.7949027296
 21
-458.2985775551
 31
0.0
  0
LINE
  5
8C
330
46
100
AcDbEntity
  8
0
  6
Continuous
 62
     7
370
     0
100
AcDbLine
 10
-1795.713330581
 20
-437.8290234302
 30
0.0
 11
-1795.713330581
 21
437.8290234317
 31
0.0
  0
LINE
  5
8D
330
46
100
AcDbEntity
  8
0
  6
Continuous
 62
     7
370
     0
100
AcDbLine
 10
-716.7680027826
 20
458.8076466879
 30
0.0
 11
-27.5292825723
 21
458.8076466879
 31
0.0
  0
LINE
  5
8E
330
46
100
AcDbEntity
  8
0
  6
Continuous
 62
     7
370
     0
100
AcDbLine
 10
-27.5292825723
 20
458.8076466879
 30
0.0
 11
-99.0477677645
 21
530.2709748739
 31
0.0
  0
LINE
  5
8F
330
46
100
AcDbEntity
  8
0
  6
Continuous
 62
     7
370
     0
100
AcDbLine
 10
-99.0477677645
 20
530.2709748739
 30
0.0
 11
264.0387765096
 21
633.1398991247
 31
0.0
  0
LINE
  5
90
330
46
100
AcDbEntity
  8
0
  6
Continuous
 62
     7
370
     0
100
AcDbLine
 10
301.4947189366
 20
621.2128417246
 30
0.0
 11
518.9301531369
 21
351.3150175393
 31
0.0
  0
LINE
  5
91
330
46
100
AcDbEntity
  8
0
  6
Continuous
 62
     7
370
     0
100
AcDbLine
 10
518.9301531369
 20
351.3150175393
 30
0.0
 11
569.0166347679
 21
698.9446740632
 31
0.0
  0
LINE
  5
92
330
46
100
AcDbEntity
  8
0
  6
Continuous
 62
     7
370
     0
100
AcDbLine
 10
594.3601143785
 20
728.0826285566
 30
0.0
 11
895.8259084162
 21
815.4774765323
 31
0.0
  0
LINE
  5
93
330
46
100
AcDbEntity
  8
0
  6
Continuous
 62
     7
370
     0
100
AcDbLine
 10
940.5286551389
 20
773.5459713626
 30
0.0
 11
790.1659240582
 21
95.4476383795
 31
0.0
  0
LINE
  5
94
330
46
100
AcDbEntity
  8
0
  6
Continuous
 62
     7
370
     0
100
AcDbLine
 10
790.1659240582
 20
95.4476383795
 30
0.0
 11
1290.4292889099
 21
-408.3821318021
 31
0.0
  0
LINE
  5
95
330
46
100
AcDbEntity
  8
0
  6
Continuous
 62
     7
370
     0
100
AcDbLine
 10
1290.4292889099
 20
-408.3821318021
 30
0.0
 11
1290.4292889099
 21
255.986552194
 31
0.0
  0
LINE
  5
96
330
46
100
AcDbEntity
  8
0
  6
Continuous
 62
     7
370
     0
100
AcDbLine
 10
1290.4292889099
 20
255.986552194
 30
0.0
 11
978.923471261
 21
255.986552194
 31
0.0
  0
LINE
  5
97
330
46
100
AcDbEntity
  8
0
  6
Continuous
 62
     7
370
     0
100
AcDbLine
 10
943.2958575775
 20
291.6141658775
 30
0.0
 11
943.2958575775
 21
422.5043183007
 31
0.0
  0
LINE
  5
98
330
46
100
AcDbEntity
  8
0
  6
Continuous
 62
     7
370
     0
100
AcDbLine
 10
978.923471261
 20
458.1319319842
 30
0.0
 11
1774.8734010732
 21
458.1319319842
 31
0.0
  0
LINE
  5
99
330
46
100
AcDbEntity
  8
0
  6
Continuous
 62
     7
370
     0
100
AcDbLine
 10
1795.342955198
 20
437.6623778593
 30
0.0
 11
1795.342955198
 21
276.8465881355
 31
0.0
  0
LINE
  5
9A
330
46
100
AcDbEntity
  8
0
  6
Continuous
 62
     7
370
     0
100
AcDbLine
 10
1774.8734010732
 20
256.3770340107
 30
0.0
 11
1621.7557283671
 21
256.3770340107
 31
0.0
  0
LINE
  5
9B
330
46
100
AcDbEntity
  8
0
  6
Continuous
 62
     7
370
     0
100
AcDbLine
 10
1621.7557283671
 20
256.3770340107
 30
0.0
 11
1621.7557283671
 21
-423.5855275187
 31
0.0
  0
LINE
  5
9C
330
46
100
AcDbEntity
  8
0
  6
Continuous
 62
     7
370
     0
100
AcDbLine
 10
1586.1281146836
 20
-459.2131412022
 30
0.0
 11
1339.6695201832
 21
-459.2131412022
 31
0.0
  0
LINE
  5
9D
330
46
100
AcDbEntity
  8
0
  6
Continuous
 62
     7
370
     0
100
AcDbLine
 10
1339.6695201832
 20
-459.2131412022
 30
0.0
 11
1385.4091054823
 21
-504.9174545962
 31
0.0
  0
LINE
  5
9E
330
46
100
AcDbEntity
  8
0
  6
Continuous
 62
     7
370
     0
100
AcDbLine
 10
1385.4091054823
 20
-504.9174545962
 30
0.0
 11
1007.7682610309
 21
-614.5746656012
 31
0.0
  0
LINE
  5
9F
330
46
100
AcDbEntity
  8
0
  6
Continuous
 62
     7
370
     0
100
AcDbLine
 10
970.3814542472
 20
-603.0698484346
 30
0.0
 11
695.3546099506
 21
-270.611053459
 31
0.0
  0
LINE
  5
A0
330
46
100
AcDbEntity
  8
0
  6
Continuous
 62
     7
370
     0
100
AcDbLine
 10
695.3546099506
 20
-270.611053459
 30
0.0
 11
633.5538045128
 21
-698.8556605253
 31
0.0
  0
LINE
  5
A1
330
46
100
AcDbEntity
  8
0
  6
Continuous
 62
     7
370
     0
100
AcDbLine
 10
608.1706775441
 20
-727.9974054896
 30
0.0
 11
288.0122322296
 21
-820.3976190449
 31
0.0
  0
LINE
  5
A2
330
46
100
AcDbEntity
  8
0
  6
Continuous
 62
     7
370
     0
100
AcDbLine
 10
243.4628287838
 20
-777.9632359241
 30
0.0
 11
425.2486584403
 21
-9.7212981838
 31
0.0
  0
LINE
  5
A3
330
46
100
AcDbEntity
  8
0
  6
Continuous
 62
     7
370
     0
100
AcDbLine
 10
425.2486584403
 20
-9.7212981838
 30
0.0
 11
159.2646243592
 21
263.0151701683
 31
0.0
  0
LINE
  5
A4
330
46
100
AcDbEntity
  8
0
  6
Continuous
 62
     7
370
     0
100
AcDbLine
 10
-419.9767730238
 20
263.0151701683
 30
0.0
 11
159.2646243592
 21
263.0151701683
 31
0.0
  0
LINE
  5
A5
330
46
100
AcDbEntity
  8
0
  6
Continuous
 62
     7
370
     0
100
AcDbLine
 10
-419.9767730238
 20
109.2156039781
 30
0.0
 11
-419.9767730238
 21
263.0151701683
 31
0.0
  0
LINE
  5
A6
330
46
100
AcDbEntity
  8
0
  6
Continuous
 62
     7
370
     0
100
AcDbLine
 10
63.5912815337
 20
109.2156039781
 30
0.0
 11
-419.9767730238
 21
109.2156039781
 31
0.0
  0
LINE
  5
A7
330
46
100
AcDbEntity
  8
0
  6
Continuous
 62
     7
370
     0
100
AcDbLine
 10
99.2188952172
 20
-51.5698150553
 30
0.0
 11
99.2188952172
 21
73.5879902946
 31
0.0
  0
LINE
  5
A8
330
46
100
AcDbEntity
  8
0
  6
Continuous
 62
     7
370
     0
100
AcDbLine
 10
-419.9767730238
 20
-87.1974287388
 30
0.0
 11
63.5912815337
 21
-87.1974287388
 31
0.0
  0
LINE
  5
A9
330
46
100
AcDbEntity
  8
0
  6
Continuous
 62
     7
370
     0
100
AcDbLine
 10
-419.9767730238
 20
-251.9709733285
 30
0.0
 11
-419.9767730238
 21
-87.1974287388
 31
0.0
  0
LINE
  5
AA
330
46
100
AcDbEntity
  8
0
  6
Continuous
 62
     7
370
     0
100
AcDbLine
 10
219.1309173284
 20
-251.9709733285
 30
0.0
 11
-419.9767730238
 21
-251.9709733285
 31
0.0
  0
LINE
  5
AB
330
46
100
AcDbEntity
  8
0
  6
Continuous
 62
     7
370
     0
100
AcDbLine
 10
254.7585310119
 20
-423.7014330253
 30
0.0
 11
254.7585310119
 21
-287.598587012
 31
0.0
  0
LINE
  5
AC
330
46
100
AcDbEntity
  8
0
  6
Continuous
 62
     7
370
     0
100
AcDbLine
 10
-716.7680027826
 20
-459.3290467088
 30
0.0
 11
219.1309173284
 21
-459.3290467088
 31
0.0
  0
LINE
  5
AD
330
46
100
AcDbEntity
  8
0
  6
Continuous
 62
     7
370
     0
100
AcDbLine
 10
-752.3956164661
 20
423.1800330044
 30
0.0
 11
-752.3956164661
 21
-423.7014330253
 31
0.0
  0
LINE
  5
AE
330
46
100
AcDbEntity
  8
0
  6
Continuous
 62
     7
370
     0
100
AcDbLine
 10
804.2998003838
 20
673.1081113756
 30
0.0
 11
677.3351681763
 21
100.5293557941
 31
0.0
  0
LINE
  5
AF
330
46
100
AcDbEntity
  8
0
  6
Continuous
 62
     7
370
     0
100
AcDbLine
 10
697.5029678163
 20
30.8707085559
 30
0.0
 11
1175.1030802751
 21
-450.1342416968
 31
0.0
  0
LINE
  5
B0
330
46
100
AcDbEntity
  8
0
  6
Continuous
 62
     7
370
     0
100
AcDbLine
 10
1175.1030802751
 20
-450.1342416968
 30
0.0
 11
1024.4448801484
 21
-493.8815171312
 31
0.0
  0
LINE
  5
B1
330
46
100
AcDbEntity
  8
0
  6
Continuous
 62
     7
370
     0
100
AcDbLine
 10
1024.4448801484
 20
-493.8815171312
 30
0.0
 11
729.8454485285
 21
-137.7629270083
 31
0.0
  0
LINE
  5
B2
330
46
100
AcDbEntity
  8
0
  6
Continuous
 62
     7
370
     0
100
AcDbLine
 10
596.7205722638
 20
-175.1669899616
 30
0.0
 11
530.4127137476
 21
-634.642924201
 31
0.0
  0
LINE
  5
B3
330
46
100
AcDbEntity
  8
0
  6
Continuous
 62
     7
370
     0
100
AcDbLine
 10
530.4127137476
 20
-634.642924201
 30
0.0
 11
381.5365450752
 21
-677.6097425998
 31
0.0
  0
LINE
  5
B4
330
46
100
AcDbEntity
  8
0
  6
Continuous
 62
     7
370
     0
100
AcDbLine
 10
381.5365450752
 20
-677.6097425998
 30
0.0
 11
538.0237939297
 21
-16.2816978407
 31
0.0
  0
LINE
  5
B5
330
46
100
AcDbEntity
  8
0
  6
Continuous
 62
     7
370
     0
100
AcDbLine
 10
518.5713194598
 20
53.9352094836
 30
0.0
 11
109.2473797304
 21
473.6504984412
 31
0.0
  0
LINE
  5
B6
330
46
100
AcDbEntity
  8
0
  6
Continuous
 62
     7
370
     0
100
AcDbLine
 10
109.2473797304
 20
473.6504984412
 30
0.0
 11
246.2385432832
 21
512.4625498621
 31
0.0
  0
LINE
  5
B7
330
46
100
AcDbEntity
  8
0
  6
Continuous
 62
     7
370
     0
100
AcDbLine
 10
246.2385432832
 20
512.4625498621
 30
0.0
 11
483.6304252168
 21
217.7932258452
 31
0.0
  0
LINE
  5
B8
330
46
100
AcDbEntity
  8
0
  6
Continuous
 62
     7
370
     0
100
AcDbLine
 10
617.3784825774
 20
254.453951684
 30
0.0
 11
672.1796823774
 21
634.8065267316
 31
0.0
  0
LINE
  5
B9
330
46
100
AcDbEntity
  8
0
  6
Continuous
 62
     7
370
     0
100
AcDbLine
 10
672.1796823774
 20
634.8065267316
 30
0.0
 11
804.2998003838
 21
673.1081113756
 31
0.0
  0
LINE
  5
BA
330
46
100
AcDbEntity
  8
0
  6
Continuous
 62
     7
370
     0
100
AcDbLine
 10
1955.2327139547
 20
478.1319319843
 30
0.0
 11
1986.2593721161
 21
478.1319319843
 31
0.0
  0
LINE
  5
BB
330
46
100
AcDbEntity
  8
0
  6
Continuous
 62
     7
370
     0
100
AcDbLine
 10
1986.2593721161
 20
478.1319319843
 30
0.0
 11
1986.2593721161
 21
236.3770340105
 31
0.0
  0
LINE
  5
BC
330
46
100
AcDbEntity
  8
0
  6
Continuous
 62
     7
370
     0
100
AcDbLine
 10
1955.2327139547
 20
236.3770340105
 30
0.0
 11
1986.2593721161
 21
236.3770340105
 31
0.0
  0
LINE
  5
BD
330
46
100
AcDbEntity
  8
0
  6
Continuous
 62
     7
370
     0
100
AcDbLine
 10
1955.2327139547
 20
478.1319319843
 30
0.0
 11
1955.2327139547
 21
236.3770340105
 31
0.0
  0
LINE
  5
BE
330
46
100
AcDbEntity
  8
0
  6
Continuous
 62
     7
370
     0
100
AcDbLine
 10
-1986.2593721163
 20
478.2985775568
 30
0.0
 11
-1986.2593721163
 21
-478.2985775552
 31
0.0
  0
LINE
  5
BF
330
46
100
AcDbEntity
  8
0
  6
Continuous
 62
     7
370
     0
100
AcDbLine
 10
-1955.2327139549
 20
-478.2985775552
 30
0.0
 11
-1986.2593721163
 21
-478.2985775552
 31
0.0
  0
LINE
  5
C0
330
46
100
AcDbEntity
  8
0
  6
Continuous
 62
     7
370
     0
100
AcDbLine
 10
-1955.2327139549
 20
478.2985775568
 30
0.0
 11
-1955.2327139549
 21
-478.2985775552
 31
0.0
  0
LINE
  5
C1
330
46
100
AcDbEntity
  8
0
  6
Continuous
 62
     7
370
     0
100
AcDbLine
 10
-1955.2327139549
 20
478.2985775568
 30
0.0
 11
-1986.2593721163
 21
478.2985775568
 31
0.0
  0
LINE
  5
C2
330
46
100
AcDbEntity
  8
0
  6
Continuous
 62
     7
370
     0
100
AcDbLine
 10
1875.6425908404
 20
478.1319319843
 30
0.0
 11
1875.6425908404
 21
236.3770340105
 31
0.0
  0
LINE
  5
C3
330
46
100
AcDbEntity
  8
0
  6
Continuous
 62
     7
370
     0
100
AcDbLine
 10
1844.2112371367
 20
236.3770340105
 30
0.0
 11
1875.6425908404
 21
236.3770340105
 31
0.0
  0
LINE
  5
C4
330
46
100
AcDbEntity
  8
0
  6
Continuous
 62
     7
370
     0
100
AcDbLine
 10
1844.2112371367
 20
478.1319319843
 30
0.0
 11
1844.2112371367
 21
236.3770340105
 31
0.0
  0
LINE
  5
C5
330
46
100
AcDbEntity
  8
0
  6
Continuous
 62
     7
370
     0
100
AcDbLine
 10
1844.2112371367
 20
478.1319319843
 30
0.0
 11
1875.6425908404
 21
478.1319319843
 31
0.0
  0
LINE
  5
C6
330
46
100
AcDbEntity
  8
0
  6
Continuous
 62
     7
370
     0
100
AcDbLine
 10
1899.9243233154
 20
478.1319319843
 30
0.0
 11
1930.9509814768
 21
478.1319319843
 31
0.0
  0
LINE
  5
C7
330
46
100
AcDbEntity
  8
0
  6
Continuous
 62
     7
370
     0
100
AcDbLine
 10
1930.9509814768
 20
478.1319319843
 30
0.0
 11
1930.9509814768
 21
236.3770340105
 31
0.0
  0
LINE
  5
C8
330
46
100
AcDbEntity
  8
0
  6
Continuous
 62
     7
370
     0
100
AcDbLine
 10
1899.9243233154
 20
236.3770340105
 30
0.0
 11
1930.9509814768
 21
236.3770340105
 31
0.0
  0
LINE
  5
C9
330
46
100
AcDbEntity
  8
0
  6
Continuous
 62
     7
370
     0
100
AcDbLine
 10
1899.9243233154
 20
478.1319319843
 30
0.0
 11
1899.9243233154
 21
236.3770340105
 31
0.0
  0
LINE
  5
CA
330
46
100
AcDbEntity
  8
0
  6
Continuous
 62
     7
370
     0
100
AcDbLine
 10
-828.0393964006
 20
422.6709638731
 30
0.0
 11
-828.0393964006
 21
-422.6709638716
 31
0.0
  0
LINE
  5
CB
330
46
100
AcDbEntity
  8
0
  6
Continuous
 62
     7
370
     0
100
AcDbLine
 10
-883.6670100843
 20
-478.2985775552
 30
0.0
 11
-1213.6286423958
 21
-478.2985775552
 31
0.0
  0
LINE
  5
CC
330
46
100
AcDbEntity
  8
0
  6
Continuous
 62
     7
370
     0
100
AcDbLine
 10
-1645.1672890459
 20
80.1038430154
 30
0.0
 11
-1258.7325908564
 21
-455.2296069238
 31
0.0
  0
LINE
  5
CD
330
46
100
AcDbEntity
  8
0
  6
Continuous
 62
     7
370
     0
100
AcDbLine
 10
-1645.1672890459
 20
-422.6709638716
 30
0.0
 11
-1645.1672890459
 21
80.1038430154
 31
0.0
  0
LINE
  5
CE
330
46
100
AcDbEntity
  8
0
  6
Continuous
 62
     7
370
     0
100
AcDbLine
 10
-1775.2437764562
 20
-478.2985775552
 30
0.0
 11
-1700.7949027296
 21
-478.2985775552
 31
0.0
  0
LINE
  5
CF
330
46
100
AcDbEntity
  8
0
  6
Continuous
 62
     7
370
     0
100
AcDbLine
 10
-1815.7133305812
 20
-437.8290234302
 30
0.0
 11
-1815.7133305812
 21
437.8290234317
 31
0.0
  0
LINE
  5
D0
330
46
100
AcDbEntity
  8
0
  6
Continuous
 62
     7
370
     0
100
AcDbLine
 10
-1775.2437764562
 20
478.2985775568
 30
0.0
 11
-1587.1800722805
 21
478.2985775568
 31
0.0
  0
LINE
  5
D1
330
46
100
AcDbEntity
  8
0
  6
Continuous
 62
     7
370
     0
100
AcDbLine
 10
-1541.0081068318
 20
453.696453567
 30
0.0
 11
-1187.3127848469
 21
-72.6710058069
 31
0.0
  0
LINE
  5
D2
330
46
100
AcDbEntity
  8
0
  6
Continuous
 62
     7
370
     0
100
AcDbLine
 10
-1187.3127848469
 20
422.6709638731
 30
0.0
 11
-1187.3127848469
 21
-72.6710058069
 31
0.0
  0
LINE
  5
D3
330
46
100
AcDbEntity
  8
0
  6
Continuous
 62
     7
370
     0
100
AcDbLine
 10
-1131.6851711632
 20
478.2985775568
 30
0.0
 11
-883.6670100843
 21
478.2985775568
 31
0.0
  0
LINE
  5
D4
330
46
100
AcDbEntity
  8
0
  6
Continuous
 62
     7
370
     0
100
AcDbLine
 10
1017.407346375
 20
-516.7511474419
 30
0.0
 11
714.4350245406
 21
-150.5112144433
 31
0.0
  0
LINE
  5
D5
330
46
100
AcDbEntity
  8
0
  6
Continuous
 62
     7
370
     0
100
AcDbLine
 10
1213.0308279912
 20
-459.9471080694
 30
0.0
 11
1017.407346375
 21
-516.7511474419
 31
0.0
  0
LINE
  5
D6
330
46
100
AcDbEntity
  8
0
  6
Continuous
 62
     7
370
     0
100
AcDbLine
 10
711.6952449037
 20
44.9625243042
 30
0.0
 11
1213.0308279912
 21
-459.9471080694
 31
0.0
  0
LINE
  5
D7
330
46
100
AcDbEntity
  8
0
  6
Continuous
 62
     7
370
     0
100
AcDbLine
 10
831.1275949348
 20
701.7089474319
 30
0.0
 11
696.8608938965
 21
96.1996866255
 31
0.0
  0
LINE
  5
D8
330
46
100
AcDbEntity
  8
0
  6
Continuous
 62
     7
370
     0
100
AcDbLine
 10
654.2233913848
 20
650.4244691219
 30
0.0
 11
831.1275949348
 21
701.7089474319
 31
0.0
  0
LINE
  5
D9
330
46
100
AcDbEntity
  8
0
  6
Continuous
 62
     7
370
     0
100
AcDbLine
 10
597.5828959266
 20
257.3060998497
 30
0.0
 11
654.2233913848
 21
650.4244691219
 31
0.0
  0
LINE
  5
DA
330
46
100
AcDbEntity
  8
0
  6
Continuous
 62
     7
370
     0
100
AcDbLine
 10
253.5141723619
 20
535.311064356
 30
0.0
 11
499.2050032048
 21
230.3404375078
 31
0.0
  0
LINE
  5
DB
330
46
100
AcDbEntity
  8
0
  6
Continuous
 62
     7
370
     0
100
AcDbLine
 10
71.4751101005
 20
483.7361360042
 30
0.0
 11
253.5141723619
 21
535.311064356
 31
0.0
  0
LINE
  5
DC
330
46
100
AcDbEntity
  8
0
  6
Continuous
 62
     7
370
     0
100
AcDbLine
 10
504.2530480834
 20
39.9714311697
 30
0.0
 11
71.4751101005
 21
483.7361360042
 31
0.0
  0
LINE
  5
DD
330
46
100
AcDbEntity
  8
0
  6
Continuous
 62
     7
370
     0
100
AcDbLine
 10
354.1911083338
 20
-706.3181343381
 30
0.0
 11
518.561244287
 21
-11.676357309
 31
0.0
  0
LINE
  5
DE
330
46
100
AcDbEntity
  8
0
  6
Continuous
 62
     7
370
     0
100
AcDbLine
 10
548.3635036894
 20
-650.2784731642
 30
0.0
 11
354.1911083338
 21
-706.3181343381
 31
0.0
  0
LINE
  5
DF
330
46
100
AcDbEntity
  8
0
  6
Continuous
 62
     7
370
     0
100
AcDbLine
 10
616.5155103868
 20
-178.0236356717
 30
0.0
 11
548.3635036894
 21
-650.2784731642
 31
0.0
  0
LINE
  5
E0
330
46
100
AcDbEntity
  8
0
  6
Continuous
 62
     7
370
     0
100
AcDbLine
 10
-1844.615932681
 20
-478.2985775552
 30
0.0
 11
-1875.6425908424
 21
-478.2985775552
 31
0.0
  0
LINE
  5
E1
330
46
100
AcDbEntity
  8
0
  6
Continuous
 62
     7
370
     0
100
AcDbLine
 10
-1875.6425908424
 20
478.2985775568
 30
0.0
 11
-1875.6425908424
 21
-478.2985775552
 31
0.0
  0
LINE
  5
E2
330
46
100
AcDbEntity
  8
0
  6
Continuous
 62
     7
370
     0
100
AcDbLine
 10
-1844.615932681
 20
478.2985775568
 30
0.0
 11
-1875.6425908424
 21
478.2985775568
 31
0.0
  0
LINE
  5
E3
330
46
100
AcDbEntity
  8
0
  6
Continuous
 62
     7
370
     0
100
AcDbLine
 10
-1844.615932681
 20
478.2985775568
 30
0.0
 11
-1844.615932681
 21
-478.2985775552
 31
0.0
  0
LINE
  5
E4
330
46
100
AcDbEntity
  8
0
  6
Continuous
 62
     7
370
     0
100
AcDbLine
 10
-1930.9509814799
 20
478.2985775568
 30
0.0
 11
-1930.9509814799
 21
-478.2985775552
 31
0.0
  0
LINE
  5
E5
330
46
100
AcDbEntity
  8
0
  6
Continuous
 62
     7
370
     0
100
AcDbLine
 10
-1899.9243233185
 20
-478.2985775552
 30
0.0
 11
-1930.9509814799
 21
-478.2985775552
 31
0.0
  0
LINE
  5
E6
330
46
100
AcDbEntity
  8
0
  6
Continuous
 62
     7
370
     0
100
AcDbLine
 10
-1899.9243233185
 20
478.2985775568
 30
0.0
 11
-1899.9243233185
 21
-478.2985775552
 31
0.0
  0
LINE
  5
E7
330
46
100
AcDbEntity
  8
0
  6
Continuous
 62
     7
370
     0
100
AcDbLine
 10
-1899.9243233185
 20
478.2985775568
 30
0.0
 11
-1930.9509814799
 21
478.2985775568
 31
0.0
  0
LINE
  5
E8
330
46
100
AcDbEntity
  8
0
  6
Continuous
 62
     7
370
     0
100
AcDbLine
 10
274.7585310121
 20
-423.7014330253
 30
0.0
 11
274.7585310121
 21
-287.598587012
 31
0.0
  0
LINE
  5
E9
330
46
100
AcDbEntity
  8
0
  6
Continuous
 62
     7
370
     0
100
AcDbLine
 10
219.1309173284
 20
-231.9709733283
 30
0.0
 11
-399.9767730236
 21
-231.9709733283
 31
0.0
  0
LINE
  5
EA
330
46
100
AcDbEntity
  8
0
  6
Continuous
 62
     7
370
     0
100
AcDbLine
 10
-399.9767730236
 20
-231.9709733283
 30
0.0
 11
-399.9767730236
 21
-107.197428739
 31
0.0
  0
LINE
  5
EB
330
46
100
AcDbEntity
  8
0
  6
Continuous
 62
     7
370
     0
100
AcDbLine
 10
-399.9767730236
 20
-107.197428739
 30
0.0
 11
63.5912815337
 21
-107.197428739
 31
0.0
  0
LINE
  5
EC
330
46
100
AcDbEntity
  8
0
  6
Continuous
 62
     7
370
     0
100
AcDbLine
 10
119.2188952174
 20
-51.5698150553
 30
0.0
 11
119.2188952174
 21
73.5879902946
 31
0.0
  0
LINE
  5
ED
330
46
100
AcDbEntity
  8
0
  6
Continuous
 62
     7
370
     0
100
AcDbLine
 10
63.5912815337
 20
129.2156039783
 30
0.0
 11
-399.9767730236
 21
129.2156039783
 31
0.0
  0
LINE
  5
EE
330
46
100
AcDbEntity
  8
0
  6
Continuous
 62
     7
370
     0
100
AcDbLine
 10
-399.9767730236
 20
129.2156039783
 30
0.0
 11
-399.9767730236
 21
243.0151701681
 31
0.0
  0
LINE
  5
EF
330
46
100
AcDbEntity
  8
0
  6
Continuous
 62
     7
370
     0
100
AcDbLine
 10
-399.9767730236
 20
243.0151701681
 30
0.0
 11
150.833129344
 21
243.0151701681
 31
0.0
  0
LINE
  5
F0
330
46
100
AcDbEntity
  8
0
  6
Continuous
 62
     7
370
     0
100
AcDbLine
 10
403.2545801648
 20
-15.8144068439
 30
0.0
 11
150.833129344
 21
243.0151701681
 31
0.0
  0
LINE
  5
F1
330
46
100
AcDbEntity
  8
0
  6
Continuous
 62
     7
370
     0
100
AcDbLine
 10
224.0002791411
 20
-773.3578953924
 30
0.0
 11
403.2545801648
 21
-15.8144068439
 31
0.0
  0
LINE
  5
F2
330
46
100
AcDbEntity
  8
0
  6
Continuous
 62
     7
370
     0
100
AcDbLine
 10
613.7164845329
 20
-747.2131288653
 30
0.0
 11
293.5580392183
 21
-839.6133424205
 31
0.0
  0
LINE
  5
F3
330
46
100
AcDbEntity
  8
0
  6
Continuous
 62
     7
370
     0
100
AcDbLine
 10
708.7048394864
 20
-318.1258824569
 30
0.0
 11
653.3487426358
 21
-701.7123062352
 31
0.0
  0
LINE
  5
F4
330
46
100
AcDbEntity
  8
0
  6
Continuous
 62
     7
370
     0
100
AcDbLine
 10
954.9710302594
 20
-615.8181358695
 30
0.0
 11
708.7048394864
 21
-318.1258824569
 31
0.0
  0
LINE
  5
F5
330
46
100
AcDbEntity
  8
0
  6
Continuous
 62
     7
370
     0
100
AcDbLine
 10
1423.4824283569
 20
-514.6880496767
 30
0.0
 11
1013.3453817697
 21
-633.781323933
 31
0.0
  0
LINE
  5
F6
330
46
100
AcDbEntity
  8
0
  6
Continuous
 62
     7
370
     0
100
AcDbLine
 10
1387.9801424314
 20
-479.2131412023
 30
0.0
 11
1423.4824283569
 21
-514.6880496767
 31
0.0
  0
LINE
  5
F7
330
46
100
AcDbEntity
  8
0
  6
Continuous
 62
     7
370
     0
100
AcDbLine
 10
1586.1281146836
 20
-479.2131412023
 30
0.0
 11
1387.9801424314
 21
-479.2131412023
 31
0.0
  0
LINE
  5
F8
330
46
100
AcDbEntity
  8
0
  6
Continuous
 62
     7
370
     0
100
AcDbLine
 10
1641.7557283673
 20
236.3770340105
 30
0.0
 11
1641.7557283673
 21
-423.5855275187
 31
0.0
  0
LINE
  5
F9
330
46
100
AcDbEntity
  8
0
  6
Continuous
 62
     7
370
     0
100
AcDbLine
 10
1774.8734010732
 20
236.3770340105
 30
0.0
 11
1641.7557283673
 21
236.3770340105
 31
0.0
  0
LINE
  5
FA
330
46
100
AcDbEntity
  8
0
  6
Continuous
 62
     7
370
     0
100
AcDbLine
 10
1815.3429551982
 20
437.6623778593
 30
0.0
 11
1815.3429551982
 21
276.8465881355
 31
0.0
  0
LINE
  5
FB
330
46
100
AcDbEntity
  8
0
  6
Continuous
 62
     7
370
     0
100
AcDbLine
 10
978.923471261
 20
478.1319319843
 30
0.0
 11
1774.8734010732
 21
478.1319319843
 31
0.0
  0
LINE
  5
FC
330
46
100
AcDbEntity
  8
0
  6
Continuous
 62
     7
370
     0
100
AcDbLine
 10
923.2958575773
 20
291.6141658775
 30
0.0
 11
923.2958575773
 21
422.5043183007
 31
0.0
  0
LINE
  5
FD
330
46
100
AcDbEntity
  8
0
  6
Continuous
 62
     7
370
     0
100
AcDbLine
 10
1270.4292889102
 20
235.9865521938
 30
0.0
 11
978.923471261
 21
235.9865521938
 31
0.0
  0
LINE
  5
FE
330
46
100
AcDbEntity
  8
0
  6
Continuous
 62
     7
370
     0
100
AcDbLine
 10
1270.4292889102
 20
-359.8542803228
 30
0.0
 11
1270.4292889102
 21
235.9865521938
 31
0.0
  0
LINE
  5
FF
330
46
100
AcDbEntity
  8
0
  6
Continuous
 62
     7
370
     0
100
AcDbLine
 10
812.0571201107
 20
101.7856491419
 30
0.0
 11
1270.4292889102
 21
-359.8542803228
 31
0.0
  0
LINE
  5
100
330
46
100
AcDbEntity
  8
0
  6
Continuous
 62
     7
370
     0
100
AcDbLine
 10
960.0543808591
 20
769.216302194
 30
0.0
 11
812.0571201107
 21
101.7856491419
 31
0.0
  0
LINE
  5
101
330
46
100
AcDbEntity
  8
0
  6
Continuous
 62
     7
370
     0
100
AcDbLine
 10
588.791402329
 20
747.2917265603
 30
0.0
 11
890.2571963667
 21
834.686574536
 31
0.0
  0
LINE
  5
102
330
46
100
AcDbEntity
  8
0
  6
Continuous
 62
     7
370
     0
100
AcDbLine
 10
505.6855498589
 20
399.6348453204
 30
0.0
 11
549.2210481172
 21
701.7968222288
 31
0.0
  0
LINE
  5
103
330
46
100
AcDbEntity
  8
0
  6
Continuous
 62
     7
370
     0
100
AcDbLine
 10
317.0692969246
 20
633.760053387
 30
0.0
 11
505.6855498589
 21
399.6348453204
 31
0.0
  0
LINE
  5
104
330
46
100
AcDbEntity
  8
0
  6
Continuous
 62
     7
370
     0
100
AcDbLine
 10
-137.3002269205
 20
540.2205661397
 30
0.0
 11
258.5869996259
 21
652.3825114426
 31
0.0
  0
LINE
  5
105
330
46
100
AcDbEntity
  8
0
  6
Continuous
 62
     7
370
     0
100
AcDbLine
 10
-75.8399075956
 20
478.8076466881
 30
0.0
 11
-137.3002269205
 21
540.2205661397
 31
0.0
  0
LINE
  5
106
330
46
100
AcDbEntity
  8
0
  6
Continuous
 62
     7
370
     0
100
AcDbLine
 10
-716.7680027826
 20
478.8076466881
 30
0.0
 11
-75.8399075956
 21
478.8076466881
 31
0.0
  0
LINE
  5
107
330
46
100
AcDbEntity
  8
0
  6
Continuous
 62
     7
370
     0
100
AcDbLine
 10
-772.3956164663
 20
423.1800330044
 30
0.0
 11
-772.3956164663
 21
-423.7014330253
 31
0.0
  0
LINE
  5
108
330
46
100
AcDbEntity
  8
0
  6
Continuous
 62
     7
370
     0
100
AcDbLine
 10
-716.7680027826
 20
-479.3290467089
 30
0.0
 11
219.1309173284
 21
-479.329046709
 31
0.0
  0
ENDBLK
  5
48
330
46
100
AcDbEntity
  8
0
100
AcDbBlockEnd
  0
BLOCK
  5
181
330
180
100
AcDbEntity
  8
0
100
AcDbBlockBegin
  2
_D
 70
     0
 10
0.0
 20
0.0
 30
0.0
  3
_D
  1

  0
SOLID
  5
183
330
180
100
AcDbEntity
  8
MEDIÇÕES
100
AcDbTrace
 10
885.7531781315
 20
245.1288983847
 30
0.0
 11
918.7731781315
 21
240.0488983847
 31
0.0
 12
918.7731781315
 22
250.2088983847
 32
0.0
 13
918.7731781315
 23
250.2088983847
 33
0.0
  0
SOLID
  5
184
330
180
100
AcDbEntity
  8
MEDIÇÕES
100
AcDbTrace
 10
666.7531781315
 20
245.1288983847
 30
0.0
 11
633.7331781315
 21
250.2088983847
 31
0.0
 12
633.7331781315
 22
240.0488983847
 32
0.0
 13
633.7331781315
 23
240.0488983847
 33
0.0
  0
LINE
  5
185
330
180
100
AcDbEntity
  8
MEDIÇÕES
100
AcDbLine
 10
885.7531781315
 20
351.6288983849
 30
0.0
 11
885.7531781315
 21
235.1288983847
 31
0.0
  0
LINE
  5
186
330
180
100
AcDbEntity
  8
MEDIÇÕES
100
AcDbLine
 10
666.7531781315
 20
351.6288983849
 30
0.0
 11
666.7531781315
 21
235.1288983847
 31
0.0
  0
LINE
  5
187
330
180
100
AcDbEntity
  8
MEDIÇÕES
100
AcDbLine
 10
885.7531781315
 20
245.1288983847
 30
0.0
 11
949.2531781315
 21
245.1288983847
 31
0.0
  0
LINE
  5
188
330
180
100
AcDbEntity
  8
MEDIÇÕES
100
AcDbLine
 10
885.7531781315
 20
245.1288983847
 30
0.0
 11
666.7531781315
 21
245.1288983847
 31
0.0
  0
LINE
  5
189
330
180
100
AcDbEntity
  8
MEDIÇÕES
100
AcDbLine
 10
666.7531781315
 20
245.1288983847
 30
0.0
 11
603.2531781315
 21
245.1288983847
 31
0.0
  0
MTEXT
  5
18A
330
180
100
AcDbEntity
  8
MEDIÇÕES
100
AcDbMText
 10
723.2427628457
 20
290.2462675305
 30
-24.9
 40
35.0
 41
0.0
 71
     1
 72
     1
  1
219
  7
SLDTEXTSTYLE1
 73
     1
 44
1.0
  0
ENDBLK
  5
182
330
180
100
AcDbEntity
  8
0
100
AcDbBlockEnd
  0
BLOCK
  5
233
330
232
100
AcDbEntity
  8
0
100
AcDbBlockBegin
  2
_D_1
 70
     0
 10
0.0
 20
0.0
 30
0.0
  3
_D_1
  1

  0
SOLID
  5
235
330
232
100
AcDbEntity
  8
MEDIÇÕES
100
AcDbTrace
 10
1483.221035641
 20
347.6288983849
 30
0.0
 11
1488.301035641
 21
380.6488983849
 31
0.0
 12
1478.141035641
 22
380.6488983849
 32
0.0
 13
1478.141035641
 23
380.6488983849
 33
0.0
  0
SOLID
  5
236
330
232
100
AcDbEntity
  8
MEDIÇÕES
100
AcDbTrace
 10
1483.221035641
 20
970.6288983849
 30
0.0
 11
1478.141035641
 21
937.6088983849
 31
0.0
 12
1488.301035641
 22
937.6088983849
 32
0.0
 13
1488.301035641
 23
937.6088983849
 33
0.0
  0
LINE
  5
237
330
232
100
AcDbEntity
  8
MEDIÇÕES
100
AcDbLine
 10
1610.1295084611
 20
347.6288983849
 30
0.0
 11
1473.221035641
 21
347.6288983849
 31
0.0
  0
LINE
  5
238
330
232
100
AcDbEntity
  8
MEDIÇÕES
100
AcDbLine
 10
1610.1295084611
 20
970.6288983849
 30
0.0
 11
1473.221035641
 21
970.6288983849
 31
0.0
  0
LINE
  5
239
330
232
100
AcDbEntity
  8
MEDIÇÕES
100
AcDbLine
 10
1483.221035641
 20
347.6288983849
 30
0.0
 11
1483.221035641
 21
970.6288983849
 31
0.0
  0
MTEXT
  5
23A
330
232
100
AcDbEntity
  8
MEDIÇÕES
100
AcDbMText
 10
1438.1036664952
 20
606.1184830991
 30
0.1
 40
35.0
 41
0.0
 71
     1
 72
     1
  1
623
  7
SLDTEXTSTYLE1
 11
6.123233995736766E-17
 21
1.0
 31
0.0
 73
     1
 44
1.0
  0
ENDBLK
  5
234
330
232
100
AcDbEntity
  8
0
100
AcDbBlockEnd
  0
BLOCK
  5
26B
330
26A
100
AcDbEntity
  8
0
100
AcDbBlockBegin
  2
_D_2
 70
     0
 10
0.0
 20
0.0
 30
0.0
  3
_D_2
  1

  0
SOLID
  5
26D
330
26A
100
AcDbEntity
  8
MEDIÇÕES
100
AcDbTrace
 10
613.9404778192
 20
1658.6655535518
 30
0.0
 11
608.8604778192
 21
1625.6455535518
 31
0.0
 12
619.0204778192
 22
1625.6455535518
 32
0.0
 13
619.0204778192
 23
1625.6455535518
 33
0.0
  0
SOLID
  5
26E
330
26A
100
AcDbEntity
  8
MEDIÇÕES
100
AcDbTrace
 10
613.9404778192
 20
1399.6655535518
 30
0.0
 11
619.0204778192
 21
1432.6855535518
 31
0.0
 12
608.8604778192
 22
1432.6855535518
 32
0.0
 13
608.8604778192
 23
1432.6855535518
 33
0.0
  0
LINE
  5
26F
330
26A
100
AcDbEntity
  8
MEDIÇÕES
100
AcDbLine
 10
685.6838701796
 20
1658.6655535518
 30
0.0
 11
603.9404778192
 21
1658.6655535518
 31
0.0
  0
LINE
  5
270
330
26A
100
AcDbEntity
  8
MEDIÇÕES
100
AcDbLine
 10
766.2531781315
 20
1399.6655535518
 30
0.0
 11
603.9404778192
 21
1399.6655535518
 31
0.0
  0
LINE
  5
271
330
26A
100
AcDbEntity
  8
MEDIÇÕES
100
AcDbLine
 10
613.9404778192
 20
1658.6655535518
 30
0.0
 11
613.9404778192
 21
1399.6655535518
 31
0.0
  0
MTEXT
  5
272
330
26A
100
AcDbEntity
  8
MEDIÇÕES
100
AcDbMText
 10
568.8231086734
 20
1482.2008732304
 30
1.3500000001
 40
35.0
 41
0.0
 71
     1
 72
     1
  1
259
  7
SLDTEXTSTYLE1
 11
-7.044195017643634E-15
 21
1.0
 31
0.0
 73
     1
 44
1.0
  0
ENDBLK
  5
26C
330
26A
100
AcDbEntity
  8
0
100
AcDbBlockEnd
  0
ENDSEC
  0
SECTION
  2
ENTITIES
  0
LINE
  5
109
330
1F
100
AcDbEntity
  8
0
  6
Continuous
 62
     7
370
     0
100
AcDbLine
 10
73.6486218951
 20
2015.2546462079
 30
0.0
 11
2908.3430426184
 21
2015.2546462079
 31
0.0
  0
LINE
  5
10A
330
1F
100
AcDbEntity
  8
0
  6
Continuous
 62
     7
370
     0
100
AcDbLine
 10
73.6486218951
 20
2015.2546462079
 30
0.0
 11
73.6486218951
 21
52.0062153195
 31
0.0
  0
LINE
  5
10B
330
1F
100
AcDbEntity
  8
0
  6
Continuous
 62
     7
370
     0
100
AcDbLine
 10
73.6486218951
 20
52.0062153195
 30
0.0
 11
2908.3430426184
 21
52.0062153195
 31
0.0
  0
LINE
  5
10C
330
1F
100
AcDbEntity
  8
0
  6
Continuous
 62
     8
420
  8421504
370
    40
100
AcDbLine
 10
2065.3036793829
 20
289.6106299821
 30
0.0
 11
2908.3430426184
 21
289.6106299821
 31
0.0
  0
LINE
  5
10D
330
1F
100
AcDbEntity
  8
0
  6
Continuous
 62
     7
370
     0
100
AcDbLine
 10
2908.3430426184
 20
2015.2546462079
 30
0.0
 11
2908.3430426184
 21
52.0062153195
 31
0.0
  0
LINE
  5
10E
330
1F
100
AcDbEntity
  8
0
  6
Continuous
 62
     8
420
  8421504
370
    40
100
AcDbLine
 10
2065.3036793829
 20
244.0269995402
 30
0.0
 11
2908.3430426184
 21
244.0269995402
 31
0.0
  0
LINE
  5
10F
330
1F
100
AcDbEntity
  8
0
  6
Continuous
 62
     8
420
  8421504
370
    40
100
AcDbLine
 10
2065.3036793829
 20
104.4852736976
 30
0.0
 11
2908.3430426184
 21
104.4852736976
 31
0.0
  0
INSERT
  5
110
330
1F
100
AcDbEntity
  8
0
  6
Continuous
 62
     7
100
AcDbBlockReference
  2
Logo_Next.V3
 10
2533.2833433192
 20
385.1362543806
 30
0.0
 41
0.088
 42
0.088
 43
0.088
  0
MTEXT
  5
112
330
1F
100
AcDbEntity
  8
0
  6
Continuous
 62
     7
370
     0
100
AcDbMText
 10
2785.0
 20
84.3360149091
 30
0.0
 40
15.0
 41
0.0
 71
     1
 72
     1
  1
SHEET 1 OF 1
  7
SLDTEXTSTYLE0
 73
     1
 44
1.0
  0
MTEXT
  5
114
330
1F
100
AcDbEntity
  8
0
  6
Continuous
 62
     7
370
     0
100
AcDbMText
 10
2070.1338428396
 20
269.4144030073
 30
0.0
 40
13.2291666667
 41
0.0
 71
     1
 72
     1
  1
TITLE:
  7
SLDTEXTSTYLE1
 73
     1
 44
1.0
  0
MTEXT
  5
116
330
1F
100
AcDbEntity
  8
0
  6
Continuous
 62
     7
370
     0
100
AcDbMText
 10
2189.0191473576
 20
186.4031371449
 30
0.0
 40
26.4583333333
 41
0.0
 71
     1
 72
     1
  1
NC00006
  7
SLDTEXTSTYLE2
 73
     1
 44
1.0
  0
MTEXT
  5
117
330
1F
100
AcDbEntity
  8
0
  6
Continuous
 62
     7
370
     0
100
AcDbMText
 10
2760.0378578924
 20
132.5666195236
 30
0.0
 40
21.1666666667
 41
0.0
 71
     1
 72
     1
  1
26-09-2014
  7
SLDTEXTSTYLE2
 73
     1
 44
1.0
  0
MTEXT
  5
118
330
1F
100
AcDbEntity
  8
0
  6
Continuous
 62
     7
370
     0
100
AcDbMText
 10
2070.1338428396
 20
172.9511179359
 30
0.0
 40
13.2291666667
 41
0.0
 71
     1
 72
     1
  1
Reference :
  7
SLDTEXTSTYLE1
 73
     1
 44
1.0
  0
MTEXT
  5
119
330
1F
100
AcDbEntity
  8
0
  6
Continuous
 62
     7
370
     0
100
AcDbMText
 10
2725.0566539417
 20
124.4366111594
 30
0.0
 40
13.2291666667
 41
0.0
 71
     2
 72
     1
  1
Date:
  7
SLDTEXTSTYLE1
 73
     1
 44
1.0
  0
MTEXT
  5
11A
330
1F
100
AcDbEntity
  8
0
  6
Continuous
 62
     7
370
     0
100
AcDbMText
 10
2070.1338428396
 20
226.1682214746
 30
0.0
 40
13.2291666667
 41
0.0
 71
     1
 72
     1
  1
REVISION:
  7
SLDTEXTSTYLE1
 73
     1
 44
1.0
  0
MTEXT
  5
11B
330
1F
100
AcDbEntity
  8
0
  6
Continuous
 62
     7
370
     0
100
AcDbMText
 10
2189.0191473576
 20
234.0630452774
 30
0.0
 40
21.1666666667
 41
0.0
 71
     1
 72
     1
  1
V1.0
  7
SLDTEXTSTYLE1
 73
     1
 44
1.0
  0
MTEXT
  5
11C
330
1F
100
AcDbEntity
  8
0
  6
Continuous
 62
     7
370
     0
100
AcDbMText
 10
2528.7749527891
 20
278.2716088622
 30
0.0
 40
21.1666666667
 41
0.0
 71
     2
 72
     1
  1
NEXT HFA206 - 500W Active 2-Way Speaker (2x6.5"+1")
  7
SLDTEXTSTYLE1
 73
     1
 44
1.0
  0
MTEXT
  5
11D
330
1F
100
AcDbEntity
  8
MEDIÇÕES
100
AcDbMText
 10
2414.0896881916
 20
84.9563102753
 30
0.0
 40
15.875
 41
0.0
 71
     1
 72
     1
  1
All dimensions in mm
  7
SLDTEXTSTYLE1
 73
     1
 44
1.0
  0
MTEXT
  5
11E
330
1F
100
AcDbEntity
  8
0
  6
Continuous
 62
     7
370
     0
100
AcDbMText
 10
2356.2250577519
 20
341.3159263744
 30
0.0
 40
32.0
 41
0.0
 71
     1
 72
     1
  1
proaudio
  7
SLDTEXTSTYLE1
 73
     1
 44
1.0
  0
LINE
  5
11F
330
1F
100
AcDbEntity
  8
0
  6
Continuous
 62
     7
370
    15
100
AcDbLine
 10
857.1055004119
 20
347.6288855103
 30
0.0
 11
857.7337706207
 21
345.203810933
 31
0.0
  0
LINE
  5
120
330
1F
100
AcDbEntity
  8
0
  6
Continuous
 62
     7
370
    15
100
AcDbLine
 10
873.7725907683
 20
345.203810933
 30
0.0
 11
874.4008609771
 21
347.6288855103
 31
0.0
  0
ARC
  5
121
330
1F
100
AcDbEntity
  8
0
  6
Continuous
 62
     7
370
    15
100
AcDbCircle
 10
873.6757839521
 20
345.228898385
 30
0.0
 40
0.1000000000000007
100
AcDbArc
 50
270.0
 51
345.475570922
  0
ARC
  5
122
330
1F
100
AcDbEntity
  8
0
  6
Continuous
 62
     7
370
    15
100
AcDbCircle
 10
857.8305723108
 20
345.228898385
 30
0.0
 40
0.0999999999999659
100
AcDbArc
 50
194.5244290781
 51
270.0
  0
LINE
  5
123
330
1F
100
AcDbEntity
  8
0
  6
Continuous
 62
     7
370
    15
100
AcDbLine
 10
838.9668831348
 20
347.6288855103
 30
0.0
 11
839.5951533436
 21
345.203810933
 31
0.0
  0
LINE
  5
124
330
1F
100
AcDbEntity
  8
0
  6
Continuous
 62
     7
370
    15
100
AcDbLine
 10
855.6339734911
 20
345.203810933
 30
0.0
 11
856.2622436999
 21
347.6288855103
 31
0.0
  0
ARC
  5
125
330
1F
100
AcDbEntity
  8
0
  6
Continuous
 62
     7
370
    15
100
AcDbCircle
 10
855.5371680483
 20
345.2288983847
 30
0.0
 40
0.1000000000000796
100
AcDbArc
 50
270.0
 51
345.4755709219
  0
ARC
  5
126
330
1F
100
AcDbEntity
  8
0
  6
Continuous
 62
     7
370
    15
100
AcDbCircle
 10
839.691956407
 20
345.2288983847
 30
0.0
 40
0.1000000000000796
100
AcDbArc
 50
194.5244290781
 51
270.0
  0
LINE
  5
127
330
1F
100
AcDbEntity
  8
0
  6
Continuous
 62
     7
370
    15
100
AcDbLine
 10
678.1054952859
 20
347.6288855103
 30
0.0
 11
678.7337654947
 21
345.203810933
 31
0.0
  0
LINE
  5
128
330
1F
100
AcDbEntity
  8
0
  6
Continuous
 62
     7
370
    15
100
AcDbLine
 10
694.7725856423
 20
345.203810933
 30
0.0
 11
695.4008558511
 21
347.6288855103
 31
0.0
  0
ARC
  5
129
330
1F
100
AcDbEntity
  8
0
  6
Continuous
 62
     7
370
    15
100
AcDbCircle
 10
694.6757839521
 20
345.2288983849
 30
0.0
 40
0.0999999999999659
100
AcDbArc
 50
270.0
 51
345.4755709219
  0
ARC
  5
12A
330
1F
100
AcDbEntity
  8
0
  6
Continuous
 62
     7
370
    15
100
AcDbCircle
 10
678.8305723108
 20
345.2288983849
 30
0.0
 40
0.1000000000000007
100
AcDbArc
 50
194.524429078
 51
270.0
  0
LINE
  5
12B
330
1F
100
AcDbEntity
  8
0
  6
Continuous
 62
     7
370
    15
100
AcDbLine
 10
696.244112563
 20
347.6288855103
 30
0.0
 11
696.8723827719
 21
345.203810933
 31
0.0
  0
LINE
  5
12C
330
1F
100
AcDbEntity
  8
0
  6
Continuous
 62
     7
370
    15
100
AcDbLine
 10
712.9112029194
 20
345.203810933
 30
0.0
 11
713.5394731282
 21
347.6288855103
 31
0.0
  0
ARC
  5
12D
330
1F
100
AcDbEntity
  8
0
  6
Continuous
 62
     7
370
    15
100
AcDbCircle
 10
712.814399856
 20
345.2288983849
 30
0.0
 40
0.1000000000001108
100
AcDbArc
 50
270.0
 51
345.475570922
  0
ARC
  5
12E
330
1F
100
AcDbEntity
  8
0
  6
Continuous
 62
     7
370
    15
100
AcDbCircle
 10
696.9691882147
 20
345.2288983849
 30
0.0
 40
0.1000000000000007
100
AcDbArc
 50
194.524429078
 51
270.0
  0
LINE
  5
12F
330
1F
100
AcDbEntity
  8
0
  6
Continuous
 62
     7
370
    15
100
AcDbLine
 10
873.6757853746
 20
345.1288878945
 30
0.0
 11
857.8305760144
 21
345.1288878945
 31
0.0
  0
LINE
  5
130
330
1F
100
AcDbEntity
  8
0
  6
Continuous
 62
     7
370
    15
100
AcDbLine
 10
855.5371680974
 20
345.1288878945
 30
0.0
 11
839.6919587373
 21
345.1288878945
 31
0.0
  0
LINE
  5
131
330
1F
100
AcDbEntity
  8
0
  6
Continuous
 62
     7
370
    15
100
AcDbLine
 10
694.6757802486
 20
345.1288878945
 30
0.0
 11
678.8305708884
 21
345.1288878945
 31
0.0
  0
LINE
  5
132
330
1F
100
AcDbEntity
  8
0
  6
Continuous
 62
     7
370
    15
100
AcDbLine
 10
712.8143975257
 20
345.1288878945
 30
0.0
 11
696.9691881656
 21
345.1288878945
 31
0.0
  0
LINE
  5
133
330
1F
100
AcDbEntity
  8
0
  6
Continuous
 62
     7
370
    15
100
AcDbLine
 10
672.753176999
 20
958.6288869408
 30
0.0
 11
672.753176999
 21
359.628909829
 31
0.0
  0
LINE
  5
134
330
1F
100
AcDbEntity
  8
0
  6
Continuous
 62
     7
370
    15
100
AcDbLine
 10
879.753179264
 20
958.6288869408
 30
0.0
 11
879.753179264
 21
359.628909829
 31
0.0
  0
LINE
  5
135
330
1F
100
AcDbEntity
  8
0
  6
Continuous
 62
     7
370
    15
100
AcDbLine
 10
666.7531797408
 20
361.6288840798
 30
0.0
 11
671.7531749724
 21
361.6288840798
 31
0.0
  0
LINE
  5
136
330
1F
100
AcDbEntity
  8
0
  6
Continuous
 62
     7
370
    15
100
AcDbLine
 10
666.7531797408
 20
361.6288840798
 30
0.0
 11
666.7531797408
 21
956.62891269
 31
0.0
  0
LINE
  5
137
330
1F
100
AcDbEntity
  8
0
  6
Continuous
 62
     7
370
    15
100
AcDbLine
 10
671.7531749724
 20
956.62891269
 30
0.0
 11
666.7531797408
 21
956.62891269
 31
0.0
  0
LINE
  5
138
330
1F
100
AcDbEntity
  8
0
  6
Continuous
 62
     7
370
    15
100
AcDbLine
 10
671.7531749724
 20
956.62891269
 30
0.0
 11
671.7531749724
 21
361.6288840798
 31
0.0
  0
LINE
  5
139
330
1F
100
AcDbEntity
  8
0
  6
Continuous
 62
     7
370
    15
100
AcDbLine
 10
669.7531783699
 20
359.628909829
 30
0.0
 11
668.7531763434
 21
359.628909829
 31
0.0
  0
ARC
  5
13A
330
1F
100
AcDbEntity
  8
0
  6
Continuous
 62
     7
370
    15
100
AcDbCircle
 10
668.7531781315
 20
361.6288983849
 30
0.0
 40
1.999999999999886
100
AcDbArc
 50
180.0
 51
270.0
  0
LINE
  5
13B
330
1F
100
AcDbEntity
  8
0
  6
Continuous
 62
     7
370
    15
100
AcDbLine
 10
671.7531749724
 20
361.6288840798
 30
0.0
 11
671.7531749724
 21
359.628909829
 31
0.0
  0
LINE
  5
13C
330
1F
100
AcDbEntity
  8
0
  6
Continuous
 62
     7
370
    15
100
AcDbLine
 10
671.7531749724
 20
956.62891269
 30
0.0
 11
671.7531749724
 21
958.6288869408
 31
0.0
  0
ARC
  5
13D
330
1F
100
AcDbEntity
  8
0
  6
Continuous
 62
     7
370
    15
100
AcDbCircle
 10
668.7531781315
 20
956.6288983849
 30
0.0
 40
1.999999999999886
100
AcDbArc
 50
90.0
 51
180.0
  0
LINE
  5
13E
330
1F
100
AcDbEntity
  8
0
  6
Continuous
 62
     7
370
    15
100
AcDbLine
 10
880.7531812905
 20
956.62891269
 30
0.0
 11
880.7531812905
 21
958.6288869408
 31
0.0
  0
LINE
  5
13F
330
1F
100
AcDbEntity
  8
0
  6
Continuous
 62
     7
370
    15
100
AcDbLine
 10
880.7531812905
 20
361.6288840798
 30
0.0
 11
880.7531812905
 21
956.62891269
 31
0.0
  0
LINE
  5
140
330
1F
100
AcDbEntity
  8
0
  6
Continuous
 62
     7
370
    15
100
AcDbLine
 10
880.7531812905
 20
361.6288840798
 30
0.0
 11
880.7531812905
 21
359.628909829
 31
0.0
  0
LINE
  5
141
330
1F
100
AcDbEntity
  8
0
  6
Continuous
 62
     7
370
    15
100
AcDbLine
 10
880.7531812905
 20
361.6288840798
 30
0.0
 11
885.7531765222
 21
361.6288840798
 31
0.0
  0
LINE
  5
142
330
1F
100
AcDbEntity
  8
0
  6
Continuous
 62
     7
370
    15
100
AcDbLine
 10
885.7531765222
 20
956.62891269
 30
0.0
 11
880.7531812905
 21
956.62891269
 31
0.0
  0
LINE
  5
143
330
1F
100
AcDbEntity
  8
0
  6
Continuous
 62
     7
370
    15
100
AcDbLine
 10
885.7531765222
 20
956.62891269
 30
0.0
 11
885.7531765222
 21
361.6288840798
 31
0.0
  0
ARC
  5
144
330
1F
100
AcDbEntity
  8
0
  6
Continuous
 62
     7
370
    15
100
AcDbCircle
 10
883.7531781315
 20
361.6288983849
 30
0.0
 40
2.000000000000114
100
AcDbArc
 50
270.0
 51
0.0
  0
LINE
  5
145
330
1F
100
AcDbEntity
  8
0
  6
Continuous
 62
     7
370
    15
100
AcDbLine
 10
883.7531799196
 20
359.628909829
 30
0.0
 11
882.7531778931
 21
359.628909829
 31
0.0
  0
ARC
  5
146
330
1F
100
AcDbEntity
  8
0
  6
Continuous
 62
     7
370
    15
100
AcDbCircle
 10
883.7531781315
 20
956.6288983849
 30
0.0
 40
2.000000000000114
100
AcDbArc
 50
0.0
 51
90.0
  0
LINE
  5
147
330
1F
100
AcDbEntity
  8
0
  6
Continuous
 62
     7
370
    15
100
AcDbLine
 10
868.7983074903
 20
958.6288869408
 30
0.0
 11
683.7080487727
 21
958.6288869408
 31
0.0
  0
LWPOLYLINE
  5
148
330
1F
100
AcDbEntity
  8
0
  6
Continuous
 62
     7
370
    15
100
AcDbPolyline
 90
        9
 70
   128
 43
0.0
 10
683.7080487727
 20
958.6288869408
 10
683.5892641663
 20
958.6673319367
 10
683.4750467657
 20
958.7811470059
 10
683.369784963
 20
958.965951207
 10
683.2775244235
 20
959.2146813897
 10
683.2018041729
 20
959.5177710083
 10
683.1455448388
 20
959.8635375527
 10
683.1108921885
 20
960.2387189892
 10
683.0991947769
 20
960.6288909939
  0
LINE
  5
149
330
1F
100
AcDbEntity
  8
0
  6
Continuous
 62
     7
370
    15
100
AcDbLine
 10
683.0991947769
 20
960.6288909939
 30
0.0
 11
869.4071614861
 21
960.6288909939
 31
0.0
  0
LWPOLYLINE
  5
14A
330
1F
100
AcDbEntity
  8
0
  6
Continuous
 62
     7
370
    15
100
AcDbPolyline
 90
        9
 70
   128
 43
0.0
 10
868.7983074903
 20
958.6288869408
 10
868.9170920967
 20
958.6673319367
 10
869.0313094973
 20
958.7811470059
 10
869.1365712999
 20
958.965951207
 10
869.2288318395
 20
959.2146813897
 10
869.3045520901
 20
959.5177710083
 10
869.3608114242
 20
959.8635375527
 10
869.3954640745
 20
960.2387189892
 10
869.4071614861
 20
960.6288909939
  0
LINE
  5
14B
330
1F
100
AcDbEntity
  8
0
  6
Continuous
 62
     7
370
    15
100
AcDbLine
 10
869.4071614861
 20
965.6288862256
 30
0.0
 11
683.0991947769
 21
965.6288862256
 31
0.0
  0
LINE
  5
14C
330
1F
100
AcDbEntity
  8
0
  6
Continuous
 62
     7
370
    15
100
AcDbLine
 10
869.4071614861
 20
965.6288862256
 30
0.0
 11
869.4071614861
 21
960.6288909939
 31
0.0
  0
LINE
  5
14D
330
1F
100
AcDbEntity
  8
0
  6
Continuous
 62
     7
370
    15
100
AcDbLine
 10
683.0991947769
 20
965.6288862256
 30
0.0
 11
683.0991947769
 21
960.6288909939
 31
0.0
  0
LINE
  5
14E
330
1F
100
AcDbEntity
  8
0
  6
Continuous
 62
     7
370
    15
100
AcDbLine
 10
684.6213185906
 20
970.6289112595
 30
0.0
 11
867.8850376724
 21
970.6289112595
 31
0.0
  0
LWPOLYLINE
  5
14F
330
1F
100
AcDbEntity
  8
0
  6
Continuous
 62
     7
370
    15
100
AcDbPolyline
 90
        9
 70
   128
 43
0.0
 10
867.8850376724
 20
970.6289112595
 10
868.1819880127
 20
970.5328285721
 10
868.4675315141
 20
970.2483058003
 10
868.7306860208
 20
969.786250594
 10
868.9613410949
 20
969.1644251374
 10
869.1506379961
 20
968.4067606953
 10
869.2912975072
 20
967.5423145321
 10
869.3779105066
 20
966.6043460396
 10
869.4071614861
 20
965.6288862256
  0
LWPOLYLINE
  5
150
330
1F
100
AcDbEntity
  8
0
  6
Continuous
 62
     7
370
    15
100
AcDbPolyline
 90
        9
 70
   128
 43
0.0
 10
684.6213185906
 20
970.6289112595
 10
684.3243682503
 20
970.5328285721
 10
684.0388247489
 20
970.2483058003
 10
683.7756702422
 20
969.786250594
 10
683.5450151681
 20
969.1644251374
 10
683.3557182669
 20
968.4067606953
 10
683.2150587558
 20
967.5423145321
 10
683.1284457563
 20
966.6043460396
 10
683.0991947769
 20
965.6288862256
  0
LINE
  5
151
330
1F
100
AcDbEntity
  8
0
  6
Continuous
 62
     7
370
    15
100
AcDbLine
 10
666.7531797408
 20
960.6288909939
 30
0.0
 11
683.0991947769
 21
960.6288909939
 31
0.0
  0
ARC
  5
152
330
1F
100
AcDbEntity
  8
0
  6
Continuous
 62
     7
370
    15
100
AcDbCircle
 10
668.7531781315
 20
960.6288983849
 30
0.0
 40
2.000000000000114
100
AcDbArc
 50
180.0
 51
270.0
  0
LINE
  5
153
330
1F
100
AcDbEntity
  8
0
  6
Continuous
 62
     7
370
    15
100
AcDbLine
 10
683.7080487727
 20
958.6288869408
 30
0.0
 11
668.7531763434
 21
958.6288869408
 31
0.0
  0
LINE
  5
154
330
1F
100
AcDbEntity
  8
0
  6
Continuous
 62
     7
370
    15
100
AcDbLine
 10
869.4071614861
 20
960.6288909939
 30
0.0
 11
885.7531765222
 21
960.6288909939
 31
0.0
  0
ARC
  5
155
330
1F
100
AcDbEntity
  8
0
  6
Continuous
 62
     7
370
    15
100
AcDbCircle
 10
883.7531781315
 20
960.6288983849
 30
0.0
 40
2.000000000000114
100
AcDbArc
 50
270.0
 51
0.0
  0
LINE
  5
156
330
1F
100
AcDbEntity
  8
0
  6
Continuous
 62
     7
370
    15
100
AcDbLine
 10
883.7531799196
 20
958.6288869408
 30
0.0
 11
868.7983074903
 21
958.6288869408
 31
0.0
  0
ARC
  5
157
330
1F
100
AcDbEntity
  8
0
  6
Continuous
 62
     7
370
    15
100
AcDbCircle
 10
880.7531781315
 20
965.6288983849
 30
0.0
 40
5.0
100
AcDbArc
 50
0.0
 51
90.0
  0
LINE
  5
158
330
1F
100
AcDbEntity
  8
0
  6
Continuous
 62
     7
370
    15
100
AcDbLine
 10
885.7531765222
 20
965.6288862256
 30
0.0
 11
869.4071614861
 21
965.6288862256
 31
0.0
  0
LINE
  5
159
330
1F
100
AcDbEntity
  8
0
  6
Continuous
 62
     7
370
    15
100
AcDbLine
 10
867.8850376724
 20
970.6289112595
 30
0.0
 11
880.7531812905
 21
970.6289112595
 31
0.0
  0
LINE
  5
15A
330
1F
100
AcDbEntity
  8
0
  6
Continuous
 62
     7
370
    15
100
AcDbLine
 10
885.7531765222
 20
965.6288862256
 30
0.0
 11
885.7531765222
 21
960.6288909939
 31
0.0
  0
LINE
  5
15B
330
1F
100
AcDbEntity
  8
0
  6
Continuous
 62
     7
370
    15
100
AcDbLine
 10
683.0991947769
 20
965.6288862256
 30
0.0
 11
666.7531797408
 21
965.6288862256
 31
0.0
  0
LINE
  5
15C
330
1F
100
AcDbEntity
  8
0
  6
Continuous
 62
     7
370
    15
100
AcDbLine
 10
666.7531797408
 20
965.6288862256
 30
0.0
 11
666.7531797408
 21
960.6288909939
 31
0.0
  0
ARC
  5
15D
330
1F
100
AcDbEntity
  8
0
  6
Continuous
 62
     7
370
    15
100
AcDbCircle
 10
671.7531781315
 20
965.6288983849
 30
0.0
 40
5.0
100
AcDbArc
 50
90.0
 51
180.0
  0
LINE
  5
15E
330
1F
100
AcDbEntity
  8
0
  6
Continuous
 62
     7
370
    15
100
AcDbLine
 10
671.7531749724
 20
970.6289112595
 30
0.0
 11
684.6213185906
 21
970.6289112595
 31
0.0
  0
LINE
  5
15F
330
1F
100
AcDbEntity
  8
0
  6
Continuous
 62
     7
370
    15
100
AcDbLine
 10
869.4071614861
 20
356.6288888482
 30
0.0
 11
683.0991947769
 21
356.6288888482
 31
0.0
  0
LWPOLYLINE
  5
160
330
1F
100
AcDbEntity
  8
0
  6
Continuous
 62
     7
370
    15
100
AcDbPolyline
 90
        9
 70
   128
 43
0.0
 10
683.0991947769
 20
356.6288888482
 10
683.1167408942
 20
357.2141766575
 10
683.1687161445
 20
357.7769339112
 10
683.2531088709
 20
358.29561353
 10
683.3666855215
 20
358.7502181557
 10
683.5050800561
 20
359.1233134297
 10
683.6629727601
 20
359.4005346325
 10
683.8342988609
 20
359.5712423352
 10
684.0124720453
 20
359.628909829
  0
LINE
  5
161
330
1F
100
AcDbEntity
  8
0
  6
Continuous
 62
     7
370
    15
100
AcDbLine
 10
684.0124720453
 20
359.628909829
 30
0.0
 11
868.4938842177
 21
359.628909829
 31
0.0
  0
LWPOLYLINE
  5
162
330
1F
100
AcDbEntity
  8
0
  6
Continuous
 62
     7
370
    15
100
AcDbPolyline
 90
        9
 70
   128
 43
0.0
 10
869.4071614861
 20
356.6288888482
 10
869.3896153688
 20
357.2141766575
 10
869.3376401185
 20
357.7769339112
 10
869.2532473921
 20
358.29561353
 10
869.1396707415
 20
358.7502181557
 10
869.0012762069
 20
359.1233134297
 10
868.8433835029
 20
359.4005346325
 10
868.672057402
 20
359.5712423352
 10
868.4938842177
 20
359.628909829
  0
LINE
  5
163
330
1F
100
AcDbEntity
  8
0
  6
Continuous
 62
     7
370
    15
100
AcDbLine
 10
683.0991947769
 20
352.6289105443
 30
0.0
 11
869.4071614861
 21
352.6289105443
 31
0.0
  0
LWPOLYLINE
  5
164
330
1F
100
AcDbEntity
  8
0
  6
Continuous
 62
     7
370
    15
100
AcDbPolyline
 90
        9
 70
   128
 43
0.0
 10
867.8850376724
 20
347.6288855103
 10
868.1819880127
 20
347.7249681977
 10
868.4675315141
 20
348.0094909695
 10
868.7306860208
 20
348.4715461758
 10
868.9613410949
 20
349.0933716324
 10
869.1506379961
 20
349.8510360745
 10
869.2912975072
 20
350.7154822377
 10
869.3779105066
 20
351.6534507302
 10
869.4071614861
 20
352.6289105443
  0
LINE
  5
165
330
1F
100
AcDbEntity
  8
0
  6
Continuous
 62
     7
370
    15
100
AcDbLine
 10
867.8850376724
 20
347.6288855103
 30
0.0
 11
684.6213185906
 21
347.6288855103
 31
0.0
  0
LWPOLYLINE
  5
166
330
1F
100
AcDbEntity
  8
0
  6
Continuous
 62
     7
370
    15
100
AcDbPolyline
 90
        9
 70
   128
 43
0.0
 10
683.0991947769
 20
352.6289105443
 10
683.1284457563
 20
351.6534507302
 10
683.2150587558
 20
350.7154822377
 10
683.3557182669
 20
349.8510360745
 10
683.5450151681
 20
349.0933716324
 10
683.7756702422
 20
348.4715461758
 10
684.0388247489
 20
348.0094909695
 10
684.3243682503
 20
347.7249681977
 10
684.6213185906
 20
347.6288855103
  0
LINE
  5
167
330
1F
100
AcDbEntity
  8
0
  6
Continuous
 62
     7
370
    15
100
AcDbLine
 10
683.0991947769
 20
352.6289105443
 30
0.0
 11
683.0991947769
 21
356.6288888482
 31
0.0
  0
LINE
  5
168
330
1F
100
AcDbEntity
  8
0
  6
Continuous
 62
     7
370
    15
100
AcDbLine
 10
869.4071614861
 20
352.6289105443
 30
0.0
 11
869.4071614861
 21
356.6288888482
 31
0.0
  0
LINE
  5
169
330
1F
100
AcDbEntity
  8
0
  6
Continuous
 62
     7
370
    15
100
AcDbLine
 10
683.0991947769
 20
356.6288888482
 30
0.0
 11
666.7531797408
 21
356.6288888482
 31
0.0
  0
ARC
  5
16A
330
1F
100
AcDbEntity
  8
0
  6
Continuous
 62
     7
370
    15
100
AcDbCircle
 10
669.7531781315
 20
356.6288983849
 30
0.0
 40
3.000000000000114
100
AcDbArc
 50
90.0
 51
180.0
  0
LINE
  5
16B
330
1F
100
AcDbEntity
  8
0
  6
Continuous
 62
     7
370
    15
100
AcDbLine
 10
669.7531783699
 20
359.628909829
 30
0.0
 11
684.0124720453
 21
359.628909829
 31
0.0
  0
LINE
  5
16C
330
1F
100
AcDbEntity
  8
0
  6
Continuous
 62
     7
370
    15
100
AcDbLine
 10
666.7531797408
 20
352.6289105443
 30
0.0
 11
683.0991947769
 21
352.6289105443
 31
0.0
  0
LINE
  5
16D
330
1F
100
AcDbEntity
  8
0
  6
Continuous
 62
     7
370
    15
100
AcDbLine
 10
666.7531797408
 20
352.6289105443
 30
0.0
 11
666.7531797408
 21
356.6288888482
 31
0.0
  0
LINE
  5
16E
330
1F
100
AcDbEntity
  8
0
  6
Continuous
 62
     7
370
    15
100
AcDbLine
 10
869.4071614861
 20
352.6289105443
 30
0.0
 11
885.7531765222
 21
352.6289105443
 31
0.0
  0
LINE
  5
16F
330
1F
100
AcDbEntity
  8
0
  6
Continuous
 62
     7
370
    15
100
AcDbLine
 10
885.7531765222
 20
356.6288888482
 30
0.0
 11
869.4071614861
 21
356.6288888482
 31
0.0
  0
LINE
  5
170
330
1F
100
AcDbEntity
  8
0
  6
Continuous
 62
     7
370
    15
100
AcDbLine
 10
885.7531765222
 20
352.6289105443
 30
0.0
 11
885.7531765222
 21
356.6288888482
 31
0.0
  0
ARC
  5
171
330
1F
100
AcDbEntity
  8
0
  6
Continuous
 62
     7
370
    15
100
AcDbCircle
 10
671.7531781315
 20
352.6288983849
 30
0.0
 40
5.0
100
AcDbArc
 50
180.0
 51
270.0
  0
LINE
  5
172
330
1F
100
AcDbEntity
  8
0
  6
Continuous
 62
     7
370
    15
100
AcDbLine
 10
684.6213185906
 20
347.6288855103
 30
0.0
 11
671.7531749724
 21
347.6288855103
 31
0.0
  0
ARC
  5
173
330
1F
100
AcDbEntity
  8
0
  6
Continuous
 62
     7
370
    15
100
AcDbCircle
 10
880.7531781315
 20
352.6288983849
 30
0.0
 40
5.0
100
AcDbArc
 50
270.0
 51
0.0
  0
LINE
  5
174
330
1F
100
AcDbEntity
  8
0
  6
Continuous
 62
     7
370
    15
100
AcDbLine
 10
880.7531812905
 20
347.6288855103
 30
0.0
 11
867.8850376724
 21
347.6288855103
 31
0.0
  0
ARC
  5
175
330
1F
100
AcDbEntity
  8
0
  6
Continuous
 62
     7
370
    15
100
AcDbCircle
 10
882.7531781315
 20
356.6288983849
 30
0.0
 40
3.000000000000114
100
AcDbArc
 50
0.0
 51
90.0
  0
LINE
  5
176
330
1F
100
AcDbEntity
  8
0
  6
Continuous
 62
     7
370
    15
100
AcDbLine
 10
868.4938842177
 20
359.628909829
 30
0.0
 11
882.7531778931
 21
359.628909829
 31
0.0
  0
LINE
  5
177
330
1F
100
AcDbEntity
  8
0
  6
Continuous
 62
     8
370
    15
100
AcDbLine
 10
857.7337706207
 20
345.203810933
 30
0.0
 11
873.7725907683
 21
345.203810933
 31
0.0
  0
LINE
  5
178
330
1F
100
AcDbEntity
  8
0
  6
Continuous
 62
     8
370
    15
100
AcDbLine
 10
839.5951533436
 20
345.203810933
 30
0.0
 11
855.6339734911
 21
345.203810933
 31
0.0
  0
LINE
  5
179
330
1F
100
AcDbEntity
  8
0
  6
Continuous
 62
     8
370
    15
100
AcDbLine
 10
692.9858544587
 20
345.203810933
 30
0.0
 11
694.7725856423
 21
345.203810933
 31
0.0
  0
LINE
  5
17A
330
1F
100
AcDbEntity
  8
0
  6
Continuous
 62
     8
370
    15
100
AcDbLine
 10
678.7337654947
 20
345.203810933
 30
0.0
 11
692.9858544587
 21
345.203810933
 31
0.0
  0
LINE
  5
17B
330
1F
100
AcDbEntity
  8
0
  6
Continuous
 62
     8
370
    15
100
AcDbLine
 10
696.8723827719
 20
345.203810933
 30
0.0
 11
712.9112029194
 21
345.203810933
 31
0.0
  0
LINE
  5
17C
330
1F
100
AcDbEntity
  8
0
  6
Continuous
 62
     8
370
    15
100
AcDbLine
 10
684.9257418632
 20
958.6288869408
 30
0.0
 11
684.9257418632
 21
359.628909829
 31
0.0
  0
LINE
  5
17D
330
1F
100
AcDbEntity
  8
0
  6
Continuous
 62
     8
370
    15
100
AcDbLine
 10
867.5806143998
 20
958.6288869408
 30
0.0
 11
867.5806143998
 21
359.628909829
 31
0.0
  0
DIMENSION
  5
17E
330
1F
100
AcDbEntity
  8
MEDIÇÕES
100
AcDbDimension
  2
_D
 10
666.7531781315
 20
245.1288983847
 30
0.0
 11
776.2531781315
 21
245.1288983847
 31
0.0
 70
   160
  1
<>
 71
     2
 42
-1.0
  3
SLDDIMSTYLE0
100
AcDbAlignedDimension
 13
885.7531781315
 23
361.6288983849
 33
0.0
 14
666.7531781315
 24
361.6288983849
 34
0.0
100
AcDbRotatedDimension
  0
LINE
  5
18B
330
1F
100
AcDbEntity
  8
0
  6
Continuous
 62
     7
370
    15
100
AcDbLine
 10
1608.9380331452
 20
347.6288855103
 30
0.0
 11
1609.5662959035
 21
345.203810933
 31
0.0
  0
LINE
  5
18C
330
1F
100
AcDbEntity
  8
0
  6
Continuous
 62
     7
370
    15
100
AcDbLine
 10
1625.6051235016
 20
345.203810933
 30
0.0
 11
1626.2333937104
 21
347.6288855103
 31
0.0
  0
ARC
  5
18D
330
1F
100
AcDbEntity
  8
0
  6
Continuous
 62
     7
370
    15
100
AcDbCircle
 10
1625.5083160712
 20
345.228898385
 30
0.0
 40
0.1000000000001108
100
AcDbArc
 50
270.0
 51
345.475570922
  0
ARC
  5
18E
330
1F
100
AcDbEntity
  8
0
  6
Continuous
 62
     7
370
    15
100
AcDbCircle
 10
1609.6631044299
 20
345.228898385
 30
0.0
 40
0.0999999999999659
100
AcDbArc
 50
194.5244290781
 51
270.0
  0
LINE
  5
18F
330
1F
100
AcDbEntity
  8
0
  6
Continuous
 62
     7
370
    15
100
AcDbLine
 10
1813.5733552392
 20
347.6288855103
 30
0.0
 11
1814.201625448
 21
345.203810933
 31
0.0
  0
LINE
  5
190
330
1F
100
AcDbEntity
  8
0
  6
Continuous
 62
     7
370
    15
100
AcDbLine
 10
1830.2404455956
 20
345.203810933
 30
0.0
 11
1830.8687158044
 21
347.6288855103
 31
0.0
  0
ARC
  5
191
330
1F
100
AcDbEntity
  8
0
  6
Continuous
 62
     7
370
    15
100
AcDbCircle
 10
1830.1436414617
 20
345.2288983847
 30
0.0
 40
0.100000000000125
100
AcDbArc
 50
270.0
 51
345.4755709219
  0
ARC
  5
192
330
1F
100
AcDbEntity
  8
0
  6
Continuous
 62
     7
370
    15
100
AcDbCircle
 10
1814.2984298204
 20
345.2288983847
 30
0.0
 40
0.1000000000000796
100
AcDbArc
 50
194.5244290781
 51
270.0
  0
LINE
  5
193
330
1F
100
AcDbEntity
  8
0
  6
Continuous
 62
     7
370
    15
100
AcDbLine
 10
1589.221040171
 20
958.6288869408
 30
0.0
 11
1589.221040171
 21
359.628909829
 31
0.0
  0
ARC
  5
194
330
1F
100
AcDbEntity
  8
0
  6
Continuous
 62
     7
370
    15
100
AcDbCircle
 10
1588.221035641
 20
965.6288983849
 30
0.0
 40
5.000000000000227
100
AcDbArc
 50
90.0
 51
180.0
  0
LINE
  5
195
330
1F
100
AcDbEntity
  8
0
  6
Continuous
 62
     7
370
    15
100
AcDbLine
 10
1583.2210429128
 20
965.6288862256
 30
0.0
 11
1583.2210429128
 21
960.6288909939
 31
0.0
  0
ARC
  5
196
330
1F
100
AcDbEntity
  8
0
  6
Continuous
 62
     7
370
    15
100
AcDbCircle
 10
1585.221035641
 20
960.6288983849
 30
0.0
 40
2.000000000000114
100
AcDbArc
 50
180.0
 51
270.0
  0
ARC
  5
197
330
1F
100
AcDbEntity
  8
0
  6
Continuous
 62
     7
370
    15
100
AcDbCircle
 10
1586.221035641
 20
356.6288983849
 30
0.0
 40
3.000000000000114
100
AcDbArc
 50
90.0
 51
180.0
  0
ARC
  5
198
330
1F
100
AcDbEntity
  8
0
  6
Continuous
 62
     7
370
    15
100
AcDbCircle
 10
1588.221035641
 20
352.6288983849
 30
0.0
 40
5.0
100
AcDbArc
 50
180.0
 51
270.0
  0
LINE
  5
199
330
1F
100
AcDbEntity
  8
0
  6
Continuous
 62
     7
370
    15
100
AcDbLine
 10
1583.2210429128
 20
356.6288888482
 30
0.0
 11
1583.2210429128
 21
352.6289105443
 31
0.0
  0
LINE
  5
19A
330
1F
100
AcDbEntity
  8
0
  6
Continuous
 62
     7
370
    15
100
AcDbLine
 10
1721.2210357304
 20
667.1288987649
 30
0.0
 11
1721.2210357304
 21
672.370362657
 31
0.0
  0
LINE
  5
19B
330
1F
100
AcDbEntity
  8
0
  6
Continuous
 62
     7
370
    15
100
AcDbLine
 10
1721.2210357304
 20
666.8874342953
 30
0.0
 11
1721.2210357304
 21
667.1288987649
 31
0.0
  0
LINE
  5
19C
330
1F
100
AcDbEntity
  8
0
  6
Continuous
 62
     7
370
    15
100
AcDbLine
 10
1616.2560157593
 20
345.1288878945
 30
0.0
 11
1609.6631087478
 21
345.1288878945
 31
0.0
  0
LINE
  5
19D
330
1F
100
AcDbEntity
  8
0
  6
Continuous
 62
     7
370
    15
100
AcDbLine
 10
1625.5083181079
 20
345.1288878945
 30
0.0
 11
1616.2560157593
 21
345.1288878945
 31
0.0
  0
LINE
  5
19E
330
1F
100
AcDbEntity
  8
0
  6
Continuous
 62
     7
370
    15
100
AcDbLine
 10
1820.8913378532
 20
345.1288878945
 30
0.0
 11
1814.2984308417
 21
345.1288878945
 31
0.0
  0
LINE
  5
19F
330
1F
100
AcDbEntity
  8
0
  6
Continuous
 62
     7
370
    15
100
AcDbLine
 10
1830.1436402019
 20
345.1288878945
 30
0.0
 11
1820.8913378532
 21
345.1288878945
 31
0.0
  0
LINE
  5
1A0
330
1F
100
AcDbEntity
  8
0
  6
Continuous
 62
     7
370
    15
100
AcDbLine
 10
1629.2210392769
 20
958.6288869408
 30
0.0
 11
1629.2210392769
 21
359.628909829
 31
0.0
  0
LINE
  5
1A1
330
1F
100
AcDbEntity
  8
0
  6
Continuous
 62
     7
370
    15
100
AcDbLine
 10
1772.4198348935
 20
956.62891269
 30
0.0
 11
1741.361549741
 21
956.62891269
 31
0.0
  0
LINE
  5
1A2
330
1F
100
AcDbEntity
  8
0
  6
Continuous
 62
     7
370
    15
100
AcDbLine
 10
1741.361549741
 20
958.6288869408
 30
0.0
 11
1741.361549741
 21
956.62891269
 31
0.0
  0
LINE
  5
1A3
330
1F
100
AcDbEntity
  8
0
  6
Continuous
 62
     7
370
    15
100
AcDbLine
 10
1741.361549741
 20
958.6288869408
 30
0.0
 11
1771.902198356
 21
958.6288869408
 31
0.0
  0
ARC
  5
1A4
330
1F
100
AcDbEntity
  8
0
  6
Continuous
 62
     7
370
    15
100
AcDbCircle
 10
1770.0998358248
 20
957.0954217008
 30
0.0
 40
2.366437477682598
100
AcDbArc
 50
348.6304950322
 51
40.3914168624
  0
LINE
  5
1A5
330
1F
100
AcDbEntity
  8
0
  6
Continuous
 62
     7
370
    15
100
AcDbLine
 10
1741.361549741
 20
361.6288840798
 30
0.0
 11
1772.4198348935
 21
361.6288840798
 31
0.0
  0
LINE
  5
1A6
330
1F
100
AcDbEntity
  8
0
  6
Continuous
 62
     7
370
    15
100
AcDbLine
 10
1741.361549741
 20
956.62891269
 30
0.0
 11
1741.361549741
 21
361.6288840798
 31
0.0
  0
LINE
  5
1A7
330
1F
100
AcDbEntity
  8
0
  6
Continuous
 62
     7
370
    15
100
AcDbLine
 10
1772.4198348935
 20
956.62891269
 30
0.0
 11
1772.4198348935
 21
361.6288840798
 31
0.0
  0
ARC
  5
1A8
330
1F
100
AcDbEntity
  8
0
  6
Continuous
 62
     7
370
    15
100
AcDbCircle
 10
1770.0998358248
 20
361.162375069
 30
0.0
 40
2.366437477682609
100
AcDbArc
 50
319.6085831376
 51
11.3695049678
  0
LINE
  5
1A9
330
1F
100
AcDbEntity
  8
0
  6
Continuous
 62
     7
370
    15
100
AcDbLine
 10
1771.902198356
 20
359.628909829
 30
0.0
 11
1741.361549741
 21
359.628909829
 31
0.0
  0
LINE
  5
1AA
330
1F
100
AcDbEntity
  8
0
  6
Continuous
 62
     7
370
    15
100
AcDbLine
 10
1741.361549741
 20
361.6288840798
 30
0.0
 11
1741.361549741
 21
359.628909829
 31
0.0
  0
LINE
  5
1AB
330
1F
100
AcDbEntity
  8
0
  6
Continuous
 62
     7
370
    15
100
AcDbLine
 10
1635.2210365351
 20
361.6288840798
 30
0.0
 11
1741.361549741
 21
361.6288840798
 31
0.0
  0
LINE
  5
1AC
330
1F
100
AcDbEntity
  8
0
  6
Continuous
 62
     7
370
    15
100
AcDbLine
 10
1741.361549741
 20
359.628909829
 30
0.0
 11
1635.2210365351
 21
359.628909829
 31
0.0
  0
LINE
  5
1AD
330
1F
100
AcDbEntity
  8
0
  6
Continuous
 62
     7
370
    15
100
AcDbLine
 10
1635.2210365351
 20
361.6288840798
 30
0.0
 11
1635.2210365351
 21
359.628909829
 31
0.0
  0
LINE
  5
1AE
330
1F
100
AcDbEntity
  8
0
  6
Continuous
 62
     7
370
    15
100
AcDbLine
 10
1635.2210365351
 20
958.6288869408
 30
0.0
 11
1741.361549741
 21
958.6288869408
 31
0.0
  0
LINE
  5
1AF
330
1F
100
AcDbEntity
  8
0
  6
Continuous
 62
     7
370
    15
100
AcDbLine
 10
1741.361549741
 20
956.62891269
 30
0.0
 11
1635.2210365351
 21
956.62891269
 31
0.0
  0
LINE
  5
1B0
330
1F
100
AcDbEntity
  8
0
  6
Continuous
 62
     7
370
    15
100
AcDbLine
 10
1635.2210365351
 20
958.6288869408
 30
0.0
 11
1635.2210365351
 21
956.62891269
 31
0.0
  0
LINE
  5
1B1
330
1F
100
AcDbEntity
  8
0
  6
Continuous
 62
     7
370
    15
100
AcDbLine
 10
1635.2210365351
 20
956.62891269
 30
0.0
 11
1635.2210365351
 21
361.6288840798
 31
0.0
  0
CIRCLE
  5
1B2
330
1F
100
AcDbEntity
  8
0
  6
Continuous
 62
     7
370
    15
100
AcDbCircle
 10
1659.721035641
 20
938.6288983849
 30
0.0
 40
6.125
  0
CIRCLE
  5
1B3
330
1F
100
AcDbEntity
  8
0
  6
Continuous
 62
     7
370
    15
100
AcDbCircle
 10
1659.721035641
 20
391.6288983849
 30
0.0
 40
6.125
  0
CIRCLE
  5
1B4
330
1F
100
AcDbEntity
  8
0
  6
Continuous
 62
     7
370
    15
100
AcDbCircle
 10
1719.721035641
 20
938.6288983849
 30
0.0
 40
6.125000000000227
  0
CIRCLE
  5
1B5
330
1F
100
AcDbEntity
  8
0
  6
Continuous
 62
     7
370
    15
100
AcDbCircle
 10
1719.721035641
 20
391.6288983849
 30
0.0
 40
6.125000000000227
  0
CIRCLE
  5
1B6
330
1F
100
AcDbEntity
  8
0
  6
Continuous
 62
     7
370
    15
100
AcDbCircle
 10
1719.721035641
 20
669.6288983849
 30
0.0
 40
6.125
  0
CIRCLE
  5
1B7
330
1F
100
AcDbEntity
  8
0
  6
Continuous
 62
     7
370
    15
100
AcDbCircle
 10
1719.721035641
 20
391.6288983849
 30
0.0
 40
3.125000000000057
  0
CIRCLE
  5
1B8
330
1F
100
AcDbEntity
  8
0
  6
Continuous
 62
     7
370
    15
100
AcDbCircle
 10
1719.721035641
 20
669.6288983849
 30
0.0
 40
3.125
  0
CIRCLE
  5
1B9
330
1F
100
AcDbEntity
  8
0
  6
Continuous
 62
     7
370
    15
100
AcDbCircle
 10
1719.721035641
 20
938.6288983849
 30
0.0
 40
3.125
  0
CIRCLE
  5
1BA
330
1F
100
AcDbEntity
  8
0
  6
Continuous
 62
     7
370
    15
100
AcDbCircle
 10
1659.721035641
 20
938.6288983849
 30
0.0
 40
3.125
  0
CIRCLE
  5
1BB
330
1F
100
AcDbEntity
  8
0
  6
Continuous
 62
     7
370
    15
100
AcDbCircle
 10
1659.721035641
 20
391.6288983849
 30
0.0
 40
3.124999999999943
  0
LINE
  5
1BC
330
1F
100
AcDbEntity
  8
0
  6
Continuous
 62
     7
370
    15
100
AcDbLine
 10
1630.2210338529
 20
361.6288840798
 30
0.0
 11
1635.2210365351
 21
361.6288840798
 31
0.0
  0
LINE
  5
1BD
330
1F
100
AcDbEntity
  8
0
  6
Continuous
 62
     7
370
    15
100
AcDbLine
 10
1630.2210338529
 20
361.6288840798
 30
0.0
 11
1630.2210338529
 21
956.62891269
 31
0.0
  0
LINE
  5
1BE
330
1F
100
AcDbEntity
  8
0
  6
Continuous
 62
     7
370
    15
100
AcDbLine
 10
1635.2210365351
 20
956.62891269
 30
0.0
 11
1630.2210338529
 21
956.62891269
 31
0.0
  0
LINE
  5
1BF
330
1F
100
AcDbEntity
  8
0
  6
Continuous
 62
     7
370
    15
100
AcDbLine
 10
1635.2210365351
 20
359.628909829
 30
0.0
 11
1632.9849682863
 21
359.628909829
 31
0.0
  0
ARC
  5
1C0
330
1F
100
AcDbEntity
  8
0
  6
Continuous
 62
     7
370
    15
100
AcDbCircle
 10
1632.221035641
 20
361.6288983849
 30
0.0
 40
2.0
100
AcDbArc
 50
180.0
 51
270.0
  0
ARC
  5
1C1
330
1F
100
AcDbEntity
  8
0
  6
Continuous
 62
     7
370
    15
100
AcDbCircle
 10
1632.221035641
 20
956.6288983849
 30
0.0
 40
2.0
100
AcDbArc
 50
90.0
 51
179.9999999999
  0
LINE
  5
1C2
330
1F
100
AcDbEntity
  8
0
  6
Continuous
 62
     7
370
    15
100
AcDbLine
 10
1772.4198348935
 20
361.6288840798
 30
0.0
 11
1836.2915910895
 21
361.6288840798
 31
0.0
  0
ARC
  5
1C3
330
1F
100
AcDbEntity
  8
0
  6
Continuous
 62
     7
370
    15
100
AcDbCircle
 10
1833.9715847799
 20
361.1623836575
 30
0.0
 40
2.366442883459937
100
AcDbArc
 50
319.6084214714
 51
11.3692665435
  0
LINE
  5
1C4
330
1F
100
AcDbEntity
  8
0
  6
Continuous
 62
     7
370
    15
100
AcDbLine
 10
1835.7739471014
 20
359.628909829
 30
0.0
 11
1771.902198356
 21
359.628909829
 31
0.0
  0
LINE
  5
1C5
330
1F
100
AcDbEntity
  8
0
  6
Continuous
 62
     7
370
    15
100
AcDbLine
 10
1771.902198356
 20
958.6288869408
 30
0.0
 11
1835.7739471014
 21
958.6288869408
 31
0.0
  0
ARC
  5
1C6
330
1F
100
AcDbEntity
  8
0
  6
Continuous
 62
     7
370
    15
100
AcDbCircle
 10
1833.9715847799
 20
957.0954131123
 30
0.0
 40
2.366442883460221
100
AcDbArc
 50
348.6307334565
 51
40.3915785286
  0
LINE
  5
1C7
330
1F
100
AcDbEntity
  8
0
  6
Continuous
 62
     7
370
    15
100
AcDbLine
 10
1836.2915910895
 20
956.62891269
 30
0.0
 11
1772.4198348935
 21
956.62891269
 31
0.0
  0
LINE
  5
1C8
330
1F
100
AcDbEntity
  8
0
  6
Continuous
 62
     7
370
    15
100
AcDbLine
 10
1836.2915910895
 20
361.6288840798
 30
0.0
 11
1836.2915910895
 21
956.62891269
 31
0.0
  0
LINE
  5
1C9
330
1F
100
AcDbEntity
  8
0
  6
Continuous
 62
     7
370
    15
100
AcDbLine
 10
1630.2210338529
 20
361.6288840798
 30
0.0
 11
1630.2210338529
 21
359.628909829
 31
0.0
  0
LINE
  5
1CA
330
1F
100
AcDbEntity
  8
0
  6
Continuous
 62
     7
370
    15
100
AcDbLine
 10
1630.2210338529
 20
956.62891269
 30
0.0
 11
1630.2210338529
 21
958.6288869408
 31
0.0
  0
LINE
  5
1CB
330
1F
100
AcDbEntity
  8
0
  6
Continuous
 62
     7
370
    15
100
AcDbLine
 10
1836.2915910895
 20
361.6288840798
 30
0.0
 11
1840.5678592737
 21
361.6288840798
 31
0.0
  0
ARC
  5
1CC
330
1F
100
AcDbEntity
  8
0
  6
Continuous
 62
     7
370
    15
100
AcDbCircle
 10
1838.7476299036
 20
361.4435828273
 30
0.0
 40
1.829636989668091
100
AcDbArc
 50
277.3328926766
 51
5.8127453981
  0
LINE
  5
1CD
330
1F
100
AcDbEntity
  8
0
  6
Continuous
 62
     7
370
    15
100
AcDbLine
 10
1838.9811538275
 20
359.628909829
 30
0.0
 11
1835.7739471014
 21
359.628909829
 31
0.0
  0
LINE
  5
1CE
330
1F
100
AcDbEntity
  8
0
  6
Continuous
 62
     7
370
    15
100
AcDbLine
 10
1840.5678592737
 20
956.62891269
 30
0.0
 11
1836.2915910895
 21
956.62891269
 31
0.0
  0
ARC
  5
1CF
330
1F
100
AcDbEntity
  8
0
  6
Continuous
 62
     7
370
    15
100
AcDbCircle
 10
1838.7476299036
 20
956.8142139425
 30
0.0
 40
1.829636989668128
100
AcDbArc
 50
354.1872546019
 51
82.6671073234
  0
LINE
  5
1D0
330
1F
100
AcDbEntity
  8
0
  6
Continuous
 62
     7
370
    15
100
AcDbLine
 10
1835.7739471014
 20
958.6288869408
 30
0.0
 11
1838.9811538275
 21
958.6288869408
 31
0.0
  0
LINE
  5
1D1
330
1F
100
AcDbEntity
  8
0
  6
Continuous
 62
     7
370
    15
100
AcDbLine
 10
1840.5678592737
 20
956.62891269
 30
0.0
 11
1840.5678592737
 21
361.6288840798
 31
0.0
  0
LINE
  5
1D2
330
1F
100
AcDbEntity
  8
0
  6
Continuous
 62
     7
370
    15
100
AcDbLine
 10
1839.7962622459
 20
359.628909829
 30
0.0
 11
1839.7962622459
 21
359.5732390908
 31
0.0
  0
LINE
  5
1D3
330
1F
100
AcDbEntity
  8
0
  6
Continuous
 62
     7
370
    15
100
AcDbLine
 10
1772.4198348935
 20
965.6288862256
 30
0.0
 11
1741.361549741
 21
965.6288862256
 31
0.0
  0
LINE
  5
1D4
330
1F
100
AcDbEntity
  8
0
  6
Continuous
 62
     7
370
    15
100
AcDbLine
 10
1772.4198348935
 20
965.6288862256
 30
0.0
 11
1772.4198348935
 21
960.6288909939
 31
0.0
  0
LINE
  5
1D5
330
1F
100
AcDbEntity
  8
0
  6
Continuous
 62
     7
370
    15
100
AcDbLine
 10
1741.361549741
 20
960.6288909939
 30
0.0
 11
1772.4198348935
 21
960.6288909939
 31
0.0
  0
LINE
  5
1D6
330
1F
100
AcDbEntity
  8
0
  6
Continuous
 62
     7
370
    15
100
AcDbLine
 10
1741.361549741
 20
965.6288862256
 30
0.0
 11
1741.361549741
 21
960.6288909939
 31
0.0
  0
LINE
  5
1D7
330
1F
100
AcDbEntity
  8
0
  6
Continuous
 62
     7
370
    15
100
AcDbLine
 10
1741.361549741
 20
965.6288862256
 30
0.0
 11
1741.361549741
 21
970.6289112595
 31
0.0
  0
LINE
  5
1D8
330
1F
100
AcDbEntity
  8
0
  6
Continuous
 62
     7
370
    15
100
AcDbLine
 10
1741.361549741
 20
970.6289112595
 30
0.0
 11
1771.1257398243
 21
970.6289112595
 31
0.0
  0
LWPOLYLINE
  5
1D9
330
1F
100
AcDbEntity
  8
0
  6
Continuous
 62
     7
370
    15
100
AcDbPolyline
 90
        9
 70
   128
 43
0.0
 10
1772.4198348935
 20
965.6288862256
 10
1772.3949685808
 20
966.6043460396
 10
1772.3213270422
 20
967.5423145321
 10
1772.2017414983
 20
968.4067606953
 10
1772.0408052321
 20
969.1644251374
 10
1771.8447022255
 20
969.786250594
 10
1771.6209687408
 20
970.2483058003
 10
1771.3782064732
 20
970.5328285721
 10
1771.1257398243
 20
970.6289112595
  0
LINE
  5
1DA
330
1F
100
AcDbEntity
  8
0
  6
Continuous
 62
     7
370
    15
100
AcDbLine
 10
1741.361549741
 20
958.6288869408
 30
0.0
 11
1741.361549741
 21
960.6288909939
 31
0.0
  0
ARC
  5
1DB
330
1F
100
AcDbEntity
  8
0
  6
Continuous
 62
     7
370
    15
100
AcDbCircle
 10
1770.099668709
 20
960.1624023851
 30
0.0
 40
2.366597292710961
100
AcDbArc
 50
319.6102791749
 51
11.3682231333
  0
LINE
  5
1DC
330
1F
100
AcDbEntity
  8
0
  6
Continuous
 62
     7
370
    15
100
AcDbLine
 10
1741.361549741
 20
965.6288862256
 30
0.0
 11
1620.1295055564
 21
965.6288862256
 31
0.0
  0
LINE
  5
1DD
330
1F
100
AcDbEntity
  8
0
  6
Continuous
 62
     7
370
    15
100
AcDbLine
 10
1620.1295055564
 20
960.6288909939
 30
0.0
 11
1741.361549741
 21
960.6288909939
 31
0.0
  0
LINE
  5
1DE
330
1F
100
AcDbEntity
  8
0
  6
Continuous
 62
     7
370
    15
100
AcDbLine
 10
1620.1295055564
 20
965.6288862256
 30
0.0
 11
1620.1295055564
 21
960.6288909939
 31
0.0
  0
LINE
  5
1DF
330
1F
100
AcDbEntity
  8
0
  6
Continuous
 62
     7
370
    15
100
AcDbLine
 10
1620.1295055564
 20
965.6288862256
 30
0.0
 11
1620.1295055564
 21
970.6289112595
 31
0.0
  0
LINE
  5
1E0
330
1F
100
AcDbEntity
  8
0
  6
Continuous
 62
     7
370
    15
100
AcDbLine
 10
1620.1295055564
 20
970.6289112595
 30
0.0
 11
1741.361549741
 21
970.6289112595
 31
0.0
  0
LINE
  5
1E1
330
1F
100
AcDbEntity
  8
0
  6
Continuous
 62
     7
370
    15
100
AcDbLine
 10
1741.361549741
 20
958.6288869408
 30
0.0
 11
1620.1295055564
 21
958.6288869408
 31
0.0
  0
LINE
  5
1E2
330
1F
100
AcDbEntity
  8
0
  6
Continuous
 62
     7
370
    15
100
AcDbLine
 10
1620.1295055564
 20
958.6288869408
 30
0.0
 11
1620.1295055564
 21
960.6288909939
 31
0.0
  0
LINE
  5
1E3
330
1F
100
AcDbEntity
  8
0
  6
Continuous
 62
     7
370
    15
100
AcDbLine
 10
1620.1295055564
 20
965.6288862256
 30
0.0
 11
1597.7449067052
 21
965.6288862256
 31
0.0
  0
LINE
  5
1E4
330
1F
100
AcDbEntity
  8
0
  6
Continuous
 62
     7
370
    15
100
AcDbLine
 10
1597.7449067052
 20
960.6288909939
 30
0.0
 11
1620.1295055564
 21
960.6288909939
 31
0.0
  0
LINE
  5
1E5
330
1F
100
AcDbEntity
  8
0
  6
Continuous
 62
     7
370
    15
100
AcDbLine
 10
1597.7449067052
 20
965.6288862256
 30
0.0
 11
1597.7449067052
 21
960.6288909939
 31
0.0
  0
LINE
  5
1E6
330
1F
100
AcDbEntity
  8
0
  6
Continuous
 62
     7
370
    15
100
AcDbLine
 10
1620.1295055564
 20
958.6288869408
 30
0.0
 11
1599.6499754603
 21
958.6288869408
 31
0.0
  0
ARC
  5
1E7
330
1F
100
AcDbEntity
  8
0
  6
Continuous
 62
     7
370
    15
100
AcDbCircle
 10
1599.6986537414
 20
960.5825765112
 30
0.0
 40
1.954295912257796
100
AcDbArc
 50
178.6420312153
 51
268.5727092195
  0
LINE
  5
1E8
330
1F
100
AcDbEntity
  8
0
  6
Continuous
 62
     7
370
    15
100
AcDbLine
 10
1602.5075860436
 20
970.6289112595
 30
0.0
 11
1620.1295055564
 21
970.6289112595
 31
0.0
  0
ARC
  5
1E9
330
1F
100
AcDbEntity
  8
0
  6
Continuous
 62
     7
370
    15
100
AcDbCircle
 10
1602.6292138111
 20
965.7447444204
 30
0.0
 40
4.885681019670489
100
AcDbArc
 50
91.4265110086
 51
181.3588295832
  0
LINE
  5
1EA
330
1F
100
AcDbEntity
  8
0
  6
Continuous
 62
     7
370
    15
100
AcDbLine
 10
1772.4198348935
 20
960.6288909939
 30
0.0
 11
1836.2915910895
 21
960.6288909939
 31
0.0
  0
ARC
  5
1EB
330
1F
100
AcDbEntity
  8
0
  6
Continuous
 62
     7
370
    15
100
AcDbCircle
 10
1833.971417666
 20
960.1624109736
 30
0.0
 40
2.366602696818141
100
AcDbArc
 50
319.6101174856
 51
11.3679847374
  0
LINE
  5
1EC
330
1F
100
AcDbEntity
  8
0
  6
Continuous
 62
     7
370
    15
100
AcDbLine
 10
1836.2915910895
 20
965.6288862256
 30
0.0
 11
1772.4198348935
 21
965.6288862256
 31
0.0
  0
LINE
  5
1ED
330
1F
100
AcDbEntity
  8
0
  6
Continuous
 62
     7
370
    15
100
AcDbLine
 10
1836.2915910895
 20
965.6288862256
 30
0.0
 11
1836.2915910895
 21
960.6288909939
 31
0.0
  0
LINE
  5
1EE
330
1F
100
AcDbEntity
  8
0
  6
Continuous
 62
     7
370
    15
100
AcDbLine
 10
1771.1257398243
 20
970.6289112595
 30
0.0
 11
1834.9974922951
 21
970.6289112595
 31
0.0
  0
LWPOLYLINE
  5
1EF
330
1F
100
AcDbEntity
  8
0
  6
Continuous
 62
     7
370
    15
100
AcDbPolyline
 90
        9
 70
   128
 43
0.0
 10
1836.2915910895
 20
965.6288862256
 10
1836.2667210515
 20
966.6043460396
 10
1836.1930795129
 20
967.5423145321
 10
1836.0734902437
 20
968.4067606953
 10
1835.9125577028
 20
969.1644251374
 10
1835.7164509709
 20
969.786250594
 10
1835.4927249368
 20
970.2483058003
 10
1835.2499552186
 20
970.5328285721
 10
1834.9974922951
 20
970.6289112595
  0
LINE
  5
1F0
330
1F
100
AcDbEntity
  8
0
  6
Continuous
 62
     7
370
    15
100
AcDbLine
 10
1588.2210381444
 20
970.6289112595
 30
0.0
 11
1602.5075860436
 21
970.6289112595
 31
0.0
  0
LINE
  5
1F1
330
1F
100
AcDbEntity
  8
0
  6
Continuous
 62
     7
370
    15
100
AcDbLine
 10
1599.6499754603
 20
958.6288869408
 30
0.0
 11
1585.2210320647
 21
958.6288869408
 31
0.0
  0
LINE
  5
1F2
330
1F
100
AcDbEntity
  8
0
  6
Continuous
 62
     7
370
    15
100
AcDbLine
 10
1842.2210388
 20
965.6288862256
 30
0.0
 11
1836.2915910895
 21
965.6288862256
 31
0.0
  0
LINE
  5
1F3
330
1F
100
AcDbEntity
  8
0
  6
Continuous
 62
     7
370
    15
100
AcDbLine
 10
1842.2210388
 20
965.6288862256
 30
0.0
 11
1842.2210388
 21
960.6288909939
 31
0.0
  0
LINE
  5
1F4
330
1F
100
AcDbEntity
  8
0
  6
Continuous
 62
     7
370
    15
100
AcDbLine
 10
1836.2915910895
 20
960.6288909939
 30
0.0
 11
1842.2210388
 21
960.6288909939
 31
0.0
  0
ARC
  5
1F5
330
1F
100
AcDbEntity
  8
0
  6
Continuous
 62
     7
370
    15
100
AcDbCircle
 10
1840.221035641
 20
960.6288983849
 30
0.0
 40
2.000000000000114
100
AcDbArc
 50
270.0
 51
0.0
  0
LINE
  5
1F6
330
1F
100
AcDbEntity
  8
0
  6
Continuous
 62
     7
370
    15
100
AcDbLine
 10
1840.2210347469
 20
958.6288869408
 30
0.0
 11
1835.7739471014
 21
958.6288869408
 31
0.0
  0
ARC
  5
1F7
330
1F
100
AcDbEntity
  8
0
  6
Continuous
 62
     7
370
    15
100
AcDbCircle
 10
1837.221035641
 20
965.6288983849
 30
0.0
 40
5.0
100
AcDbArc
 50
0.0
 51
90.0
  0
LINE
  5
1F8
330
1F
100
AcDbEntity
  8
0
  6
Continuous
 62
     7
370
    15
100
AcDbLine
 10
1834.9974922951
 20
970.6289112595
 30
0.0
 11
1837.2210361178
 21
970.6289112595
 31
0.0
  0
LINE
  5
1F9
330
1F
100
AcDbEntity
  8
0
  6
Continuous
 62
     7
370
    15
100
AcDbLine
 10
1741.361549741
 20
352.6289105443
 30
0.0
 11
1772.4198348935
 21
352.6289105443
 31
0.0
  0
LINE
  5
1FA
330
1F
100
AcDbEntity
  8
0
  6
Continuous
 62
     7
370
    15
100
AcDbLine
 10
1741.361549741
 20
352.6289105443
 30
0.0
 11
1741.361549741
 21
356.6288888482
 31
0.0
  0
LINE
  5
1FB
330
1F
100
AcDbEntity
  8
0
  6
Continuous
 62
     7
370
    15
100
AcDbLine
 10
1772.4198348935
 20
356.6288888482
 30
0.0
 11
1741.361549741
 21
356.6288888482
 31
0.0
  0
LINE
  5
1FC
330
1F
100
AcDbEntity
  8
0
  6
Continuous
 62
     7
370
    15
100
AcDbLine
 10
1772.4198348935
 20
352.6289105443
 30
0.0
 11
1772.4198348935
 21
356.6288888482
 31
0.0
  0
LINE
  5
1FD
330
1F
100
AcDbEntity
  8
0
  6
Continuous
 62
     7
370
    15
100
AcDbLine
 10
1771.1257398243
 20
347.6288855103
 30
0.0
 11
1741.361549741
 21
347.6288855103
 31
0.0
  0
LINE
  5
1FE
330
1F
100
AcDbEntity
  8
0
  6
Continuous
 62
     7
370
    15
100
AcDbLine
 10
1741.361549741
 20
347.6288855103
 30
0.0
 11
1741.361549741
 21
352.6289105443
 31
0.0
  0
LWPOLYLINE
  5
1FF
330
1F
100
AcDbEntity
  8
0
  6
Continuous
 62
     7
370
    15
100
AcDbPolyline
 90
        9
 70
   128
 43
0.0
 10
1771.1257398243
 20
347.6288855103
 10
1771.3782064732
 20
347.7249681977
 10
1771.6209687408
 20
348.0094909695
 10
1771.8447022255
 20
348.4715461758
 10
1772.0408052321
 20
349.0933716324
 10
1772.2017414983
 20
349.8510360745
 10
1772.3213270422
 20
350.7154822377
 10
1772.3949685808
 20
351.6534507302
 10
1772.4198348935
 20
352.6289105443
  0
LINE
  5
200
330
1F
100
AcDbEntity
  8
0
  6
Continuous
 62
     7
370
    15
100
AcDbLine
 10
1741.361549741
 20
356.6288888482
 30
0.0
 11
1741.361549741
 21
359.628909829
 31
0.0
  0
ARC
  5
201
330
1F
100
AcDbEntity
  8
0
  6
Continuous
 62
     7
370
    15
100
AcDbCircle
 10
1768.9396288972
 20
357.3286410313
 30
0.0
 40
3.549857306247034
100
AcDbArc
 50
348.6313342524
 51
40.3901587356
  0
LINE
  5
202
330
1F
100
AcDbEntity
  8
0
  6
Continuous
 62
     7
370
    15
100
AcDbLine
 10
1741.361549741
 20
347.6288855103
 30
0.0
 11
1620.1295055564
 21
347.6288855103
 31
0.0
  0
LINE
  5
203
330
1F
100
AcDbEntity
  8
0
  6
Continuous
 62
     7
370
    15
100
AcDbLine
 10
1620.1295055564
 20
347.6288855103
 30
0.0
 11
1620.1295055564
 21
352.6289105443
 31
0.0
  0
LINE
  5
204
330
1F
100
AcDbEntity
  8
0
  6
Continuous
 62
     7
370
    15
100
AcDbLine
 10
1620.1295055564
 20
352.6289105443
 30
0.0
 11
1741.361549741
 21
352.6289105443
 31
0.0
  0
LINE
  5
205
330
1F
100
AcDbEntity
  8
0
  6
Continuous
 62
     7
370
    15
100
AcDbLine
 10
1741.361549741
 20
356.6288888482
 30
0.0
 11
1620.1295055564
 21
356.6288888482
 31
0.0
  0
LINE
  5
206
330
1F
100
AcDbEntity
  8
0
  6
Continuous
 62
     7
370
    15
100
AcDbLine
 10
1620.1295055564
 20
356.6288888482
 30
0.0
 11
1620.1295055564
 21
359.628909829
 31
0.0
  0
LINE
  5
207
330
1F
100
AcDbEntity
  8
0
  6
Continuous
 62
     7
370
    15
100
AcDbLine
 10
1620.1295055564
 20
359.628909829
 30
0.0
 11
1632.9849682863
 21
359.628909829
 31
0.0
  0
LINE
  5
208
330
1F
100
AcDbEntity
  8
0
  6
Continuous
 62
     7
370
    15
100
AcDbLine
 10
1620.1295055564
 20
352.6289105443
 30
0.0
 11
1620.1295055564
 21
356.6288888482
 31
0.0
  0
LINE
  5
209
330
1F
100
AcDbEntity
  8
0
  6
Continuous
 62
     7
370
    15
100
AcDbLine
 10
1620.1295055564
 20
347.6288855103
 30
0.0
 11
1602.5075860436
 21
347.6288855103
 31
0.0
  0
ARC
  5
20A
330
1F
100
AcDbEntity
  8
0
  6
Continuous
 62
     7
370
    15
100
AcDbCircle
 10
1602.6292138111
 20
352.5130523494
 30
0.0
 40
4.885681019670717
100
AcDbArc
 50
178.6411704168
 51
268.5734889914
  0
LINE
  5
20B
330
1F
100
AcDbEntity
  8
0
  6
Continuous
 62
     7
370
    15
100
AcDbLine
 10
1597.7449067052
 20
352.6289105443
 30
0.0
 11
1620.1295055564
 21
352.6289105443
 31
0.0
  0
LINE
  5
20C
330
1F
100
AcDbEntity
  8
0
  6
Continuous
 62
     7
370
    15
100
AcDbLine
 10
1620.1295055564
 20
356.6288888482
 30
0.0
 11
1597.7449067052
 21
356.6288888482
 31
0.0
  0
ARC
  5
20D
330
1F
100
AcDbEntity
  8
0
  6
Continuous
 62
     7
370
    15
100
AcDbCircle
 10
1600.6755008622
 20
356.6984000911
 30
0.0
 40
2.931418415329802
100
AcDbArc
 50
91.4266414001
 51
181.3587532092
  0
LINE
  5
20E
330
1F
100
AcDbEntity
  8
0
  6
Continuous
 62
     7
370
    15
100
AcDbLine
 10
1600.6025172885
 20
359.628909829
 30
0.0
 11
1620.1295055564
 21
359.628909829
 31
0.0
  0
LINE
  5
20F
330
1F
100
AcDbEntity
  8
0
  6
Continuous
 62
     7
370
    15
100
AcDbLine
 10
1597.7449067052
 20
352.6289105443
 30
0.0
 11
1597.7449067052
 21
356.6288888482
 31
0.0
  0
LINE
  5
210
330
1F
100
AcDbEntity
  8
0
  6
Continuous
 62
     7
370
    15
100
AcDbLine
 10
1834.9974922951
 20
347.6288855103
 30
0.0
 11
1771.1257398243
 21
347.6288855103
 31
0.0
  0
LINE
  5
211
330
1F
100
AcDbEntity
  8
0
  6
Continuous
 62
     7
370
    15
100
AcDbLine
 10
1772.4198348935
 20
352.6289105443
 30
0.0
 11
1836.2915910895
 21
352.6289105443
 31
0.0
  0
LWPOLYLINE
  5
212
330
1F
100
AcDbEntity
  8
0
  6
Continuous
 62
     7
370
    15
100
AcDbPolyline
 90
        9
 70
   128
 43
0.0
 10
1834.9974922951
 20
347.6288855103
 10
1835.2499552186
 20
347.7249681977
 10
1835.4927249368
 20
348.0094909695
 10
1835.7164509709
 20
348.4715461758
 10
1835.9125577028
 20
349.0933716324
 10
1836.0734902437
 20
349.8510360745
 10
1836.1930795129
 20
350.7154822377
 10
1836.2667210515
 20
351.6534507302
 10
1836.2915910895
 20
352.6289105443
  0
LINE
  5
213
330
1F
100
AcDbEntity
  8
0
  6
Continuous
 62
     7
370
    15
100
AcDbLine
 10
1836.2915910895
 20
356.6288888482
 30
0.0
 11
1772.4198348935
 21
356.6288888482
 31
0.0
  0
ARC
  5
214
330
1F
100
AcDbEntity
  8
0
  6
Continuous
 62
     7
370
    15
100
AcDbCircle
 10
1832.8113781701
 20
357.3286358821
 30
0.0
 40
3.54986307850424
100
AcDbArc
 50
348.6314377581
 51
40.3901885911
  0
LINE
  5
215
330
1F
100
AcDbEntity
  8
0
  6
Continuous
 62
     7
370
    15
100
AcDbLine
 10
1836.2915910895
 20
352.6289105443
 30
0.0
 11
1836.2915910895
 21
356.6288888482
 31
0.0
  0
LINE
  5
216
330
1F
100
AcDbEntity
  8
0
  6
Continuous
 62
     7
370
    15
100
AcDbLine
 10
1586.2210340913
 20
359.628909829
 30
0.0
 11
1600.6025172885
 21
359.628909829
 31
0.0
  0
LINE
  5
217
330
1F
100
AcDbEntity
  8
0
  6
Continuous
 62
     7
370
    15
100
AcDbLine
 10
1602.5075860436
 20
347.6288855103
 30
0.0
 11
1588.2210381444
 21
347.6288855103
 31
0.0
  0
LINE
  5
218
330
1F
100
AcDbEntity
  8
0
  6
Continuous
 62
     7
370
    15
100
AcDbLine
 10
1836.2915910895
 20
352.6289105443
 30
0.0
 11
1842.2210388
 21
352.6289105443
 31
0.0
  0
ARC
  5
219
330
1F
100
AcDbEntity
  8
0
  6
Continuous
 62
     7
370
    15
100
AcDbCircle
 10
1837.221035641
 20
352.6288983849
 30
0.0
 40
5.0
100
AcDbArc
 50
270.0
 51
0.0
  0
LINE
  5
21A
330
1F
100
AcDbEntity
  8
0
  6
Continuous
 62
     7
370
    15
100
AcDbLine
 10
1837.2210361178
 20
347.6288855103
 30
0.0
 11
1834.9974922951
 21
347.6288855103
 31
0.0
  0
ARC
  5
21B
330
1F
100
AcDbEntity
  8
0
  6
Continuous
 62
     7
370
    15
100
AcDbCircle
 10
1839.221035641
 20
356.6288983849
 30
0.0
 40
3.000000000000114
100
AcDbArc
 50
0.0
 51
90.0
  0
LINE
  5
21C
330
1F
100
AcDbEntity
  8
0
  6
Continuous
 62
     7
370
    15
100
AcDbLine
 10
1842.2210388
 20
356.6288888482
 30
0.0
 11
1836.2915910895
 21
356.6288888482
 31
0.0
  0
LINE
  5
21D
330
1F
100
AcDbEntity
  8
0
  6
Continuous
 62
     7
370
    15
100
AcDbLine
 10
1842.2210388
 20
352.6289105443
 30
0.0
 11
1842.2210388
 21
356.6288888482
 31
0.0
  0
LINE
  5
21E
330
1F
100
AcDbEntity
  8
0
  6
Continuous
 62
     7
370
    15
100
AcDbLine
 10
1840.5678592737
 20
361.6288840798
 30
0.0
 11
1842.2210388
 21
361.6288840798
 31
0.0
  0
ARC
  5
21F
330
1F
100
AcDbEntity
  8
0
  6
Continuous
 62
     7
370
    15
100
AcDbCircle
 10
1840.221035641
 20
361.6288983849
 30
0.0
 40
1.999999999999886
100
AcDbArc
 50
270.0
 51
0.0
  0
LINE
  5
220
330
1F
100
AcDbEntity
  8
0
  6
Continuous
 62
     7
370
    15
100
AcDbLine
 10
1840.2210347469
 20
359.628909829
 30
0.0
 11
1838.9811538275
 21
359.628909829
 31
0.0
  0
LINE
  5
221
330
1F
100
AcDbEntity
  8
0
  6
Continuous
 62
     7
370
    15
100
AcDbLine
 10
1842.2210388
 20
956.62891269
 30
0.0
 11
1840.5678592737
 21
956.62891269
 31
0.0
  0
LINE
  5
222
330
1F
100
AcDbEntity
  8
0
  6
Continuous
 62
     7
370
    15
100
AcDbLine
 10
1842.2210388
 20
956.62891269
 30
0.0
 11
1842.2210388
 21
361.6288840798
 31
0.0
  0
LINE
  5
223
330
1F
100
AcDbEntity
  8
0
  6
Continuous
 62
     7
370
    15
100
AcDbLine
 10
1838.9811538275
 20
958.6288869408
 30
0.0
 11
1840.2210347469
 21
958.6288869408
 31
0.0
  0
ARC
  5
224
330
1F
100
AcDbEntity
  8
0
  6
Continuous
 62
     7
370
    15
100
AcDbCircle
 10
1840.221035641
 20
956.6288983849
 30
0.0
 40
1.999999999999886
100
AcDbArc
 50
0.0
 51
90.0
  0
LINE
  5
225
330
1F
100
AcDbEntity
  8
0
  6
Continuous
 62
     8
370
    15
100
AcDbLine
 10
1721.2210357304
 20
667.1288987649
 30
0.0
 11
1721.5960364904
 21
667.1288987649
 31
0.0
  0
LINE
  5
226
330
1F
100
AcDbEntity
  8
0
  6
Continuous
 62
     8
370
    15
100
AcDbLine
 10
1609.5662959035
 20
345.203810933
 30
0.0
 11
1625.6051235016
 21
345.203810933
 31
0.0
  0
LINE
  5
227
330
1F
100
AcDbEntity
  8
0
  6
Continuous
 62
     8
370
    15
100
AcDbLine
 10
1814.201625448
 20
345.203810933
 30
0.0
 11
1830.2404455956
 21
345.203810933
 31
0.0
  0
LINE
  5
228
330
1F
100
AcDbEntity
  8
0
  6
Continuous
 62
     8
370
    15
100
AcDbLine
 10
1620.1295055564
 20
958.6288869408
 30
0.0
 11
1620.1295055564
 21
359.628909829
 31
0.0
  0
LINE
  5
229
330
1F
100
AcDbEntity
  8
0
  6
Continuous
 62
     8
370
    15
100
AcDbLine
 10
1627.1844379719
 20
958.6288869408
 30
0.0
 11
1627.1844379719
 21
359.628909829
 31
0.0
  0
LINE
  5
22A
330
1F
100
AcDbEntity
  8
0
  6
Continuous
 62
     8
370
    15
100
AcDbLine
 10
1603.4601278718
 20
958.6288869408
 30
0.0
 11
1603.4601278718
 21
359.628909829
 31
0.0
  0
LINE
  5
22B
330
1F
100
AcDbEntity
  8
0
  6
Continuous
 62
     8
370
    15
100
AcDbLine
 10
1629.957633477
 20
958.6288869408
 30
0.0
 11
1629.957633477
 21
359.628909829
 31
0.0
  0
LINE
  5
22C
330
1F
100
AcDbEntity
  8
0
  6
Continuous
 62
     8
370
    15
100
AcDbLine
 10
1597.7449067052
 20
965.6288862256
 30
0.0
 11
1583.2210429128
 21
965.6288862256
 31
0.0
  0
LINE
  5
22D
330
1F
100
AcDbEntity
  8
0
  6
Continuous
 62
     8
370
    15
100
AcDbLine
 10
1583.2210429128
 20
960.6288909939
 30
0.0
 11
1597.7449067052
 21
960.6288909939
 31
0.0
  0
LINE
  5
22E
330
1F
100
AcDbEntity
  8
0
  6
Continuous
 62
     8
370
    15
100
AcDbLine
 10
1597.7449067052
 20
356.6288888482
 30
0.0
 11
1583.2210429128
 21
356.6288888482
 31
0.0
  0
LINE
  5
22F
330
1F
100
AcDbEntity
  8
0
  6
Continuous
 62
     8
370
    15
100
AcDbLine
 10
1583.2210429128
 20
352.6289105443
 30
0.0
 11
1597.7449067052
 21
352.6289105443
 31
0.0
  0
DIMENSION
  5
230
330
1F
100
AcDbEntity
  8
MEDIÇÕES
100
AcDbDimension
  2
_D_1
 10
1483.221035641
 20
970.6288983849
 30
0.0
 11
1483.221035641
 21
659.1288983849
 31
0.0
 70
   160
  1
<>
 71
     2
 42
-1.0
  3
SLDDIMSTYLE1
100
AcDbAlignedDimension
 13
1620.1295084611
 23
347.6288983849
 33
0.0
 14
1620.1295084611
 24
970.6288983849
 34
0.0
 50
90.0
100
AcDbRotatedDimension
  0
ARC
  5
23B
330
1F
100
AcDbEntity
  8
0
  6
Continuous
 62
     7
370
    15
100
AcDbCircle
 10
695.6838701796
 20
1650.6655535518
 30
0.0
 40
2.999999999999952
100
AcDbArc
 50
90.0
 51
165.0
  0
LWPOLYLINE
  5
23C
330
1F
100
AcDbEntity
  8
0
  6
Continuous
 62
     7
370
    15
100
AcDbPolyline
 90
        9
 70
   128
 43
0.0
 10
692.7860894918
 20
1651.4420102059
 10
691.8438816189
 20
1651.6944731294
 10
690.9378761171
 20
1651.9372428476
 10
690.1028970002
 20
1652.1609688818
 10
689.3710264682
 20
1652.3570756137
 10
688.770405364
 20
1652.5180081546
 10
688.324100685
 20
1652.6375974237
 10
688.049263668
 20
1652.7112389623
 10
687.9564666866
 20
1652.7361090004
  0
ARC
  5
23D
330
1F
100
AcDbEntity
  8
0
  6
Continuous
 62
     7
370
    15
100
AcDbCircle
 10
695.6838701796
 20
1650.6655535518
 30
0.0
 40
7.999999999999965
100
AcDbArc
 50
90.0
 51
165.0
  0
LINE
  5
23E
330
1F
100
AcDbEntity
  8
0
  6
Continuous
 62
     7
370
    15
100
AcDbLine
 10
695.6838736056
 20
1658.6655567109
 30
0.0
 11
695.6838736056
 21
1653.6655540287
 31
0.0
  0
LINE
  5
23F
330
1F
100
AcDbEntity
  8
0
  6
Continuous
 62
     7
370
    15
100
AcDbLine
 10
695.6838736056
 20
1658.6655567109
 30
0.0
 11
856.8224826573
 21
1658.6655567109
 31
0.0
  0
LINE
  5
240
330
1F
100
AcDbEntity
  8
0
  6
Continuous
 62
     7
370
    15
100
AcDbLine
 10
856.8224826573
 20
1658.6655567109
 30
0.0
 11
856.8224826573
 21
1653.6655540287
 31
0.0
  0
LINE
  5
241
330
1F
100
AcDbEntity
  8
0
  6
Continuous
 62
     7
370
    15
100
AcDbLine
 10
856.8224826573
 20
1653.6655540287
 30
0.0
 11
695.6838736056
 21
1653.6655540287
 31
0.0
  0
ARC
  5
242
330
1F
100
AcDbEntity
  8
0
  6
Continuous
 62
     7
370
    15
100
AcDbCircle
 10
856.8224860834
 20
1650.6655535518
 30
0.0
 40
7.999999999999855
100
AcDbArc
 50
15.0
 51
90.0
  0
LWPOLYLINE
  5
243
330
1F
100
AcDbEntity
  8
0
  6
Continuous
 62
     7
370
    15
100
AcDbPolyline
 90
        9
 70
   128
 43
0.0
 10
864.5498895763
 20
1652.7361090004
 10
864.457092595
 20
1652.7112389623
 10
864.182255578
 20
1652.6375974237
 10
863.735950899
 20
1652.5180081546
 10
863.1353297948
 20
1652.3570756137
 10
862.4034592628
 20
1652.1609688818
 10
861.5684801458
 20
1651.9372428476
 10
860.6624746441
 20
1651.6944731294
 10
859.7202667712
 20
1651.4420102059
  0
ARC
  5
244
330
1F
100
AcDbEntity
  8
0
  6
Continuous
 62
     7
370
    15
100
AcDbCircle
 10
856.8224860834
 20
1650.6655535518
 30
0.0
 40
3.000000000000121
100
AcDbArc
 50
15.0
 51
90.0
  0
LINE
  5
245
330
1F
100
AcDbEntity
  8
0
  6
Continuous
 62
     7
370
    15
100
AcDbLine
 10
692.7860894918
 20
1651.4420102059
 30
0.0
 11
675.6717109799
 21
1587.5702577352
 31
0.0
  0
LWPOLYLINE
  5
246
330
1F
100
AcDbEntity
  8
0
  6
Continuous
 62
     7
370
    15
100
AcDbPolyline
 90
        9
 70
   128
 43
0.0
 10
675.6717109799
 20
1587.5702577352
 10
674.7294956564
 20
1587.822724384
 10
673.8234901547
 20
1588.0654866516
 10
672.9885110377
 20
1588.2892201363
 10
672.2566479563
 20
1588.4853231429
 10
671.6560194015
 20
1588.6462594091
 10
671.2097147225
 20
1588.765844953
 10
670.9348777055
 20
1588.8394864916
 10
670.8420807242
 20
1588.8643528043
  0
LINE
  5
247
330
1F
100
AcDbEntity
  8
0
  6
Continuous
 62
     7
370
    15
100
AcDbLine
 10
670.8420807242
 20
1588.8643528043
 30
0.0
 11
687.9564666866
 21
1652.7361090004
 31
0.0
  0
ARC
  5
248
330
1F
100
AcDbEntity
  8
0
  6
Continuous
 62
     7
370
    15
100
AcDbCircle
 10
690.2531781315
 20
1436.574026372
 30
0.0
 40
18.50000000000027
100
AcDbArc
 50
180.0
 51
252.2764394251
  0
LINE
  5
249
330
1F
100
AcDbEntity
  8
0
  6
Continuous
 62
     7
370
    15
100
AcDbLine
 10
671.7531749724
 20
1557.8060676518
 30
0.0
 11
671.7531749724
 21
1436.5740234672
 31
0.0
  0
ARC
  5
24A
330
1F
100
AcDbEntity
  8
0
  6
Continuous
 62
     7
370
    15
100
AcDbCircle
 10
786.7531781315
 20
1557.806067661
 30
0.0
 40
115.0
100
AcDbArc
 50
165.0
 51
180.0
  0
LINE
  5
24B
330
1F
100
AcDbEntity
  8
0
  6
Continuous
 62
     7
370
    15
100
AcDbLine
 10
876.8346452831
 20
1587.5702577352
 30
0.0
 11
859.7202667712
 21
1651.4420102059
 31
0.0
  0
ARC
  5
24C
330
1F
100
AcDbEntity
  8
0
  6
Continuous
 62
     7
370
    15
100
AcDbCircle
 10
765.7531781315
 20
1557.806067661
 30
0.0
 40
115.0000000000001
100
AcDbArc
 50
0.0
 51
15.0
  0
LINE
  5
24D
330
1F
100
AcDbEntity
  8
0
  6
Continuous
 62
     7
370
    15
100
AcDbLine
 10
880.7531812905
 20
1436.5740234672
 30
0.0
 11
880.7531812905
 21
1557.8060676518
 31
0.0
  0
ARC
  5
24E
330
1F
100
AcDbEntity
  8
0
  6
Continuous
 62
     7
370
    15
100
AcDbCircle
 10
862.2531781315
 20
1436.574026372
 30
0.0
 40
18.50000000000074
100
AcDbArc
 50
287.7235605749
 51
0.0
  0
ARC
  5
24F
330
1F
100
AcDbEntity
  8
0
  6
Continuous
 62
     7
370
    15
100
AcDbCircle
 10
776.2531781315
 20
1705.6655535518
 30
0.0
 40
301.0000000000006
100
AcDbArc
 50
252.2764394251
 51
287.7235605749
  0
CIRCLE
  5
250
330
1F
100
AcDbEntity
  8
0
  6
Continuous
 62
     7
370
    15
100
AcDbCircle
 10
776.2531781315
 20
1496.8555535518
 30
0.0
 40
6.000000000000227
  0
CIRCLE
  5
251
330
1F
100
AcDbEntity
  8
0
  6
Continuous
 62
     7
370
    15
100
AcDbCircle
 10
776.2531781315
 20
1580.8555535518
 30
0.0
 40
6.0
  0
CIRCLE
  5
252
330
1F
100
AcDbEntity
  8
0
  6
Continuous
 62
     7
370
    15
100
AcDbCircle
 10
853.7531781315
 20
1476.1655535518
 30
0.0
 40
6.025000000000091
  0
CIRCLE
  5
253
330
1F
100
AcDbEntity
  8
0
  6
Continuous
 62
     7
370
    15
100
AcDbCircle
 10
698.7531781315
 20
1476.1655535518
 30
0.0
 40
6.025000000000091
  0
CIRCLE
  5
254
330
1F
100
AcDbEntity
  8
0
  6
Continuous
 62
     7
370
    15
100
AcDbCircle
 10
776.2531781315
 20
1632.6655535518
 30
0.0
 40
6.025000000000091
  0
LINE
  5
255
330
1F
100
AcDbEntity
  8
0
  6
Continuous
 62
     7
370
    15
100
AcDbLine
 10
864.5498895763
 20
1652.7361090004
 30
0.0
 11
881.6642755388
 21
1588.8643528043
 31
0.0
  0
LWPOLYLINE
  5
256
330
1F
100
AcDbEntity
  8
0
  6
Continuous
 62
     7
370
    15
100
AcDbPolyline
 90
        9
 70
   128
 43
0.0
 10
881.6642755388
 20
1588.8643528043
 10
881.5714785575
 20
1588.8394864916
 10
881.2966415404
 20
1588.765844953
 10
880.8503368615
 20
1588.6462594091
 10
880.2497083067
 20
1588.4853231429
 10
879.5178452252
 20
1588.2892201363
 10
878.6828661083
 20
1588.0654866516
 10
877.7768606066
 20
1587.822724384
 10
876.8346452831
 20
1587.5702577352
  0
CIRCLE
  5
257
330
1F
100
AcDbEntity
  8
0
  6
Continuous
 62
     7
370
    15
100
AcDbCircle
 10
776.2531781315
 20
1632.6655535518
 30
0.0
 40
3.125000000000114
  0
LINE
  5
258
330
1F
100
AcDbEntity
  8
0
  6
Continuous
 62
     7
370
    15
100
AcDbLine
 10
671.7531749724
 20
1557.8060676518
 30
0.0
 11
666.7531797408
 21
1557.8060676518
 31
0.0
  0
ARC
  5
259
330
1F
100
AcDbEntity
  8
0
  6
Continuous
 62
     7
370
    15
100
AcDbCircle
 10
786.7531781315
 20
1557.806067661
 30
0.0
 40
120.0
100
AcDbArc
 50
165.0
 51
180.0
  0
ARC
  5
25A
330
1F
100
AcDbEntity
  8
0
  6
Continuous
 62
     7
370
    15
100
AcDbCircle
 10
765.7531781315
 20
1557.806067661
 30
0.0
 40
120.0000000000001
100
AcDbArc
 50
0.0
 51
15.0
  0
LINE
  5
25B
330
1F
100
AcDbEntity
  8
0
  6
Continuous
 62
     7
370
    15
100
AcDbLine
 10
885.7531765222
 20
1557.8060676518
 30
0.0
 11
880.7531812905
 21
1557.8060676518
 31
0.0
  0
CIRCLE
  5
25C
330
1F
100
AcDbEntity
  8
0
  6
Continuous
 62
     7
370
    15
100
AcDbCircle
 10
776.2531781315
 20
1580.8555535518
 30
0.0
 40
3.0
  0
LINE
  5
25D
330
1F
100
AcDbEntity
  8
0
  6
Continuous
 62
     7
370
    15
100
AcDbLine
 10
671.7531749724
 20
1436.5740234672
 30
0.0
 11
666.7531797408
 21
1436.5740234672
 31
0.0
  0
LINE
  5
25E
330
1F
100
AcDbEntity
  8
0
  6
Continuous
 62
     7
370
    15
100
AcDbLine
 10
666.7531797408
 20
1436.5740234672
 30
0.0
 11
666.7531797408
 21
1557.8060676518
 31
0.0
  0
LINE
  5
25F
330
1F
100
AcDbEntity
  8
0
  6
Continuous
 62
     7
370
    15
100
AcDbLine
 10
885.7531765222
 20
1557.8060676518
 30
0.0
 11
885.7531765222
 21
1436.5740234672
 31
0.0
  0
LINE
  5
260
330
1F
100
AcDbEntity
  8
0
  6
Continuous
 62
     7
370
    15
100
AcDbLine
 10
885.7531765222
 20
1436.5740234672
 30
0.0
 11
880.7531812905
 21
1436.5740234672
 31
0.0
  0
CIRCLE
  5
261
330
1F
100
AcDbEntity
  8
0
  6
Continuous
 62
     7
370
    15
100
AcDbCircle
 10
776.2531781315
 20
1496.8555535518
 30
0.0
 40
3.000000000000114
  0
CIRCLE
  5
262
330
1F
100
AcDbEntity
  8
0
  6
Continuous
 62
     7
370
    15
100
AcDbCircle
 10
853.7531781315
 20
1476.1655535518
 30
0.0
 40
3.125000000000114
  0
CIRCLE
  5
263
330
1F
100
AcDbEntity
  8
0
  6
Continuous
 62
     7
370
    15
100
AcDbCircle
 10
698.7531781315
 20
1476.1655535518
 30
0.0
 40
3.125000000000114
  0
LWPOLYLINE
  5
264
330
1F
100
AcDbEntity
  8
0
  6
Continuous
 62
     7
370
    15
100
AcDbPolyline
 90
        9
 70
   128
 43
0.0
 10
684.6213185906
 20
1418.9521039545
 10
684.3243682503
 20
1418.0229569494
 10
684.0388247489
 20
1417.1294982254
 10
683.7756702422
 20
1416.3061047613
 10
683.5450151681
 20
1415.58438192
 10
683.3557182669
 20
1414.9920756637
 10
683.2150587558
 20
1414.5519549667
 10
683.1284457563
 20
1414.2809326469
 10
683.0991947769
 20
1414.189424616
  0
ARC
  5
265
330
1F
100
AcDbEntity
  8
0
  6
Continuous
 62
     7
370
    15
100
AcDbCircle
 10
690.2531781315
 20
1436.574026372
 30
0.0
 40
23.50000000000007
100
AcDbArc
 50
180.0
 51
252.2764394251
  0
ARC
  5
266
330
1F
100
AcDbEntity
  8
0
  6
Continuous
 62
     7
370
    15
100
AcDbCircle
 10
862.2531781315
 20
1436.574026372
 30
0.0
 40
23.50000000000079
100
AcDbArc
 50
287.7235605749
 51
0.0
  0
LWPOLYLINE
  5
267
330
1F
100
AcDbEntity
  8
0
  6
Continuous
 62
     7
370
    15
100
AcDbPolyline
 90
        9
 70
   128
 43
0.0
 10
867.8850376724
 20
1418.9521039545
 10
868.1819880127
 20
1418.0229569494
 10
868.4675315141
 20
1417.1294982254
 10
868.7306860208
 20
1416.3061047613
 10
868.9613410949
 20
1415.58438192
 10
869.1506379961
 20
1414.9920756637
 10
869.2912975072
 20
1414.5519549667
 10
869.3779105066
 20
1414.2809326469
 10
869.4071614861
 20
1414.189424616
  0
ARC
  5
268
330
1F
100
AcDbEntity
  8
0
  6
Continuous
 62
     7
370
    15
100
AcDbCircle
 10
776.2531781315
 20
1705.6655535518
 30
0.0
 40
306.0000000000007
100
AcDbArc
 50
252.2764394251
 51
287.7235605749
  0
DIMENSION
  5
269
330
1F
100
AcDbEntity
  8
MEDIÇÕES
100
AcDbDimension
  2
_D_2
 10
613.9404778192
 20
1399.6655535518
 30
0.0
 11
613.9404778192
 21
1535.2112885163
 31
0.0
 70
   160
  1
<>
 71
     2
 42
-1.0
  3
SLDDIMSTYLE1
100
AcDbAlignedDimension
 13
695.6838701796
 23
1658.6655535518
 33
0.0
 14
776.2531781315
 24
1399.6655535518
 34
0.0
 50
90.0
100
AcDbRotatedDimension
  0
LINE
  5
273
330
1F
100
AcDbEntity
  8
0
  6
Continuous
 62
     7
370
    15
100
AcDbLine
 10
2545.8231756414
 20
1285.1605919115
 30
0.0
 11
2545.8231756414
 21
1770.326669271
 31
0.0
  0
LINE
  5
274
330
1F
100
AcDbEntity
  8
0
  6
Continuous
 62
     7
370
    15
100
AcDbLine
 10
2388.7413444057
 20
1839.6528964512
 30
0.0
 11
2388.7413444057
 21
1359.2910707837
 31
0.0
  0
SPLINE
  5
275
330
1F
100
AcDbEntity
  8
0
  6
Continuous
 62
     7
370
    15
100
AcDbSpline
210
0.0
220
0.0
230
1.0
 70
     8
 71
     3
 72
     9
 73
     5
 74
     0
 42
0.00000001
 43
0.00000001
 12
1.0
 22
0.0
 32
0.0
 13
1.0
 23
0.0
 33
0.0
 40
0.0
 40
0.0
 40
0.0
 40
0.0
 40
0.6613101357377141
 40
1.0
 40
1.0
 40
1.0
 40
1.0
 10
2683.367403244667
 20
1866.216502731653
 30
0.0
 10
2683.376619259824
 20
1866.40485614177
 30
0.0
 10
2683.390555255447
 20
1866.6896747162
 30
0.0
 10
2683.328742839603
 20
1866.967412705002
 30
0.0
 10
2683.307807600872
 20
1867.06147974673
 30
0.0
  0
LINE
  5
276
330
1F
100
AcDbEntity
  8
0
  6
Continuous
 62
     7
370
    15
100
AcDbLine
 10
2683.40920765
 20
1380.3228961632
 30
0.0
 11
2683.40920765
 21
1866.1647025967
 31
0.0
  0
SPLINE
  5
277
330
1F
100
AcDbEntity
  8
0
  6
Continuous
 62
     7
370
    15
100
AcDbSpline
210
0.0
220
0.0
230
1.0
 70
     8
 71
     3
 72
    13
 73
     9
 74
     0
 42
0.00000001
 43
0.00000001
 12
1.0
 22
0.0
 32
0.0
 13
1.0
 23
0.0
 33
0.0
 40
0.0
 40
0.0
 40
0.0
 40
0.0
 40
0.1116023285119206
 40
0.2977226511646329
 40
0.4848601249081566
 40
0.6734235963925799
 40
0.8662345979566513
 40
1.0
 40
1.0
 40
1.0
 40
1.0
 10
2548.495275300258
 20
1286.364974164234
 30
0.0
 10
2548.700709564958
 20
1286.257720763271
 30
0.0
 10
2549.248748613443
 20
1285.971599789749
 30
0.0
 10
2550.265705516709
 20
1285.683314845139
 30
0.0
 10
2551.516897434191
 20
1285.552549233874
 30
0.0
 10
2552.789353362194
 20
1285.650017374185
 30
0.0
 10
2553.885316391229
 20
1285.928346060173
 30
0.0
 10
2554.490051458926
 20
1286.238099452518
 30
0.0
 10
2554.737750400328
 20
1286.364974164234
 30
0.0
  0
LINE
  5
278
330
1F
100
AcDbEntity
  8
0
  6
Continuous
 62
     7
370
    15
100
AcDbLine
 10
2554.7377504003
 20
1286.3649741642
 30
0.0
 11
2629.7904270468
 21
1329.6919621514
 31
0.0
  0
SPLINE
  5
279
330
1F
100
AcDbEntity
  8
0
  6
Continuous
 62
     7
370
    15
100
AcDbSpline
210
0.0
220
0.0
230
1.0
 70
     8
 71
     3
 72
    13
 73
     9
 74
     0
 42
0.00000001
 43
0.00000001
 12
1.0
 22
0.0
 32
0.0
 13
1.0
 23
0.0
 33
0.0
 40
0.0
 40
0.0
 40
0.0
 40
0.0
 40
0.103898039266775
 40
0.3010932874307098
 40
0.4983310233745445
 40
0.6955577137549656
 40
0.8927405416561509
 40
1.0
 40
1.0
 40
1.0
 40
1.0
 10
2629.790427046841
 20
1329.691962151396
 30
0.0
 10
2630.554983749041
 20
1330.140644106784
 30
0.0
 10
2632.770645300665
 20
1331.440910463223
 30
0.0
 10
2636.264224542378
 20
1333.693313264371
 30
0.0
 10
2640.185091811831
 20
1336.484314510384
 30
0.0
 10
2643.849623673625
 20
1339.395714349013
 30
0.0
 10
2646.749838060363
 20
1341.953351425442
 30
0.0
 10
2648.38200467603
 20
1343.553967779986
 30
0.0
 10
2648.957040783144
 20
1344.117888269883
 30
0.0
  0
LINE
  5
27A
330
1F
100
AcDbEntity
  8
0
  6
Continuous
 62
     7
370
    15
100
AcDbLine
 10
2648.9570407831
 20
1344.1178882699
 30
0.0
 11
2682.0194943457
 21
1377.1767538889
 31
0.0
  0
SPLINE
  5
27B
330
1F
100
AcDbEntity
  8
0
  6
Continuous
 62
     7
370
    15
100
AcDbSpline
210
0.0
220
0.0
230
1.0
 70
     8
 71
     3
 72
    11
 73
     7
 74
     0
 42
0.00000001
 43
0.00000001
 12
1.0
 22
0.0
 32
0.0
 13
1.0
 23
0.0
 33
0.0
 40
0.0
 40
0.0
 40
0.0
 40
0.0
 40
0.2204928677308744
 40
0.5394641266731913
 40
0.8465231410338455
 40
1.0
 40
1.0
 40
1.0
 40
1.0
 10
2682.019494345727
 20
1377.176753888886
 30
0.0
 10
2682.198539638815
 20
1377.37076603674
 30
0.0
 10
2682.636596949531
 20
1377.845441680372
 30
0.0
 10
2683.116391080284
 20
1378.719371845262
 30
0.0
 10
2683.404078926568
 20
1379.605059658535
 30
0.0
 10
2683.3769459846
 20
1380.144206934027
 30
0.0
 10
2683.367903738492
 20
1380.323881602506
 30
0.0
  0
SPLINE
  5
27C
330
1F
100
AcDbEntity
  8
0
  6
Continuous
 62
     7
370
    15
100
AcDbSpline
210
0.0
220
0.0
230
1.0
 70
     8
 71
     3
 72
    18
 73
    14
 74
     0
 42
0.00000001
 43
0.00000001
 12
1.0
 22
0.0
 32
0.0
 13
1.0
 23
0.0
 33
0.0
 40
0.0
 40
0.0
 40
0.0
 40
0.0
 40
0.0505229143722957
 40
0.1457747347464051
 40
0.2409012324300304
 40
0.3359288875038978
 40
0.4309205815714937
 40
0.5259419187145581
 40
0.6210414962707822
 40
0.7162890712951238
 40
0.811754517515307
 40
0.9074983728918736
 40
1.0
 40
1.0
 40
1.0
 40
1.0
 10
2517.440028519514
 20
1766.872522708905
 30
0.0
 10
2517.876529688221
 20
1766.748660423754
 30
0.0
 10
2519.135974889973
 20
1766.391278194577
 30
0.0
 10
2521.314609641548
 20
1765.935840277687
 30
0.0
 10
2523.976211408638
 20
1765.570746866968
 30
0.0
 10
2526.689798200699
 20
1765.395433044909
 30
0.0
 10
2529.417641886623
 20
1765.408482589253
 30
0.0
 10
2532.125447638478
 20
1765.610538460543
 30
0.0
 10
2534.777924541233
 20
1765.999654577307
 30
0.0
 10
2537.342565769824
 20
1766.571251293609
 30
0.0
 10
2539.78155338172
 20
1767.323837903996
 30
0.0
 10
2542.054242441349
 20
1768.226364336464
 30
0.0
 10
2543.403444435989
 20
1768.954637207846
 30
0.0
 10
2544.066426506817
 20
1769.312501974066
 30
0.0
  0
SPLINE
  5
27D
330
1F
100
AcDbEntity
  8
0
  6
Continuous
 62
     7
370
    15
100
AcDbSpline
210
0.0
220
0.0
230
1.0
 70
     8
 71
     3
 72
    27
 73
    23
 74
     0
 42
0.00000001
 43
0.00000001
 12
1.0
 22
0.0
 32
0.0
 13
1.0
 23
0.0
 33
0.0
 40
0.0
 40
0.0
 40
0.0
 40
0.0
 40
0.0274412629929228
 40
0.079465120058849
 40
0.1314982004282129
 40
0.1835421446782935
 40
0.2355945682119195
 40
0.2876534132786647
 40
0.3397168061709793
 40
0.3917832026376193
 40
0.4438512704566369
 40
0.4959198232295605
 40
0.5479877904511088
 40
0.6000544977672528
 40
0.6521194587742598
 40
0.7041822700962105
 40
0.7562426574712038
 40
0.8083004173653482
 40
0.8603554933652742
 40
0.9124077891221505
 40
0.9644573047044385
 40
1.0
 40
1.0
 40
1.0
 40
1.0
 10
2385.64037948977
 20
1843.011714021258
 30
0.0
 10
2386.445144485637
 20
1842.12191931966
 30
0.0
 10
2388.775603802769
 20
1839.545228778543
 30
0.0
 10
2392.84503147695
 20
1835.349247704965
 30
0.0
 10
2397.934248927365
 20
1830.458381166439
 30
0.0
 10
2403.295685636439
 20
1825.667074966241
 30
0.0
 10
2408.918927509254
 20
1820.978792913222
 30
0.0
 10
2414.7993282537
 20
1816.39873575842
 30
0.0
 10
2420.930341495927
 20
1811.931589535308
 30
0.0
 10
2427.305540444382
 20
1807.581930534315
 30
0.0
 10
2433.918265843561
 20
1803.354210351749
 30
0.0
 10
2440.761511806086
 20
1799.252765292966
 30
0.0
 10
2447.828140178905
 20
1795.281772906738
 30
0.0
 10
2455.110752774272
 20
1791.445213132679
 30
0.0
 10
2462.60178496224
 20
1787.747037923484
 30
0.0
 10
2470.293470577856
 20
1784.190912667101
 30
0.0
 10
2478.177762806796
 20
1780.78043037662
 30
0.0
 10
2486.246707608902
 20
1777.519227543764
 30
0.0
 10
2494.491190438518
 20
1774.409635706149
 30
0.0
 10
2502.905577248246
 20
1771.458232618138
 30
0.0
 10
2510.565197658929
 20
1768.951796320492
 30
0.0
 10
2515.455619499523
 20
1767.47270173782
 30
0.0
 10
2517.440028519514
 20
1766.872522708905
 30
0.0
  0
LINE
  5
27E
330
1F
100
AcDbEntity
  8
0
  6
Continuous
 62
     7
370
    15
100
AcDbLine
 10
2544.0664265068
 20
1769.3125019741
 30
0.0
 11
2629.7904270468
 21
1818.7999141166
 31
0.0
  0
SPLINE
  5
27F
330
1F
100
AcDbEntity
  8
0
  6
Continuous
 62
     7
370
    15
100
AcDbSpline
210
0.0
220
0.0
230
1.0
 70
     8
 71
     3
 72
    13
 73
     9
 74
     0
 42
0.00000001
 43
0.00000001
 12
1.0
 22
0.0
 32
0.0
 13
1.0
 23
0.0
 33
0.0
 40
0.0
 40
0.0
 40
0.0
 40
0.0
 40
0.1038980391654113
 40
0.3010932871369609
 40
0.4983310155816869
 40
0.6955577140519819
 40
0.8927405417607941
 40
1.0
 40
1.0
 40
1.0
 40
1.0
 10
2629.790427046841
 20
1818.799914116636
 30
0.0
 10
2630.554983751108
 20
1819.248595725069
 30
0.0
 10
2632.770645308724
 20
1820.548861076042
 30
0.0
 10
2636.26422442292
 20
1822.801276647738
 30
0.0
 10
2640.185092021925
 20
1825.5922243813
 30
0.0
 10
2643.84962355255
 20
1828.503677707391
 30
0.0
 10
2646.749838069336
 20
1831.061301988837
 30
0.0
 10
2648.382004678368
 20
1832.661919380008
 30
0.0
 10
2648.957040783144
 20
1833.225840235124
 30
0.0
  0
LINE
  5
280
330
1F
100
AcDbEntity
  8
0
  6
Continuous
 62
     7
370
    15
100
AcDbLine
 10
2648.9570407831
 20
1833.2258402351
 30
0.0
 11
2682.0194943457
 21
1866.2847058541
 31
0.0
  0
SPLINE
  5
281
330
1F
100
AcDbEntity
  8
0
  6
Continuous
 62
     7
370
    15
100
AcDbSpline
210
0.0
220
0.0
230
1.0
 70
     8
 71
     3
 72
    15
 73
    11
 74
     0
 42
0.00000001
 43
0.00000001
 12
1.0
 22
0.0
 32
0.0
 13
1.0
 23
0.0
 33
0.0
 40
0.0
 40
0.0
 40
0.0
 40
0.0
 40
0.0829651577048672
 40
0.2356972421663238
 40
0.3880133079724995
 40
0.5218684876908032
 40
0.6513877332942094
 40
0.7907192984603988
 40
0.925273201693881
 40
1.0
 40
1.0
 40
1.0
 40
1.0
 10
2390.660074415774
 20
1865.99681651728
 30
0.0
 10
2390.279894573839
 20
1865.768091535995
 30
0.0
 10
2389.199834669776
 20
1865.118302530649
 30
0.0
 10
2387.592924441113
 20
1863.898636738995
 30
0.0
 10
2386.006323166076
 20
1862.345432857486
 30
0.0
 10
2384.752384435246
 20
1860.71100527634
 30
0.0
 10
2383.780719521666
 20
1858.99238906959
 30
0.0
 10
2383.109553757276
 20
1857.149709224098
 30
0.0
 10
2382.760605320032
 20
1855.484456818921
 30
0.0
 10
2382.775564190972
 20
1854.471440952424
 30
0.0
 10
2382.780905479124
 20
1854.109728516543
 30
0.0
  0
LINE
  5
282
330
1F
100
AcDbEntity
  8
0
  6
Continuous
 62
     7
370
    15
100
AcDbLine
 10
2382.7413506618
 20
1854.114789596
 30
0.0
 11
2382.7413506618
 21
1850.0320894301
 31
0.0
  0
SPLINE
  5
283
330
1F
100
AcDbEntity
  8
0
  6
Continuous
 62
     7
370
    15
100
AcDbSpline
210
0.0
220
0.0
230
1.0
 70
     8
 71
     3
 72
    12
 73
     8
 74
     0
 42
0.00000001
 43
0.00000001
 12
1.0
 22
0.0
 32
0.0
 13
1.0
 23
0.0
 33
0.0
 40
0.0
 40
0.0
 40
0.0
 40
0.0
 40
0.1843644334859306
 40
0.4065817351747709
 40
0.6299324490281967
 40
0.8568075361654743
 40
1.0
 40
1.0
 40
1.0
 40
1.0
 10
2382.76538490216
 20
1850.177001384706
 30
0.0
 10
2382.769729326867
 20
1849.706496379819
 30
0.0
 10
2382.779310153831
 20
1848.668884419214
 30
0.0
 10
2383.172316872025
 20
1847.086757485134
 30
0.0
 10
2383.861269128785
 20
1845.464435746992
 30
0.0
 10
2384.712725529324
 20
1844.106004416855
 30
0.0
 10
2385.381576831566
 20
1843.317005946161
 30
0.0
 10
2385.64037948977
 20
1843.011714021258
 30
0.0
  0
LINE
  5
284
330
1F
100
AcDbEntity
  8
0
  6
Continuous
 62
     7
370
    15
100
AcDbLine
 10
2476.3840749558
 20
1915.4842286599
 30
0.0
 11
2390.6600744158
 21
1865.9968165173
 31
0.0
  0
SPLINE
  5
285
330
1F
100
AcDbEntity
  8
0
  6
Continuous
 62
     7
370
    15
100
AcDbSpline
210
0.0
220
0.0
230
1.0
 70
     8
 71
     3
 72
    13
 73
     9
 74
     0
 42
0.00000001
 43
0.00000001
 12
1.0
 22
0.0
 32
0.0
 13
1.0
 23
0.0
 33
0.0
 40
0.0
 40
0.0
 40
0.0
 40
0.0
 40
0.0800249633997175
 40
0.2778695354530972
 40
0.4677804019174541
 40
0.6544338234749804
 40
0.8426316520838335
 40
1.0
 40
1.0
 40
1.0
 40
1.0
 10
2683.369083850251
 20
1873.518554842873
 30
0.0
 10
2683.379351855368
 20
1873.700859906065
 30
0.0
 10
2683.415005302628
 20
1874.333875168649
 30
0.0
 10
2683.149206119685
 20
1875.385092635584
 30
0.0
 10
2682.626588681791
 20
1876.583503421737
 30
0.0
 10
2681.868057949167
 20
1877.623511889177
 30
0.0
 10
2680.993969692868
 20
1878.459585991696
 30
0.0
 10
2680.331847035878
 20
1878.877916235882
 30
0.0
 10
2680.030321146695
 20
1879.068420816142
 30
0.0
  0
LINE
  5
286
330
1F
100
AcDbEntity
  8
0
  6
Continuous
 62
     7
370
    15
100
AcDbLine
 10
2683.40920765
 20
1869.4308481285
 30
0.0
 11
2683.40920765
 21
1873.5135482943
 31
0.0
  0
LINE
  5
287
330
1F
100
AcDbEntity
  8
0
  6
Continuous
 62
     7
370
    15
100
AcDbLine
 10
2680.0303211467
 20
1879.0684208161
 30
0.0
 11
2566.0881179753
 21
1944.845854595
 31
0.0
  0
SPLINE
  5
288
330
1F
100
AcDbEntity
  8
0
  6
Continuous
 62
     7
370
    15
100
AcDbSpline
210
0.0
220
0.0
230
1.0
 70
     8
 71
     3
 72
    11
 73
     7
 74
     0
 42
0.00000001
 43
0.00000001
 12
1.0
 22
0.0
 32
0.0
 13
1.0
 23
0.0
 33
0.0
 40
0.0
 40
0.0
 40
0.0
 40
0.0
 40
0.2233465634539545
 40
0.5464442870513228
 40
0.8574795430550457
 40
0.9999999999999999
 40
0.9999999999999999
 40
0.9999999999999999
 40
0.9999999999999999
 10
2682.019494345727
 20
1866.284705854126
 30
0.0
 10
2682.198576545316
 20
1866.478716650436
 30
0.0
 10
2682.636722731066
 20
1866.953387447382
 30
0.0
 10
2683.115619449396
 20
1867.827350501953
 30
0.0
 10
2683.401487388121
 20
1868.698327354993
 30
0.0
 10
2683.376262226497
 20
1869.222415166349
 30
0.0
 10
2683.368335743689
 20
1869.387098869412
 30
0.0
  0
SPLINE
  5
289
330
1F
100
AcDbEntity
  8
0
  6
Continuous
 62
     7
370
    15
100
AcDbSpline
210
0.0
220
0.0
230
1.0
 70
     8
 71
     3
 72
    13
 73
     9
 74
     0
 42
0.00000001
 43
0.00000001
 12
1.0
 22
0.0
 32
0.0
 13
1.0
 23
0.0
 33
0.0
 40
0.0
 40
0.0
 40
0.0
 40
0.0
 40
0.1051835814554405
 40
0.3044824396829105
 40
0.5039105827410151
 40
0.7034640579019449
 40
0.9031369681266551
 40
0.9999999999999999
 40
0.9999999999999999
 40
0.9999999999999999
 40
0.9999999999999999
 10
2501.120165549327
 20
1926.44776392489
 30
0.0
 10
2500.17883187714
 20
1926.127962630106
 30
0.0
 10
2497.453885938838
 20
1925.202210938613
 30
0.0
 10
2493.067575667452
 20
1923.545423734654
 30
0.0
 10
2488.027881820487
 20
1921.429470414715
 30
0.0
 10
2483.179664150657
 20
1919.155006026123
 30
0.0
 10
2479.320267775259
 20
1917.15343710704
 30
0.0
 10
2477.10702686334
 20
1915.89522259151
 30
0.0
 10
2476.384074955798
 20
1915.48422865985
 30
0.0
  0
LINE
  5
28A
330
1F
100
AcDbEntity
  8
0
  6
Continuous
 62
     7
370
    15
100
AcDbLine
 10
2558.3860132176
 20
1945.5343105773
 30
0.0
 11
2501.1201655493
 21
1926.4477639249
 31
0.0
  0
SPLINE
  5
28B
330
1F
100
AcDbEntity
  8
0
  6
Continuous
 62
     7
370
    15
100
AcDbSpline
210
0.0
220
0.0
230
1.0
 70
     8
 71
     3
 72
    13
 73
     9
 74
     0
 42
0.00000001
 43
0.00000001
 12
1.0
 22
0.0
 32
0.0
 13
1.0
 23
0.0
 33
0.0
 40
0.0
 40
0.0
 40
0.0
 40
0.0
 40
0.1410824692846011
 40
0.3296971724808629
 40
0.5244526672482724
 40
0.7237007006331675
 40
0.9294615899880337
 40
1.0
 40
1.0
 40
1.0
 40
1.0
 10
2566.088117975267
 20
1944.845854594962
 30
0.0
 10
2565.762828677911
 20
1945.016151194263
 30
0.0
 10
2565.002656545113
 20
1945.414119188141
 30
0.0
 10
2563.672936900198
 20
1945.81722468407
 30
0.0
 10
2562.129433066168
 20
1946.043751554413
 30
0.0
 10
2560.513848441181
 20
1946.020226617058
 30
0.0
 10
2559.257383529042
 20
1945.806276282213
 30
0.0
 10
2558.563228885418
 20
1945.589621830606
 30
0.0
 10
2558.386013217568
 20
1945.534310577289
 30
0.0
  0
SPLINE
  5
28C
330
1F
100
AcDbEntity
  8
0
  6
Continuous
 62
     7
370
    15
100
AcDbSpline
210
0.0
220
0.0
230
1.0
 70
     8
 71
     3
 72
    18
 73
    14
 74
     0
 42
0.00000001
 43
0.00000001
 12
1.0
 22
0.0
 32
0.0
 13
1.0
 23
0.0
 33
0.0
 40
0.0
 40
0.0
 40
0.0
 40
0.0
 40
0.0545056646242183
 40
0.1551910217062581
 40
0.2555006397562587
 40
0.355591946349692
 40
0.4556432227739841
 40
0.5558346038918662
 40
0.6563286521988423
 40
0.7573372972603962
 40
0.8590569703120547
 40
0.9616228532209025
 40
0.9999999999999999
 40
0.9999999999999999
 40
0.9999999999999999
 40
0.9999999999999999
 10
2517.959009007009
 20
1269.079682853759
 30
0.0
 10
2518.411650476135
 20
1268.951716051333
 30
0.0
 10
2519.700431973337
 20
1268.587363117562
 30
0.0
 10
2521.914130549097
 20
1268.137476414104
 30
0.0
 10
2524.59535913357
 20
1267.794934406285
 30
0.0
 10
2527.316892032405
 20
1267.655127060714
 30
0.0
 10
2530.044204163491
 20
1267.715018611661
 30
0.0
 10
2532.745920650969
 20
1267.975436084938
 30
0.0
 10
2535.39023885849
 20
1268.435480524709
 30
0.0
 10
2537.947462203233
 20
1269.094072045675
 30
0.0
 10
2540.384777018829
 20
1269.953370951409
 30
0.0
 10
2542.197270317926
 20
1270.782542051015
 30
0.0
 10
2543.177953220442
 20
1271.332430528769
 30
0.0
 10
2543.444981762236
 20
1271.48215876201
 30
0.0
  0
SPLINE
  5
28D
330
1F
100
AcDbEntity
  8
0
  6
Continuous
 62
     7
370
    15
100
AcDbSpline
210
0.0
220
0.0
230
1.0
 70
     8
 71
     3
 72
    27
 73
    23
 74
     0
 42
0.00000001
 43
0.00000001
 12
1.0
 22
0.0
 32
0.0
 13
1.0
 23
0.0
 33
0.0
 40
0.0
 40
0.0
 40
0.0
 40
0.0
 40
0.0276116041362475
 40
0.0797670708423927
 40
0.1319434873193148
 40
0.1841475475186645
 40
0.2363734269324046
 40
0.2886158366016117
 40
0.3408701195295519
 40
0.3931323169963113
 40
0.4453990383646123
 40
0.4976673278115613
 40
0.5499343605358317
 40
0.6021984231699076
 40
0.6544582004733472
 40
0.7067126860226081
 40
0.7589611841005215
 40
0.8112031724002232
 40
0.8634384027446316
 40
0.9156667564952868
 40
0.967888203220766
 40
1.0
 40
1.0
 40
1.0
 40
1.0
 10
2386.069339577202
 20
1345.350145957657
 30
0.0
 10
2386.884099267256
 20
1344.449346306499
 30
0.0
 10
2389.237855810894
 20
1341.847029206988
 30
0.0
 10
2393.344117865773
 20
1337.614289766978
 30
0.0
 10
2398.47306657222
 20
1332.687019129523
 30
0.0
 10
2403.874607346987
 20
1327.862323320745
 30
0.0
 10
2409.53826835833
 20
1323.143420577321
 30
0.0
 10
2415.459194094752
 20
1318.535669336589
 30
0.0
 10
2421.630515015387
 20
1314.04374580061
 30
0.0
 10
2428.045645725577
 20
1309.672282581859
 30
0.0
 10
2434.697581330098
 20
1305.425701659745
 30
0.0
 10
2441.579189233312
 20
1301.308286046138
 30
0.0
 10
2448.683051930034
 20
1297.324100139632
 30
0.0
 10
2456.001674325585
 20
1293.477174951425
 30
0.0
 10
2463.527269762716
 20
1289.771171020989
 30
0.0
 10
2471.252012767531
 20
1286.209802542691
 30
0.0
 10
2479.167756409759
 20
1282.796359085383
 30
0.0
 10
2487.26646223658
 20
1279.534499608676
 30
0.0
 10
2495.539030109092
 20
1276.426436389009
 30
0.0
 10
2503.979532428679
 20
1273.478371421428
 30
0.0
 10
2511.467110140673
 20
1271.040348751167
 30
0.0
 10
2516.168752104707
 20
1269.620371445527
 30
0.0
 10
2517.959009007009
 20
1269.079682853759
 30
0.0
  0
LINE
  5
28E
330
1F
100
AcDbEntity
  8
0
  6
Continuous
 62
     7
370
    15
100
AcDbLine
 10
2543.4449817622
 20
1271.482158762
 30
0.0
 11
2629.1689823023
 21
1320.9695709046
 31
0.0
  0
SPLINE
  5
28F
330
1F
100
AcDbEntity
  8
0
  6
Continuous
 62
     7
370
    15
100
AcDbSpline
210
0.0
220
0.0
230
1.0
 70
     8
 71
     3
 72
    13
 73
     9
 74
     0
 42
0.00000001
 43
0.00000001
 12
1.0
 22
0.0
 32
0.0
 13
1.0
 23
0.0
 33
0.0
 40
0.0
 40
0.0
 40
0.0
 40
0.0
 40
0.1051048595725564
 40
0.3040975551094766
 40
0.5031666089305504
 40
0.7021933166596735
 40
0.9010907951924061
 40
0.9999999999999999
 40
0.9999999999999999
 40
0.9999999999999999
 40
0.9999999999999999
 10
2629.16898230226
 20
1320.96957090458
 30
0.0
 10
2629.944831628279
 20
1321.424967113219
 30
0.0
 10
2632.189579246373
 20
1322.742554846235
 30
0.0
 10
2635.731439430889
 20
1325.028927015703
 30
0.0
 10
2639.70900752606
 20
1327.866653453559
 30
0.0
 10
2643.431489139976
 20
1330.833796074676
 30
0.0
 10
2646.326679328427
 20
1333.398613673897
 30
0.0
 10
2647.943263884929
 20
1334.986230326523
 30
0.0
 10
2648.480172899845
 20
1335.513518360792
 30
0.0
  0
LINE
  5
290
330
1F
100
AcDbEntity
  8
0
  6
Continuous
 62
     7
370
    15
100
AcDbLine
 10
2648.4801728998
 20
1335.5135183608
 30
0.0
 11
2681.5426238283
 21
1368.5723885418
 31
0.0
  0
SPLINE
  5
291
330
1F
100
AcDbEntity
  8
0
  6
Continuous
 62
     7
370
    15
100
AcDbSpline
210
0.0
220
0.0
230
1.0
 70
     8
 71
     3
 72
    14
 73
    10
 74
     0
 42
0.00000001
 43
0.00000001
 12
1.0
 22
0.0
 32
0.0
 13
1.0
 23
0.0
 33
0.0
 40
0.0
 40
0.0
 40
0.0
 40
0.0
 40
0.130138856102478
 40
0.3020643437171014
 40
0.4720814631824761
 40
0.6384121725680879
 40
0.7998947575516321
 40
0.9567296499283617
 40
1.0
 40
1.0
 40
1.0
 40
1.0
 10
2388.741349674028
 20
1366.8236109071
 30
0.0
 10
2388.271748865187
 20
1366.489576758719
 30
0.0
 10
2387.181761874524
 20
1365.714252548628
 30
0.0
 10
2385.76990395591
 20
1364.316984158698
 30
0.0
 10
2384.500381927051
 20
1362.684651683364
 30
0.0
 10
2383.555520022071
 20
1360.949790969981
 30
0.0
 10
2382.975340206789
 20
1359.160348697592
 30
0.0
 10
2382.7207649137
 20
1357.776660850491
 30
0.0
 10
2382.764196232608
 20
1357.008965902026
 30
0.0
 10
2382.773587732552
 20
1356.842961109938
 30
0.0
  0
LINE
  5
292
330
1F
100
AcDbEntity
  8
0
  6
Continuous
 62
     7
370
    15
100
AcDbLine
 10
2382.7413506618
 20
1356.841437299
 30
0.0
 11
2382.7413506618
 21
1353.5752917672
 31
0.0
  0
SPLINE
  5
293
330
1F
100
AcDbEntity
  8
0
  6
Continuous
 62
     7
370
    15
100
AcDbSpline
210
0.0
220
0.0
230
1.0
 70
     8
 71
     3
 72
    13
 73
     9
 74
     0
 42
0.00000001
 43
0.00000001
 12
1.0
 22
0.0
 32
0.0
 13
1.0
 23
0.0
 33
0.0
 40
0.0
 40
0.0
 40
0.0
 40
0.0
 40
0.096546995629874
 40
0.3036364173543355
 40
0.5102055384369689
 40
0.719358866923155
 40
0.9338015645297743
 40
1.0
 40
1.0
 40
1.0
 40
1.0
 10
2382.781590365413
 20
1353.628682322427
 30
0.0
 10
2382.771408371032
 20
1353.337471658043
 30
0.0
 10
2382.739386408306
 20
1352.421625833404
 30
0.0
 10
2383.02460544725
 20
1350.895188720871
 30
0.0
 10
2383.60480767354
 20
1349.101449080621
 30
0.0
 10
2384.488848334843
 20
1347.393895646456
 30
0.0
 10
2385.361007260152
 20
1346.163338692471
 30
0.0
 10
2385.934145973491
 20
1345.505353412809
 30
0.0
 10
2386.069339577202
 20
1345.350145957657
 30
0.0
  0
SPLINE
  5
294
330
1F
100
AcDbEntity
  8
0
  6
Continuous
 62
     7
370
    15
100
AcDbSpline
210
0.0
220
0.0
230
1.0
 70
     8
 71
     3
 72
    10
 73
     6
 74
     0
 42
0.00000001
 43
0.00000001
 12
1.0
 22
0.0
 32
0.0
 13
1.0
 23
0.0
 33
0.0
 40
0.0
 40
0.0
 40
0.0
 40
0.0
 40
0.2457603072279743
 40
0.7881389537986678
 40
1.0
 40
1.0
 40
1.0
 40
1.0
 10
2683.367851054932
 20
1376.250300109764
 30
0.0
 10
2683.376442095049
 20
1376.430853297699
 30
0.0
 10
2683.403993059021
 20
1377.009876827778
 30
0.0
 10
2683.215380245505
 20
1377.745199767383
 30
0.0
 10
2682.946227010611
 20
1378.226731121707
 30
0.0
 10
2682.870623609625
 20
1378.361990161352
 30
0.0
  0
LINE
  5
295
330
1F
100
AcDbEntity
  8
0
  6
Continuous
 62
     7
370
    15
100
AcDbLine
 10
2683.40920765
 20
1372.9740504656
 30
0.0
 11
2683.40920765
 21
1376.2401959974
 31
0.0
  0
SPLINE
  5
296
330
1F
100
AcDbEntity
  8
0
  6
Continuous
 62
     7
370
    15
100
AcDbSpline
210
0.0
220
0.0
230
1.0
 70
     8
 71
     3
 72
    11
 73
     7
 74
     0
 42
0.00000001
 43
0.00000001
 12
1.0
 22
0.0
 32
0.0
 13
1.0
 23
0.0
 33
0.0
 40
0.0
 40
0.0
 40
0.0
 40
0.0
 40
0.2896709003242396
 40
0.5583979012991073
 40
0.8251996800146044
 40
1.0
 40
1.0
 40
1.0
 40
1.0
 10
2681.542623828251
 20
1368.57238854183
 30
0.0
 10
2681.856124086361
 20
1368.924611317937
 30
0.0
 10
2682.460457783634
 20
1369.60359032048
 30
0.0
 10
2683.04988305788
 20
1370.820523985543
 30
0.0
 10
2683.380846650078
 20
1371.946595406351
 30
0.0
 10
2683.371977963933
 20
1372.669854987488
 30
0.0
 10
2683.368467452591
 20
1372.956144401843
 30
0.0
  0
LINE
  5
297
330
1F
100
AcDbEntity
  8
0
  6
Continuous
 62
     7
370
    15
100
AcDbLine
 10
2683.3078076009
 20
1867.0614797467
 30
0.0
 11
2683.0604740887
 21
1867.8029063994
 31
0.0
  0
LINE
  5
298
330
1F
100
AcDbEntity
  8
0
  6
Continuous
 62
     7
370
    15
100
AcDbLine
 10
2548.0809770478
 20
1287.2806620716
 30
0.0
 11
2548.0809770478
 21
1285.6476014731
 31
0.0
  0
ARC
  5
299
330
1F
100
AcDbEntity
  8
0
  6
Continuous
 62
     7
370
    15
100
AcDbCircle
 10
2551.6165072812
 20
1294.1042188013
 30
0.0
 40
7.685109008625646
100
AcDbArc
 50
242.6097010225
 51
297.3903482648
  0
LINE
  5
29A
330
1F
100
AcDbEntity
  8
0
  6
Continuous
 62
     7
370
    15
100
AcDbLine
 10
2555.1520433845
 20
1773.1224715464
 30
0.0
 11
2555.1520433845
 21
1287.280665113
 31
0.0
  0
LINE
  5
29B
330
1F
100
AcDbEntity
  8
0
  6
Continuous
 62
     7
370
    15
100
AcDbLine
 10
2630.204720031
 20
1816.4494595336
 30
0.0
 11
2555.1520433845
 21
1773.1224715464
 31
0.0
  0
LINE
  5
29C
330
1F
100
AcDbEntity
  8
0
  6
Continuous
 62
     7
370
    15
100
AcDbLine
 10
2555.1520433845
 20
1287.280665113
 30
0.0
 11
2630.204720031
 21
1330.6076531001
 31
0.0
  0
LINE
  5
29D
330
1F
100
AcDbEntity
  8
0
  6
Continuous
 62
     7
370
    15
100
AcDbLine
 10
2630.204720031
 20
1816.4494595336
 30
0.0
 11
2630.204720031
 21
1330.6076531001
 31
0.0
  0
LWPOLYLINE
  5
29E
330
1F
100
AcDbEntity
  8
0
  6
Continuous
 62
     7
370
    15
100
AcDbPolyline
 90
       27
 70
   128
 43
0.0
 10
2568.1451317953
 20
1765.9254817631
 10
2568.270982285
 20
1767.1950171232
 10
2568.6412212757
 20
1768.5360860679
 10
2569.2343380698
 20
1769.8707370853
 10
2570.015856545
 20
1771.1214183632
 10
2570.9403529354
 20
1772.2154278275
 10
2571.9541110827
 20
1773.0891958209
 10
2572.9982044241
 20
1773.6919380772
 10
2574.0119625713
 20
1773.9886303266
 10
2574.9364642301
 20
1773.9620247158
 10
2575.7179827054
 20
1773.613665463
 10
2576.311094231
 20
1772.9638094782
 10
2576.6813384901
 20
1772.0502124147
 10
2576.8071889798
 20
1770.9259809371
 10
2576.6813384901
 20
1769.6564212421
 10
2576.311094231
 20
1768.3153492561
 10
2575.7179827054
 20
1766.98070128
 10
2574.9364642301
 20
1765.7300200022
 10
2574.0119625713
 20
1764.6360074965
 10
2572.9982044241
 20
1763.7622395031
 10
2571.9541110827
 20
1763.1594972468
 10
2570.9403529354
 20
1762.8628049974
 10
2570.015856545
 20
1762.8894136496
 10
2569.2343380698
 20
1763.2377729024
 10
2568.6412212757
 20
1763.8876258458
 10
2568.270982285
 20
1764.8012259506
 10
2568.1451317953
 20
1765.9254817631
  0
LWPOLYLINE
  5
29F
330
1F
100
AcDbEntity
  8
0
  6
Continuous
 62
     7
370
    15
100
AcDbPolyline
 90
       27
 70
   128
 43
0.0
 10
2568.1451317953
 20
1319.2776407246
 10
2568.270982285
 20
1320.5472004195
 10
2568.6412212757
 20
1321.8882693642
 10
2569.2343380698
 20
1323.2229203816
 10
2570.015856545
 20
1324.4736016594
 10
2570.9403529354
 20
1325.5676111237
 10
2571.9541110827
 20
1326.4413791172
 10
2572.9982044241
 20
1327.0441213735
 10
2574.0119625713
 20
1327.3408136229
 10
2574.9364642301
 20
1327.3142080121
 10
2575.7179827054
 20
1326.9658487593
 10
2576.311094231
 20
1326.3159927745
 10
2576.6813384901
 20
1325.402395711
 10
2576.8071889798
 20
1324.2781398985
 10
2576.6813384901
 20
1323.0086045384
 10
2576.311094231
 20
1321.6675325524
 10
2575.7179827054
 20
1320.3328845763
 10
2574.9364642301
 20
1319.0822032985
 10
2574.0119625713
 20
1317.9881907928
 10
2572.9982044241
 20
1317.1144227994
 10
2571.9541110827
 20
1316.5116805431
 10
2570.9403529354
 20
1316.2149882937
 10
2570.015856545
 20
1316.2415969458
 10
2569.2343380698
 20
1316.5899561986
 10
2568.6412212757
 20
1317.239809142
 10
2568.270982285
 20
1318.1534092469
 10
2568.1451317953
 20
1319.2776407246
  0
LWPOLYLINE
  5
2A0
330
1F
100
AcDbEntity
  8
0
  6
Continuous
 62
     7
370
    15
100
AcDbPolyline
 90
       27
 70
   128
 43
0.0
 10
2610.5715364011
 20
1790.41772381
 10
2610.6973882079
 20
1791.6872599305
 10
2611.0676298328
 20
1793.0283303958
 10
2611.6607439926
 20
1794.3629798926
 10
2612.4422611508
 20
1795.61366041
 10
2613.3667614925
 20
1796.7076721554
 10
2614.3805183226
 20
1797.5814393885
 10
2615.4246129812
 20
1798.1841824051
 10
2616.4383698113
 20
1798.4808738942
 10
2617.3628708116
 20
1798.4542679032
 10
2618.1443873112
 20
1798.1059075099
 10
2618.737501471
 20
1797.4560530458
 10
2619.1077430959
 20
1796.5424544616
 10
2619.2335949027
 20
1795.4182237443
 10
2619.1077430959
 20
1794.148663289
 10
2618.737501471
 20
1792.8075928237
 10
2618.1443873112
 20
1791.4729433269
 10
2617.3628708116
 20
1790.2222631896
 10
2616.4383698113
 20
1789.1282510641
 10
2615.4246129812
 20
1788.254483831
 10
2614.3805183226
 20
1787.6517408144
 10
2613.3667614925
 20
1787.3550493253
 10
2612.4422611508
 20
1787.3816556965
 10
2611.6607439926
 20
1787.7300157096
 10
2611.0676298328
 20
1788.3798701737
 10
2610.6973882079
 20
1789.2934687579
 10
2610.5715364011
 20
1790.41772381
  0
LWPOLYLINE
  5
2A1
330
1F
100
AcDbEntity
  8
0
  6
Continuous
 62
     7
370
    15
100
AcDbPolyline
 90
       27
 70
   128
 43
0.0
 10
2610.5715364011
 20
1343.7698827715
 10
2610.6973882079
 20
1345.0394432268
 10
2611.0676298328
 20
1346.3805136921
 10
2611.6607439926
 20
1347.7151631889
 10
2612.4422611508
 20
1348.9658437063
 10
2613.3667614925
 20
1350.0598554517
 10
2614.3805183226
 20
1350.9336226848
 10
2615.4246129812
 20
1351.5363657014
 10
2616.4383698113
 20
1351.8330571905
 10
2617.3628708116
 20
1351.8064511995
 10
2618.1443873112
 20
1351.4580908062
 10
2618.737501471
 20
1350.8082363421
 10
2619.1077430959
 20
1349.8946377579
 10
2619.2335949027
 20
1348.7703827058
 10
2619.1077430959
 20
1347.5008465853
 10
2618.737501471
 20
1346.15977612
 10
2618.1443873112
 20
1344.8251266232
 10
2617.3628708116
 20
1343.5744464859
 10
2616.4383698113
 20
1342.4804343604
 10
2615.4246129812
 20
1341.6066671273
 10
2614.3805183226
 20
1341.0039241106
 10
2613.3667614925
 20
1340.7072326216
 10
2612.4422611508
 20
1340.7338389927
 10
2611.6607439926
 20
1341.0821990059
 10
2611.0676298328
 20
1341.73205347
 10
2610.6973882079
 20
1342.6456520541
 10
2610.5715364011
 20
1343.7698827715
  0
LWPOLYLINE
  5
2A2
330
1F
100
AcDbEntity
  8
0
  6
Continuous
 62
     7
370
    15
100
AcDbPolyline
 90
       27
 70
   128
 43
0.0
 10
2610.5715364011
 20
1570.7682390674
 10
2610.6973882079
 20
1572.0377843135
 10
2611.0676298328
 20
1573.3788532578
 10
2611.6607439926
 20
1574.7135088383
 10
2612.4422611508
 20
1575.964184793
 10
2613.3667614925
 20
1577.0581972988
 10
2614.3805183226
 20
1577.9319645319
 10
2615.4246129812
 20
1578.5347075486
 10
2616.4383698113
 20
1578.8313990376
 10
2617.3628708116
 20
1578.8047922862
 10
2618.1443873112
 20
1578.4564364557
 10
2618.737501471
 20
1577.8065759079
 10
2619.1077430959
 20
1576.8929788446
 10
2619.2335949027
 20
1575.7687390017
 10
2619.1077430959
 20
1574.4991937557
 10
2618.737501471
 20
1573.1581248113
 10
2618.1443873112
 20
1571.8234692308
 10
2617.3628708116
 20
1570.5727936563
 10
2616.4383698113
 20
1569.4787815308
 10
2615.4246129812
 20
1568.6050135372
 10
2614.3805183226
 20
1568.0022705206
 10
2613.3667614925
 20
1567.705579792
 10
2612.4422611508
 20
1567.7321861632
 10
2611.6607439926
 20
1568.0805416135
 10
2611.0676298328
 20
1568.7304021613
 10
2610.6973882079
 20
1569.6439992245
 10
2610.5715364011
 20
1570.7682390674
  0
LWPOLYLINE
  5
2A3
330
1F
100
AcDbEntity
  8
0
  6
Continuous
 62
     7
370
    15
100
AcDbPolyline
 90
        9
 70
   128
 43
0.0
 10
2570.3548383792
 20
1767.0986416665
 10
2571.11060513
 20
1767.6888298793
 10
2571.7752135158
 20
1768.5155884001
 10
2572.2685054991
 20
1769.4792280654
 10
2572.5309802666
 20
1770.4634888077
 10
2572.5309802666
 20
1771.3496896752
 10
2572.2685054991
 20
1772.0309278364
 10
2571.7752135158
 20
1772.425000366
 10
2571.2328836742
 20
1772.4988191968
  0
LWPOLYLINE
  5
2A4
330
1F
100
AcDbEntity
  8
0
  6
Continuous
 62
     7
370
    15
100
AcDbPolyline
 90
        5
 70
   128
 43
0.0
 10
2568.3272114493
 20
1767.4654936708
 10
2568.4411765276
 20
1767.26975808
 10
2568.934468511
 20
1766.8756612156
 10
2569.5990768968
 20
1766.8162432038
 10
2570.3548383792
 20
1767.0986416665
  0
LWPOLYLINE
  5
2A5
330
1F
100
AcDbEntity
  8
0
  6
Continuous
 62
     7
370
    15
100
AcDbPolyline
 90
        9
 70
   128
 43
0.0
 10
2612.7812469363
 20
1791.5908859944
 10
2613.5370110529
 20
1792.1810726865
 10
2614.2016194387
 20
1793.0078312073
 10
2614.6949101049
 20
1793.9714701122
 10
2614.9573848724
 20
1794.9557308546
 10
2614.9573848724
 20
1795.8419317221
 10
2614.6949101049
 20
1796.5231698833
 10
2614.2016194387
 20
1796.9172431732
 10
2613.6592922313
 20
1796.9910635247
  0
LWPOLYLINE
  5
2A6
330
1F
100
AcDbEntity
  8
0
  6
Continuous
 62
     7
370
    15
100
AcDbPolyline
 90
        5
 70
   128
 43
0.0
 10
2610.7536200063
 20
1791.9577379987
 10
2610.8675824505
 20
1791.7620008872
 10
2611.3608731168
 20
1791.3679032625
 10
2612.0254815026
 20
1791.3084852507
 10
2612.7812469363
 20
1791.5908859944
  0
ARC
  5
2A7
330
1F
100
AcDbEntity
  8
0
  6
Continuous
 62
     7
370
    15
100
AcDbCircle
 10
2585.0205766967
 20
1896.355547923
 30
0.0
 40
91.79645837691535
100
AcDbArc
 50
299.486665421
 51
314.4242569956
  0
ARC
  5
2A8
330
1F
100
AcDbEntity
  8
0
  6
Continuous
 62
     7
370
    15
100
AcDbCircle
 10
2585.0205766967
 20
1410.5137414895
 30
0.0
 40
91.79645837693629
100
AcDbArc
 50
299.486665421
 51
314.4242569956
  0
LINE
  5
2A9
330
1F
100
AcDbEntity
  8
0
  6
Continuous
 62
     7
370
    15
100
AcDbLine
 10
2649.2749544615
 20
1830.7966834681
 30
0.0
 11
2649.2749544615
 21
1344.9548770347
 31
0.0
  0
LINE
  5
2AA
330
1F
100
AcDbEntity
  8
0
  6
Continuous
 62
     7
370
    15
100
AcDbLine
 10
2682.337408024
 20
1863.8555551698
 30
0.0
 11
2649.2749544615
 21
1830.7966834681
 31
0.0
  0
LINE
  5
2AB
330
1F
100
AcDbEntity
  8
0
  6
Continuous
 62
     7
370
    15
100
AcDbLine
 10
2649.2749544615
 20
1344.9548770347
 30
0.0
 11
2682.337408024
 21
1378.0137487364
 31
0.0
  0
LINE
  5
2AC
330
1F
100
AcDbEntity
  8
0
  6
Continuous
 62
     7
370
    15
100
AcDbLine
 10
2682.337408024
 20
1378.0137487364
 30
0.0
 11
2682.337408024
 21
1863.8555551698
 31
0.0
  0
ARC
  5
2AD
330
1F
100
AcDbEntity
  8
0
  6
Continuous
 62
     7
370
    15
100
AcDbCircle
 10
2681.9770962123
 20
1866.7509163614
 30
0.0
 40
1.366477661638985
100
AcDbArc
 50
13.1242598699
 51
41.5920545898
  0
LWPOLYLINE
  5
2AE
330
1F
100
AcDbEntity
  8
0
  6
Continuous
 62
     7
370
    15
100
AcDbPolyline
 90
        9
 70
   128
 43
0.0
 10
2612.7812469363
 20
1571.9414111378
 10
2613.5370110529
 20
1572.5315902253
 10
2614.2016194387
 20
1573.3583571112
 10
2614.6949101049
 20
1574.3219906929
 10
2614.9573848724
 20
1575.3062628422
 10
2614.9573848724
 20
1576.1924553446
 10
2614.6949101049
 20
1576.873680578
 10
2614.2016194387
 20
1577.2677728795
 10
2613.6592922313
 20
1577.3415787821
  0
LWPOLYLINE
  5
2AF
330
1F
100
AcDbEntity
  8
0
  6
Continuous
 62
     7
370
    15
100
AcDbPolyline
 90
        5
 70
   128
 43
0.0
 10
2610.7536200063
 20
1572.3082608608
 10
2610.8675824505
 20
1572.1125214679
 10
2611.3608731168
 20
1571.7184291664
 10
2612.0254815026
 20
1571.6590027895
 10
2612.7812469363
 20
1571.9414111378
  0
LWPOLYLINE
  5
2B0
330
1F
100
AcDbEntity
  8
0
  6
Continuous
 62
     7
370
    15
100
AcDbPolyline
 90
        9
 70
   128
 43
0.0
 10
2570.3548383792
 20
1320.4508249627
 10
2571.11060513
 20
1321.0410131755
 10
2571.7752135158
 20
1321.8677716964
 10
2572.2685054991
 20
1322.8314113616
 10
2572.5309802666
 20
1323.815672104
 10
2572.5309802666
 20
1324.7018729715
 10
2572.2685054991
 20
1325.3830867979
 10
2571.7752135158
 20
1325.7771836623
 10
2571.2328836742
 20
1325.8509781583
  0
LWPOLYLINE
  5
2B1
330
1F
100
AcDbEntity
  8
0
  6
Continuous
 62
     7
370
    15
100
AcDbPolyline
 90
        5
 70
   128
 43
0.0
 10
2568.3272114493
 20
1320.8176769671
 10
2568.4411765276
 20
1320.6219413763
 10
2568.934468511
 20
1320.2278445119
 10
2569.5990768968
 20
1320.1684265
 10
2570.3548383792
 20
1320.4508249627
  0
ARC
  5
2B2
330
1F
100
AcDbEntity
  8
0
  6
Continuous
 62
     7
370
    15
100
AcDbCircle
 10
2549.082342933
 20
1287.1821456824
 30
0.0
 40
1.006200335416729
100
AcDbArc
 50
174.3812075857
 51
234.2938717456
  0
LWPOLYLINE
  5
2B3
330
1F
100
AcDbEntity
  8
0
  6
Continuous
 62
     7
370
    15
100
AcDbPolyline
 90
        9
 70
   128
 43
0.0
 10
2612.7812469363
 20
1344.9430692907
 10
2613.5370110529
 20
1345.5332559828
 10
2614.2016194387
 20
1346.3600145036
 10
2614.6949101049
 20
1347.3236534085
 10
2614.9573848724
 20
1348.3079141509
 10
2614.9573848724
 20
1349.1941150184
 10
2614.6949101049
 20
1349.8753288448
 10
2614.2016194387
 20
1350.2694264695
 10
2613.6592922313
 20
1350.3432224862
  0
LWPOLYLINE
  5
2B4
330
1F
100
AcDbEntity
  8
0
  6
Continuous
 62
     7
370
    15
100
AcDbPolyline
 90
        5
 70
   128
 43
0.0
 10
2610.7536200063
 20
1345.309921295
 10
2610.8675824505
 20
1345.1141841835
 10
2611.3608731168
 20
1344.7200865588
 10
2612.0254815026
 20
1344.6606685469
 10
2612.7812469363
 20
1344.9430692907
  0
LWPOLYLINE
  5
2B5
330
1F
100
AcDbEntity
  8
0
  6
Continuous
 62
     7
370
    15
100
AcDbPolyline
 90
       10
 70
   128
 43
0.0
 10
2393.1598672212
 20
1865.749286187
 10
2391.4606274615
 20
1864.6202157745
 10
2390.0512737257
 20
1863.3651723461
 10
2388.9594754201
 20
1862.0087787296
 10
2388.2066220703
 20
1860.5776285528
 10
2387.8074914149
 20
1859.099796584
 10
2387.7699069627
 20
1857.6042699989
 10
2388.094611552
 20
1856.1203766052
 10
2388.7752462769
 20
1854.6772252328
 10
2389.7984400499
 20
1853.303118752
  0
LINE
  5
2B6
330
1F
100
AcDbEntity
  8
0
  6
Continuous
 62
     7
370
    15
100
AcDbLine
 10
2478.8838677613
 20
1915.2366983295
 30
0.0
 11
2393.1598672212
 21
1865.749286187
 31
0.0
  0
ARC
  5
2B7
330
1F
100
AcDbEntity
  8
0
  6
Continuous
 62
     7
370
    15
100
AcDbCircle
 10
2543.094122687
 20
1802.4410571198
 30
0.0
 40
129.7914231124289
100
AcDbArc
 50
108.132436238
 51
119.6512083014
  0
LINE
  5
2B8
330
1F
100
AcDbEntity
  8
0
  6
Continuous
 62
     7
370
    15
100
AcDbLine
 10
2559.9669941888
 20
1944.8735488448
 30
0.0
 11
2502.7011517889
 21
1925.786999151
 31
0.0
  0
ARC
  5
2B9
330
1F
100
AcDbEntity
  8
0
  6
Continuous
 62
     7
370
    15
100
AcDbCircle
 10
2561.448925831
 20
1940.4106322477
 30
0.0
 40
4.702525485836247
100
AcDbArc
 50
62.9385550751
 51
108.3689801571
  0
LINE
  5
2BA
330
1F
100
AcDbEntity
  8
0
  6
Continuous
 62
     7
370
    15
100
AcDbLine
 10
2677.5305230729
 20
1878.8208874445
 30
0.0
 11
2563.5883199015
 21
1944.5983212233
 31
0.0
  0
LWPOLYLINE
  5
2BB
330
1F
100
AcDbEntity
  8
0
  6
Continuous
 62
     7
370
    15
100
AcDbPolyline
 90
        9
 70
   128
 43
0.0
 10
2678.0072829549
 20
1876.7303406091
 10
2678.2169266477
 20
1876.9862251987
 10
2678.3515594869
 20
1877.2584053802
 10
2678.4075989904
 20
1877.5396062273
 10
2678.3835384083
 20
1877.822327753
 10
2678.2800257483
 20
1878.0990061019
 10
2678.0998216291
 20
1878.3622568586
 10
2677.8477465966
 20
1878.605045364
 10
2677.5305230729
 20
1878.8208874445
  0
LINE
  5
2BC
330
1F
100
AcDbEntity
  8
0
  6
Continuous
 62
     7
370
    15
100
AcDbLine
 10
2644.9448267581
 20
1843.6714734694
 30
0.0
 11
2678.0072829549
 21
1876.7303406091
 31
0.0
  0
ARC
  5
2BD
330
1F
100
AcDbEntity
  8
0
  6
Continuous
 62
     7
370
    15
100
AcDbCircle
 10
2583.3677666729
 20
1906.4986229829
 30
0.0
 40
87.97150132134935
100
AcDbArc
 50
299.4866681342
 51
314.4242764142
  0
LINE
  5
2BE
330
1F
100
AcDbEntity
  8
0
  6
Continuous
 62
     7
370
    15
100
AcDbLine
 10
2540.9451889568
 20
1780.4346359224
 30
0.0
 11
2626.6691894968
 21
1829.922048065
 31
0.0
  0
ARC
  5
2BF
330
1F
100
AcDbEntity
  8
0
  6
Continuous
 62
     7
370
    15
100
AcDbCircle
 10
2527.7701650006
 20
1806.0754061077
 30
0.0
 40
28.82759705457946
100
AcDbArc
 50
253.0907337358
 51
297.1955064386
  0
LWPOLYLINE
  5
2C0
330
1F
100
AcDbEntity
  8
0
  6
Continuous
 62
     7
370
    15
100
AcDbPolyline
 90
       19
 70
   128
 43
0.0
 10
2389.7984400499
 20
1853.303118752
 10
2394.696704637
 20
1848.0429454573
 10
2399.9051805658
 20
1842.8830457102
 10
2405.4177433725
 20
1837.8295219938
 10
2411.2278602955
 20
1832.8883353683
 10
2417.3286745693
 20
1828.0653298016
 10
2423.7129817172
 20
1823.3661971937
 10
2430.3732440385
 20
1818.796493344
 10
2437.301589951
 20
1814.3616140003
 10
2444.4898344047
 20
1810.0667952392
 10
2451.9294848098
 20
1805.9171100446
 10
2459.6117535484
 20
1801.9174610843
 10
2467.5275704869
 20
1798.0725734869
 10
2475.6675889032
 20
1794.3869914202
 10
2484.0221848278
 20
1790.8650663062
 10
2492.5814985322
 20
1787.5109572008
 10
2501.3354068705
 20
1784.3286224304
 10
2510.2735838646
 20
1781.321833278
 10
2519.3854585581
 20
1778.4941253213
  0
LWPOLYLINE
  5
2C1
330
1F
100
AcDbEntity
  8
0
  6
Continuous
 62
     7
370
    15
100
AcDbPolyline
 90
       26
 70
   128
 43
0.0
 10
2513.9206474723
 20
1845.2499017497
 10
2512.7322555046
 20
1844.7177514854
 10
2511.3519524721
 20
1844.3729309578
 10
2509.866471979
 20
1844.2371094569
 10
2508.369148057
 20
1844.3188180847
 10
2506.9540630907
 20
1844.6129229827
 10
2505.7101370319
 20
1845.1009475376
 10
2504.7155242758
 20
1845.7522236655
 10
2504.0327220339
 20
1846.5258306534
 10
2503.7046361479
 20
1847.3731613283
 10
2503.7518776613
 20
1848.2409729779
 10
2504.1714791728
 20
1849.0747378691
 10
2504.9370773345
 20
1849.8220689087
 10
2506.0005634946
 20
1850.4360064009
 10
2507.2951190932
 20
1850.8779768121
 10
2508.7393987369
 20
1851.1202076086
 10
2510.2426554864
 20
1851.1474795538
 10
2511.7104343031
 20
1850.9580796033
 10
2513.0505061108
 20
1850.5639062593
 10
2514.1786743273
 20
1849.9897300576
 10
2515.0240466156
 20
1849.2716253084
 10
2515.5335064429
 20
1848.4547141458
 10
2515.6750452737
 20
1847.5903274446
 10
2515.4397700408
 20
1846.7327778094
 10
2514.8424586475
 20
1845.9359458298
 10
2513.9206474723
 20
1845.2499017497
  0
LWPOLYLINE
  5
2C2
330
1F
100
AcDbEntity
  8
0
  6
Continuous
 62
     7
370
    15
100
AcDbPolyline
 90
       26
 70
   128
 43
0.0
 10
2573.3176176083
 20
1879.5390427443
 10
2572.1292243235
 20
1879.0068917197
 10
2570.748922608
 20
1878.6620719524
 10
2569.2634407979
 20
1878.5262496911
 10
2567.7661168758
 20
1878.6079583189
 10
2566.3510332267
 20
1878.9020639773
 10
2565.1071058508
 20
1879.3900877719
 10
2564.1124930947
 20
1880.0413638998
 10
2563.4296921699
 20
1880.814971648
 10
2563.1016049668
 20
1881.6623015626
 10
2563.1488464802
 20
1882.5301132122
 10
2563.5684479917
 20
1883.3638781033
 10
2564.3340461534
 20
1884.111209143
 10
2565.3975336306
 20
1884.7251473955
 10
2566.6920892291
 20
1885.1671178067
 10
2568.1363688728
 20
1885.4093486032
 10
2569.6396269395
 20
1885.4366213088
 10
2571.107403122
 20
1885.2472198376
 10
2572.4474775638
 20
1884.8530480142
 10
2573.5756431461
 20
1884.2788702918
 10
2574.4210154345
 20
1883.5607655427
 10
2574.9304778959
 20
1882.7438559008
 10
2575.0720154097
 20
1881.8794684392
 10
2574.8367388597
 20
1881.0219180437
 10
2574.2394287835
 20
1880.2250868244
 10
2573.3176176083
 20
1879.5390427443
  0
LWPOLYLINE
  5
2C3
330
1F
100
AcDbEntity
  8
0
  6
Continuous
 62
     7
370
    15
100
AcDbPolyline
 90
       27
 70
   128
 43
0.0
 10
2554.1090616662
 20
1805.1581389705
 10
2552.9657019598
 20
1804.6410291681
 10
2551.6411950985
 20
1804.2968995988
 10
2550.2125223011
 20
1804.1457563105
 10
2548.7627075908
 20
1804.1963857841
 10
2547.3760025178
 20
1804.4458379032
 10
2546.1330076615
 20
1804.8796206005
 10
2545.1059627203
 20
1805.4725210248
 10
2544.3545423632
 20
1806.1900897229
 10
2543.9224370672
 20
1806.9906144805
 10
2543.8347347438
 20
1807.8275746975
 10
2544.0965456984
 20
1808.6523329894
 10
2544.6926601871
 20
1809.416954525
 10
2545.5884229635
 20
1810.0769989927
 10
2546.7317826699
 20
1810.5941148778
 10
2548.0562842629
 20
1810.9382414058
 10
2549.4849623286
 20
1811.0893816527
 10
2550.9347823073
 20
1811.0387552205
 10
2552.3214768436
 20
1810.7893031014
 10
2553.5644769682
 20
1810.3555173627
 10
2554.5915219094
 20
1809.7626169383
 10
2555.3429369981
 20
1809.0450512816
 10
2555.7750528308
 20
1808.2445265241
 10
2555.8627498858
 20
1807.4075632657
 10
2555.6009336629
 20
1806.5828080151
 10
2555.0048244426
 20
1805.8181895209
 10
2554.1090616662
 20
1805.1581389705
  0
LWPOLYLINE
  5
2C4
330
1F
100
AcDbEntity
  8
0
  6
Continuous
 62
     7
370
    15
100
AcDbPolyline
 90
       27
 70
   128
 43
0.0
 10
2444.5075097393
 20
1868.4297681234
 10
2443.3641553013
 20
1867.9126552796
 10
2442.03964844
 20
1867.5685257103
 10
2440.6109703742
 20
1867.4173854633
 10
2439.1611556639
 20
1867.468014937
 10
2437.7744558593
 20
1867.7174640147
 10
2436.5314557346
 20
1868.1512497534
 10
2435.5044107934
 20
1868.7441501777
 10
2434.7529957047
 20
1869.4617158344
 10
2434.3208851404
 20
1870.2622436334
 10
2434.233182817
 20
1871.0992038504
 10
2434.4949990399
 20
1871.9239591009
 10
2435.0911135286
 20
1872.6885806365
 10
2435.9868710367
 20
1873.3486281455
 10
2437.1302360114
 20
1873.8657409893
 10
2438.4547376044
 20
1874.2098675173
 10
2439.8834104018
 20
1874.3610108056
 10
2441.3332303804
 20
1874.3103843733
 10
2442.7199301851
 20
1874.0609292129
 10
2443.9629250413
 20
1873.6271465156
 10
2444.9899699826
 20
1873.0342460912
 10
2445.7413903396
 20
1872.3166773931
 10
2446.173500904
 20
1871.5161556769
 10
2446.261197959
 20
1870.6791924185
 10
2445.9993870044
 20
1869.8544341266
 10
2445.4032777841
 20
1869.0898156324
 10
2444.5075097393
 20
1868.4297681234
  0
LWPOLYLINE
  5
2C5
330
1F
100
AcDbEntity
  8
0
  6
Continuous
 62
     7
370
    15
100
AcDbPolyline
 90
       27
 70
   128
 43
0.0
 10
2609.970498963
 20
1900.6778905948
 10
2608.8271379395
 20
1900.16077547
 10
2607.5026360173
 20
1899.8166491322
 10
2606.073960915
 20
1899.6655071744
 10
2604.6241420888
 20
1899.7161329414
 10
2603.2374431074
 20
1899.9655876266
 10
2601.9944481276
 20
1900.3993703953
 10
2600.9673988235
 20
1900.9922733382
 10
2600.2159836114
 20
1901.7098390662
 10
2599.7838686018
 20
1902.5103633486
 10
2599.6961726993
 20
1903.3473259417
 10
2599.9579866173
 20
1904.1720825228
 10
2600.5540955083
 20
1904.9367012071
 10
2601.449862236
 20
1905.5967494765
 10
2602.5932179912
 20
1906.1138615599
 10
2603.9177251818
 20
1906.4579909391
 10
2605.3464002841
 20
1906.6091328969
 10
2606.7962138419
 20
1906.5585040885
 10
2608.1829180917
 20
1906.3090524447
 10
2609.4259078031
 20
1905.8752666347
 10
2610.4529571072
 20
1905.2823636917
 10
2611.2043775877
 20
1904.5648010051
 10
2611.6364873289
 20
1903.7642736814
 10
2611.7241884998
 20
1902.9273141296
 10
2611.4623745818
 20
1902.1025575485
 10
2610.8662604224
 20
1901.3379358228
 10
2609.970498963
 20
1900.6778905948
  0
ARC
  5
2C6
330
1F
100
AcDbEntity
  8
0
  6
Continuous
 62
     7
370
    15
100
AcDbCircle
 10
2536.8046152597
 20
1773.9615969596
 30
0.0
 40
7.68404736812223
100
AcDbArc
 50
2.6054098691
 51
57.3943930957
  0
ARC
  5
2C7
330
1F
100
AcDbEntity
  8
0
  6
Continuous
 62
     7
370
    15
100
AcDbCircle
 10
2527.7430243266
 20
1806.9021987431
 30
0.0
 40
36.63800818377825
100
AcDbArc
 50
253.1028843898
 51
297.1833637342
  0
ARC
  5
2C8
330
1F
100
AcDbEntity
  8
0
  6
Continuous
 62
     7
370
    15
100
AcDbCircle
 10
2528.2993675835
 20
1771.7028014595
 30
0.0
 40
11.20624173879005
100
AcDbArc
 50
142.6969703241
 51
179.2682438929
  0
LWPOLYLINE
  5
2C9
330
1F
100
AcDbEntity
  8
0
  6
Continuous
 62
     7
370
    15
100
AcDbPolyline
 90
       19
 70
   128
 43
0.0
 10
2517.0940397717
 20
1771.8459186834
 10
2507.8307999401
 20
1774.7205943196
 10
2498.7441554038
 20
1777.7773377643
 10
2489.8448219989
 20
1781.0125298025
 10
2481.143341706
 20
1784.4223596135
 10
2472.6499588435
 20
1788.0027867543
 10
2464.3747254347
 20
1791.749589821
 10
2456.327412963
 20
1795.6583443994
 10
2448.5175341038
 20
1799.7244348495
 10
2440.9543038705
 20
1803.9430524054
 10
2433.6466521266
 20
1808.3092122828
 10
2426.6032137076
 20
1812.8177593811
 10
2419.8323185431
 20
1817.4633739863
 10
2413.3419620218
 20
1822.2405645478
 10
2407.1398082849
 20
1827.1436901084
 10
2401.2331698105
 20
1832.1669477585
 10
2395.6290456096
 20
1837.3044235788
 10
2390.3340369324
 20
1842.5500318138
 10
2385.3544131226
 20
1847.8975863426
  0
ARC
  5
2CA
330
1F
100
AcDbEntity
  8
0
  6
Continuous
 62
     7
370
    15
100
AcDbCircle
 10
2391.499249292
 20
1847.3752993212
 30
0.0
 40
6.166992401597016
100
AcDbArc
 50
106.0092377867
 51
175.1417597475
  0
LINE
  5
2CB
330
1F
100
AcDbEntity
  8
0
  6
Continuous
 62
     7
370
    15
100
AcDbLine
 10
2544.480719491
 20
1774.3108930887
 30
0.0
 11
2544.480719491
 21
1770.2281929228
 31
0.0
  0
ARC
  5
2CC
330
1F
100
AcDbEntity
  8
0
  6
Continuous
 62
     7
370
    15
100
AcDbCircle
 10
2527.7430243266
 20
1802.8194985772
 30
0.0
 40
36.63800818378223
100
AcDbArc
 50
253.1028843898
 51
297.1833637342
  0
LINE
  5
2CD
330
1F
100
AcDbEntity
  8
0
  6
Continuous
 62
     7
370
    15
100
AcDbLine
 10
2517.0940397717
 20
1771.8459186834
 30
0.0
 11
2517.0940397717
 21
1767.7632185175
 31
0.0
  0
LWPOLYLINE
  5
2CE
330
1F
100
AcDbEntity
  8
0
  6
Continuous
 62
     7
370
    15
100
AcDbPolyline
 90
       19
 70
   128
 43
0.0
 10
2385.3544131226
 20
1843.8148861768
 10
2390.3340369324
 20
1838.4673316479
 10
2395.6290456096
 20
1833.221723413
 10
2401.2331698105
 20
1828.0842475926
 10
2407.1398082849
 20
1823.0609899426
 10
2413.3419620218
 20
1818.157864382
 10
2419.8323185431
 20
1813.3806738204
 10
2426.6032137076
 20
1808.7350592152
 10
2433.6466521266
 20
1804.226512117
 10
2440.9543038705
 20
1799.8603522396
 10
2448.5175341038
 20
1795.6417346836
 10
2456.327412963
 20
1791.5756442335
 10
2464.3747254347
 20
1787.6668896552
 10
2472.6499588435
 20
1783.9200865884
 10
2481.143341706
 20
1780.3396594476
 10
2489.8448219989
 20
1776.9298296366
 10
2498.7441554038
 20
1773.6946375984
 10
2507.8307999401
 20
1770.6378941537
 10
2517.0940397717
 20
1767.7632185175
  0
LINE
  5
2CF
330
1F
100
AcDbEntity
  8
0
  6
Continuous
 62
     7
370
    15
100
AcDbLine
 10
2385.3544131226
 20
1847.8975863426
 30
0.0
 11
2385.3544131226
 21
1843.8148861768
 31
0.0
  0
LINE
  5
2D0
330
1F
100
AcDbEntity
  8
0
  6
Continuous
 62
     7
370
    15
100
AcDbLine
 10
2630.204720031
 20
1823.7983052312
 30
0.0
 11
2544.480719491
 21
1774.3108930887
 31
0.0
  0
ARC
  5
2D1
330
1F
100
AcDbEntity
  8
0
  6
Continuous
 62
     7
370
    15
100
AcDbCircle
 10
2622.5286157997
 20
1823.4490091022
 30
0.0
 40
7.684047368121542
100
AcDbArc
 50
2.6054098691
 51
57.3943930957
  0
LINE
  5
2D2
330
1F
100
AcDbEntity
  8
0
  6
Continuous
 62
     7
370
    15
100
AcDbLine
 10
2630.204720031
 20
1823.7983052312
 30
0.0
 11
2630.204720031
 21
1819.7156050654
 31
0.0
  0
LINE
  5
2D3
330
1F
100
AcDbEntity
  8
0
  6
Continuous
 62
     7
370
    15
100
AcDbLine
 10
2544.480719491
 20
1770.2281929228
 30
0.0
 11
2630.204720031
 21
1819.7156050654
 31
0.0
  0
LWPOLYLINE
  5
2D4
330
1F
100
AcDbEntity
  8
0
  6
Continuous
 62
     7
370
    15
100
AcDbPolyline
 90
       13
 70
   128
 43
0.0
 10
2552.7409486217
 20
1804.5663531045
 10
2552.9618507915
 20
1805.0923680009
 10
2552.8672627267
 20
1805.7165153293
 10
2552.4085943794
 20
1806.2843458461
 10
2551.641174025
 20
1806.7273681867
 10
2550.6575561428
 20
1806.9921517875
 10
2549.5763841114
 20
1807.046756315
 10
2548.52806028
 20
1806.8846002722
 10
2547.639035731
 20
1806.5252335032
 10
2547.0165320468
 20
1806.0120135967
 10
2546.7356391066
 20
1805.4068291305
 10
2546.8302271713
 20
1804.7826818021
 10
2546.956536008
 20
1804.5663531045
  0
ARC
  5
2D5
330
1F
100
AcDbEntity
  8
0
  6
Continuous
 62
     7
370
    15
100
AcDbCircle
 10
2585.0205766967
 20
1903.7043936206
 30
0.0
 40
91.79645837691501
100
AcDbArc
 50
299.486665421
 51
314.4242569956
  0
ARC
  5
2D6
330
1F
100
AcDbEntity
  8
0
  6
Continuous
 62
     7
370
    15
100
AcDbCircle
 10
2642.9431134442
 20
1837.6434164294
 30
0.0
 40
6.351718497234811
100
AcDbArc
 50
4.534046766
 51
71.6304230772
  0
LINE
  5
2D7
330
1F
100
AcDbEntity
  8
0
  6
Continuous
 62
     7
370
    15
100
AcDbLine
 10
2649.2749544615
 20
1838.1455291658
 30
0.0
 11
2649.2749544615
 21
1834.0628289999
 31
0.0
  0
ARC
  5
2D8
330
1F
100
AcDbEntity
  8
0
  6
Continuous
 62
     7
370
    15
100
AcDbCircle
 10
2585.0205766967
 20
1899.6216934548
 30
0.0
 40
91.79645837691181
100
AcDbArc
 50
299.486665421
 51
314.4242569956
  0
LINE
  5
2D9
330
1F
100
AcDbEntity
  8
0
  6
Continuous
 62
     7
370
    15
100
AcDbLine
 10
2682.337408024
 20
1871.2044008675
 30
0.0
 11
2649.2749544615
 21
1838.1455291658
 31
0.0
  0
ARC
  5
2DA
330
1F
100
AcDbEntity
  8
0
  6
Continuous
 62
     7
370
    15
100
AcDbCircle
 10
2676.0055717837
 20
1870.702287852
 30
0.0
 40
6.351713757353639
100
AcDbArc
 50
4.5340526829
 51
71.6304292456
  0
LWPOLYLINE
  5
2DB
330
1F
100
AcDbEntity
  8
0
  6
Continuous
 62
     7
370
    15
100
AcDbPolyline
 90
       13
 70
   128
 43
0.0
 10
2512.4845755981
 20
1844.637678187
 10
2512.6665908793
 20
1845.0985448357
 10
2512.5757848356
 20
1845.6977260429
 10
2512.1354630033
 20
1846.2428424922
 10
2511.3987361736
 20
1846.6681458381
 10
2510.4544644736
 20
1846.9223382213
 10
2509.4165397186
 20
1846.9747594345
 10
2508.4101520015
 20
1846.8190875652
 10
2507.5566863863
 20
1846.4740987175
 10
2506.9590834225
 20
1845.9814035052
 10
2506.6894226173
 20
1845.4004282425
 10
2506.780228661
 20
1844.8012470353
 10
2506.8714378162
 20
1844.6376778544
  0
LINE
  5
2DC
330
1F
100
AcDbEntity
  8
0
  6
Continuous
 62
     7
370
    15
100
AcDbLine
 10
2682.337408024
 20
1871.2044008675
 30
0.0
 11
2682.337408024
 21
1867.1217007016
 31
0.0
  0
LINE
  5
2DD
330
1F
100
AcDbEntity
  8
0
  6
Continuous
 62
     7
370
    15
100
AcDbLine
 10
2649.2749544615
 20
1834.0628289999
 30
0.0
 11
2682.337408024
 21
1867.1217007016
 31
0.0
  0
LINE
  5
2DE
330
1F
100
AcDbEntity
  8
0
  6
Continuous
 62
     7
370
    15
100
AcDbLine
 10
2382.7423358444
 20
1850.1564109891
 30
0.0
 11
2382.7413506618
 21
1850.0320894301
 31
0.0
  0
LWPOLYLINE
  5
2DF
330
1F
100
AcDbEntity
  8
0
  6
Continuous
 62
     7
370
    15
100
AcDbPolyline
 90
       13
 70
   128
 43
0.0
 10
2443.1393966949
 20
1867.8379822574
 10
2443.3602988646
 20
1868.3639971538
 10
2443.2657107999
 20
1868.9881444822
 10
2442.8070424526
 20
1869.555974999
 10
2442.0396220982
 20
1869.9989973396
 10
2441.056004216
 20
1870.2637809404
 10
2439.9748321846
 20
1870.3183854679
 10
2438.9265083532
 20
1870.156229425
 10
2438.0374838041
 20
1869.7968626561
 10
2437.41498012
 20
1869.2836427495
 10
2437.1340871797
 20
1868.6784582834
 10
2437.2286752445
 20
1868.054310955
 10
2437.3549893495
 20
1867.8379792161
  0
LWPOLYLINE
  5
2E0
330
1F
100
AcDbEntity
  8
0
  6
Continuous
 62
     7
370
    15
100
AcDbPolyline
 90
       13
 70
   128
 43
0.0
 10
2571.881544417
 20
1878.9268184213
 10
2572.0635610152
 20
1879.3876858303
 10
2571.9727536545
 20
1879.9868662772
 10
2571.5324331392
 20
1880.5319834868
 10
2570.7957063096
 20
1880.9572868327
 10
2569.8514332925
 20
1881.2114784555
 10
2568.8135098545
 20
1881.2639004291
 10
2567.8071221374
 20
1881.1082285598
 10
2566.9536565223
 20
1880.7632397121
 10
2566.3560535584
 20
1880.2705444998
 10
2566.0863927533
 20
1879.6895692371
 10
2566.177198797
 20
1879.0903880299
 10
2566.2684079522
 20
1878.926818849
  0
LWPOLYLINE
  5
2E1
330
1F
100
AcDbEntity
  8
0
  6
Continuous
 62
     7
370
    15
100
AcDbPolyline
 90
       13
 70
   128
 43
0.0
 10
2608.6023824612
 20
1900.086100642
 10
2608.8232854542
 20
1900.6121150632
 10
2608.7286968132
 20
1901.2362627242
 10
2608.2700291244
 20
1901.8040928608
 10
2607.5026053127
 20
1902.2471171973
 10
2606.518988089
 20
1902.511900418
 10
2605.4378154814
 20
1902.5665052781
 10
2604.3894951074
 20
1902.4043472394
 10
2603.5004718754
 20
1902.0449857928
 10
2602.8779668742
 20
1901.5317605639
 10
2602.5970704766
 20
1900.9265780937
 10
2602.6916591175
 20
1900.3024304326
 10
2602.8179769268
 20
1900.0861026379
  0
ARC
  5
2E2
330
1F
100
AcDbEntity
  8
0
  6
Continuous
 62
     7
370
    15
100
AcDbCircle
 10
2395.5510140199
 20
1359.4293168375
 30
0.0
 40
6.811072766216738
100
AcDbArc
 50
181.1630266874
 51
224.4307706509
  0
LWPOLYLINE
  5
2E3
330
1F
100
AcDbEntity
  8
0
  6
Continuous
 62
     7
370
    15
100
AcDbPolyline
 90
       19
 70
   128
 43
0.0
 10
2390.6872485964
 20
1354.6612461448
 10
2395.5692392316
 20
1349.4185454474
 10
2400.7604138791
 20
1344.2757867895
 10
2406.2546586117
 20
1339.2390544063
 10
2412.0454670097
 20
1334.3142819857
 10
2418.1260218203
 20
1329.5073028509
 10
2424.4891212009
 20
1324.8237830503
 10
2431.1272564268
 20
1320.2692616558
 10
2438.0325756719
 20
1315.8491108448
 10
2445.1969426189
 20
1311.5685628921
 10
2452.6118725803
 20
1307.4326618887
 10
2460.2686279875
 20
1303.4463059405
 10
2468.1581452926
 20
1299.6141920434
 10
2476.271118603
 20
1295.9408529603
 10
2484.5979529253
 20
1292.4306233854
 10
2493.1288333121
 20
1289.0876608542
 10
2501.8536550565
 20
1285.9159008829
 10
2510.7621395958
 20
1282.9190995476
 10
2519.8437475838
 20
1280.1007863433
  0
ARC
  5
2E4
330
1F
100
AcDbEntity
  8
0
  6
Continuous
 62
     7
370
    15
100
AcDbCircle
 10
2527.7616041801
 20
1306.3425058263
 30
0.0
 40
27.41022244530386
100
AcDbArc
 50
253.2099766984
 51
297.0762616508
  0
LINE
  5
2E5
330
1F
100
AcDbEntity
  8
0
  6
Continuous
 62
     7
370
    15
100
AcDbLine
 10
2540.2380807426
 20
1281.9364035753
 30
0.0
 11
2546.6667658877
 21
1285.6476045145
 31
0.0
  0
LINE
  5
2E6
330
1F
100
AcDbEntity
  8
0
  6
Continuous
 62
     7
370
    15
100
AcDbLine
 10
2546.6667658877
 20
1285.6476045145
 30
0.0
 11
2547.3738741019
 21
1285.2393996313
 31
0.0
  0
LINE
  5
2E7
330
1F
100
AcDbEntity
  8
0
  6
Continuous
 62
     7
370
    15
100
AcDbLine
 10
2547.3738741019
 20
1285.2393996313
 30
0.0
 11
2548.9438863558
 21
1286.1457484133
 31
0.0
  0
ARC
  5
2E8
330
1F
100
AcDbEntity
  8
0
  6
Continuous
 62
     7
370
    15
100
AcDbCircle
 10
2527.7600552076
 20
1309.1245015217
 30
0.0
 40
31.94405947912987
100
AcDbArc
 50
253.0907093248
 51
297.1955262635
  0
LWPOLYLINE
  5
2E9
330
1F
100
AcDbEntity
  8
0
  6
Continuous
 62
     7
370
    15
100
AcDbPolyline
 90
       19
 70
   128
 43
0.0
 10
2388.0208334937
 20
1353.8675583582
 10
2392.9516354478
 20
1348.5724337864
 10
2398.194724476
 20
1343.378245778
 10
2403.743912894
 20
1338.2911454779
 10
2409.592633696
 20
1333.3171258806
 10
2415.733990604
 20
1328.4620780949
 10
2422.1607251403
 20
1323.7317251949
 10
2428.8652403355
 20
1319.131657195
 10
2435.8396191676
 20
1314.6673082404
 10
2443.0756179764
 20
1310.3439482426
 10
2450.5647086104
 20
1306.1666950457
 10
2458.2980257436
 20
1302.1404718465
 10
2466.266440632
 20
1298.2700376088
 10
2474.4605400403
 20
1294.5599627321
 10
2482.8706407302
 20
1291.0146328536
 10
2491.4868289726
 20
1287.6382382032
 10
2500.2988999618
 20
1284.4347599174
 10
2509.2964724022
 20
1281.4079890481
 10
2518.4688910436
 20
1278.5614976692
  0
ARC
  5
2EA
330
1F
100
AcDbEntity
  8
0
  6
Continuous
 62
     7
370
    15
100
AcDbCircle
 10
2527.7430243266
 20
1309.6288464461
 30
0.0
 40
36.63800818378034
100
AcDbArc
 50
253.1028843898
 51
297.1833637342
  0
ARC
  5
2EB
330
1F
100
AcDbEntity
  8
0
  6
Continuous
 62
     7
370
    15
100
AcDbCircle
 10
2523.8172502852
 20
1274.4866987438
 30
0.0
 40
6.72375883416158
100
AcDbArc
 50
142.69701049
 51
179.2682683327
  0
ARC
  5
2EC
330
1F
100
AcDbEntity
  8
0
  6
Continuous
 62
     7
370
    15
100
AcDbCircle
 10
2539.8750214077
 20
1276.8279476678
 30
0.0
 40
4.610464630791647
100
AcDbArc
 50
2.6055815489
 51
57.3941721209
  0
LWPOLYLINE
  5
2ED
330
1F
100
AcDbEntity
  8
0
  6
Continuous
 62
     7
370
    15
100
AcDbPolyline
 90
       19
 70
   128
 43
0.0
 10
2517.0940397717
 20
1274.5725663864
 10
2507.8307999401
 20
1277.4472420226
 10
2498.7441554038
 20
1280.5039854673
 10
2489.8448219989
 20
1283.7391775055
 10
2481.143341706
 20
1287.1490073165
 10
2472.6499588435
 20
1290.7294344573
 10
2464.3747254347
 20
1294.4762375241
 10
2456.327412963
 20
1298.3849921024
 10
2448.5175341038
 20
1302.4510825525
 10
2440.9543038705
 20
1306.6697001085
 10
2433.6466521266
 20
1311.0358599859
 10
2426.6032137076
 20
1315.5444070841
 10
2419.8323185431
 20
1320.1900216893
 10
2413.3419620218
 20
1324.9672122509
 10
2407.1398082849
 20
1329.8703378115
 10
2401.2331698105
 20
1334.8935954615
 10
2395.6290456096
 20
1340.0310712819
 10
2390.3340369324
 20
1345.2766795168
 10
2385.3544131226
 20
1350.6242340457
  0
ARC
  5
2EE
330
1F
100
AcDbEntity
  8
0
  6
Continuous
 62
     7
370
    15
100
AcDbCircle
 10
2389.0413302345
 20
1350.3108531747
 30
0.0
 40
3.700211529144446
100
AcDbArc
 50
106.0093466625
 51
175.1416463721
  0
ARC
  5
2EF
330
1F
100
AcDbEntity
  8
0
  6
Continuous
 62
     7
370
    15
100
AcDbCircle
 10
2527.7430243266
 20
1306.3627009143
 30
0.0
 40
36.638008183781
100
AcDbArc
 50
253.1028843898
 51
297.1833637342
  0
LINE
  5
2F0
330
1F
100
AcDbEntity
  8
0
  6
Continuous
 62
     7
370
    15
100
AcDbLine
 10
2517.0940397717
 20
1271.3064208546
 30
0.0
 11
2517.0940397717
 21
1274.5725663864
 31
0.0
  0
LINE
  5
2F1
330
1F
100
AcDbEntity
  8
0
  6
Continuous
 62
     7
370
    15
100
AcDbLine
 10
2544.480719491
 20
1273.7713952599
 30
0.0
 11
2544.480719491
 21
1277.0375407917
 31
0.0
  0
LWPOLYLINE
  5
2F2
330
1F
100
AcDbEntity
  8
0
  6
Continuous
 62
     7
370
    15
100
AcDbPolyline
 90
       19
 70
   128
 43
0.0
 10
2385.3544131226
 20
1347.3580885139
 10
2390.3340369324
 20
1342.010533985
 10
2395.6290456096
 20
1336.7649257501
 10
2401.2331698105
 20
1331.6274499297
 10
2407.1398082849
 20
1326.6041922797
 10
2413.3419620218
 20
1321.7010667191
 10
2419.8323185431
 20
1316.9238761575
 10
2426.6032137076
 20
1312.2782615523
 10
2433.6466521266
 20
1307.7697144541
 10
2440.9543038705
 20
1303.4035545767
 10
2448.5175341038
 20
1299.1849370207
 10
2456.327412963
 20
1295.1188465706
 10
2464.3747254347
 20
1291.2100919923
 10
2472.6499588435
 20
1287.4632889255
 10
2481.143341706
 20
1283.8828617847
 10
2489.8448219989
 20
1280.4730319737
 10
2498.7441554038
 20
1277.2378399355
 10
2507.8307999401
 20
1274.1810964908
 10
2517.0940397717
 20
1271.3064208546
  0
LINE
  5
2F3
330
1F
100
AcDbEntity
  8
0
  6
Continuous
 62
     7
370
    15
100
AcDbLine
 10
2385.3544131226
 20
1347.3580885139
 30
0.0
 11
2385.3544131226
 21
1350.6242340457
 31
0.0
  0
LINE
  5
2F4
330
1F
100
AcDbEntity
  8
0
  6
Continuous
 62
     7
370
    15
100
AcDbLine
 10
2630.204720031
 20
1326.5249529343
 30
0.0
 11
2544.480719491
 21
1277.0375407917
 31
0.0
  0
LINE
  5
2F5
330
1F
100
AcDbEntity
  8
0
  6
Continuous
 62
     7
370
    15
100
AcDbLine
 10
2544.480719491
 20
1273.7713952599
 30
0.0
 11
2630.204720031
 21
1323.2588074025
 31
0.0
  0
LINE
  5
2F6
330
1F
100
AcDbEntity
  8
0
  6
Continuous
 62
     7
370
    15
100
AcDbLine
 10
2630.204720031
 20
1323.2588074025
 30
0.0
 11
2630.204720031
 21
1326.5249529343
 31
0.0
  0
ARC
  5
2F7
330
1F
100
AcDbEntity
  8
0
  6
Continuous
 62
     7
370
    15
100
AcDbCircle
 10
2585.0205766967
 20
1406.4310413237
 30
0.0
 40
91.79645837691889
100
AcDbArc
 50
299.486665421
 51
314.4242569956
  0
ARC
  5
2F8
330
1F
100
AcDbEntity
  8
0
  6
Continuous
 62
     7
370
    15
100
AcDbCircle
 10
2585.0205766967
 20
1403.1648957918
 30
0.0
 40
91.79645837690505
100
AcDbArc
 50
299.486665421
 51
314.4242569956
  0
LINE
  5
2F9
330
1F
100
AcDbEntity
  8
0
  6
Continuous
 62
     7
370
    15
100
AcDbLine
 10
2649.2749544615
 20
1337.606031337
 30
0.0
 11
2649.2749544615
 21
1340.8721768688
 31
0.0
  0
LINE
  5
2FA
330
1F
100
AcDbEntity
  8
0
  6
Continuous
 62
     7
370
    15
100
AcDbLine
 10
2682.337408024
 20
1373.9310485705
 30
0.0
 11
2649.2749544615
 21
1340.8721768688
 31
0.0
  0
LINE
  5
2FB
330
1F
100
AcDbEntity
  8
0
  6
Continuous
 62
     7
370
    15
100
AcDbLine
 10
2649.2749544615
 20
1337.606031337
 30
0.0
 11
2682.337408024
 21
1370.6649030387
 31
0.0
  0
LINE
  5
2FC
330
1F
100
AcDbEntity
  8
0
  6
Continuous
 62
     7
370
    15
100
AcDbLine
 10
2682.337408024
 20
1370.6649030387
 30
0.0
 11
2682.337408024
 21
1373.9310485705
 31
0.0
  0
ARC
  5
2FD
330
1F
100
AcDbEntity
  8
0
  6
Continuous
 62
     7
370
    15
100
AcDbCircle
 10
2681.9782084946
 20
1866.7514981112
 30
0.0
 40
1.365258350990301
100
AcDbArc
 50
13.1512338935
 51
41.620368384
  0
LINE
  5
2FE
330
1F
100
AcDbEntity
  8
0
  6
Continuous
 62
     8
370
    15
100
AcDbLine
 10
2390.6872485964
 20
1837.6404269076
 30
0.0
 11
2390.6872485964
 21
1354.6612461448
 31
0.0
  0
LINE
  5
2FF
330
1F
100
AcDbEntity
  8
0
  6
Continuous
 62
     8
370
    15
100
AcDbLine
 10
2519.8437475838
 20
1766.2800192872
 30
0.0
 11
2519.8437475838
 21
1280.1007863433
 31
0.0
  0
LINE
  5
300
330
1F
100
AcDbEntity
  8
0
  6
Continuous
 62
     8
370
    15
100
AcDbLine
 10
2540.2380807426
 20
1767.5441821168
 30
0.0
 11
2540.2380807426
 21
1281.9364035753
 31
0.0
  0
LINE
  5
301
330
1F
100
AcDbEntity
  8
0
  6
Continuous
 62
     8
370
    15
100
AcDbLine
 10
2545.2266712944
 20
1769.9823086261
 30
0.0
 11
2545.2266712944
 21
1284.8162556015
 31
0.0
  0
LINE
  5
302
330
1F
100
AcDbEntity
  8
0
  6
Continuous
 62
     8
370
    15
100
AcDbLine
 10
2548.0809770478
 20
1287.2806620716
 30
0.0
 11
2548.0809770478
 21
1771.6300631229
 31
0.0
  0
ARC
  5
303
330
1F
100
AcDbEntity
  8
0
  6
Continuous
 62
     8
370
    15
100
AcDbCircle
 10
2552.0567188339
 20
1772.9767811854
 30
0.0
 40
3.098751321866322
100
AcDbArc
 50
2.6948019756
 51
45.3682900864
  0
ARC
  5
304
330
1F
100
AcDbEntity
  8
0
  6
Continuous
 62
     8
370
    15
100
AcDbCircle
 10
2551.5835229607
 20
1780.1537189816
 30
0.0
 40
7.88497168727665
100
AcDbArc
 50
255.5679319362
 51
296.9088455182
  0
ARC
  5
305
330
1F
100
AcDbEntity
  8
0
  6
Continuous
 62
     8
370
    15
100
AcDbCircle
 10
2627.1093954804
 20
1816.3037691726
 30
0.0
 40
3.098751321865824
100
AcDbArc
 50
2.6948019755
 51
45.3682900864
  0
ARC
  5
306
330
1F
100
AcDbEntity
  8
0
  6
Continuous
 62
     8
370
    15
100
AcDbCircle
 10
2646.8571940529
 20
1830.6444140941
 30
0.0
 40
2.422550588790131
100
AcDbArc
 50
3.6037007471
 51
53.4645595914
  0
ARC
  5
307
330
1F
100
AcDbEntity
  8
0
  6
Continuous
 62
     8
370
    15
100
AcDbCircle
 10
2679.9219844564
 20
1863.7038595799
 30
0.0
 40
2.420182340848994
100
AcDbArc
 50
3.5936210606
 51
53.1191726901
  0
ARC
  5
308
330
1F
100
AcDbEntity
  8
0
  6
Continuous
 62
     8
370
    15
100
AcDbCircle
 10
2680.0946065527
 20
1866.2977794358
 30
0.0
 40
3.31581329463492
100
AcDbArc
 50
312.5626193398
 51
358.3059213526
  0
ARC
  5
309
330
1F
100
AcDbEntity
  8
0
  6
Continuous
 62
     8
370
    15
100
AcDbCircle
 10
2680.1872820481
 20
1380.4150516116
 30
0.0
 40
3.223243275179336
100
AcDbArc
 50
311.8412572123
 51
358.36163844
  0
ARC
  5
30A
330
1F
100
AcDbEntity
  8
0
  6
Continuous
 62
     8
370
    15
100
AcDbCircle
 10
2554.2006228413
 20
1287.1595862658
 30
0.0
 40
0.9590939146530013
100
AcDbArc
 50
304.038187183
 51
7.2525403555
  0
ARC
  5
30B
330
1F
100
AcDbEntity
  8
0
  6
Continuous
 62
     8
370
    15
100
AcDbCircle
 10
2629.2260632872
 20
1330.4988678463
 30
0.0
 40
0.9846843421499929
100
AcDbArc
 50
304.9696051433
 51
6.3428297472
  0
ARC
  5
30C
330
1F
100
AcDbEntity
  8
0
  6
Continuous
 62
     8
370
    15
100
AcDbCircle
 10
2648.1351880559
 20
1344.9089168766
 30
0.0
 40
1.140692682267562
100
AcDbArc
 50
316.0871519351
 51
2.3091548974
  0
ARC
  5
30D
330
1F
100
AcDbEntity
  8
0
  6
Continuous
 62
     8
370
    15
100
AcDbCircle
 10
2681.1977126928
 20
1377.9677627832
 30
0.0
 40
1.140622705395937
100
AcDbArc
 50
316.0930962354
 51
2.3105934345
  0
LWPOLYLINE
  5
30E
330
1F
100
AcDbEntity
  8
0
  6
Continuous
 62
     8
370
    15
100
AcDbPolyline
 90
        6
 70
   128
 43
0.0
 10
2517.4397387599
 20
1766.8726170582
 10
2517.362488855
 20
1766.9090207862
 10
2517.2485079715
 20
1767.0288874393
 10
2517.1638086111
 20
1767.2163934574
 10
2517.1116466177
 20
1767.4643412295
 10
2517.0940397717
 20
1767.7632185175
  0
ARC
  5
30F
330
1F
100
AcDbEntity
  8
0
  6
Continuous
 62
     8
370
    15
100
AcDbCircle
 10
2543.479330627
 20
1770.1296747402
 30
0.0
 40
1.006223379361375
100
AcDbArc
 50
305.7075353833
 51
5.6187659298
  0
ARC
  5
310
330
1F
100
AcDbEntity
  8
0
  6
Continuous
 62
     8
370
    15
100
AcDbCircle
 10
2386.5382789535
 20
1843.7839143948
 30
0.0
 40
1.184270896668198
100
AcDbArc
 50
178.5013946152
 51
220.6984503437
  0
ARC
  5
311
330
1F
100
AcDbEntity
  8
0
  6
Continuous
 62
     8
370
    15
100
AcDbCircle
 10
2629.1974501865
 20
1819.6197654531
 30
0.0
 40
1.011819040539012
100
AcDbArc
 50
305.8772241553
 51
5.4352107352
  0
ARC
  5
312
330
1F
100
AcDbEntity
  8
0
  6
Continuous
 62
     8
370
    15
100
AcDbCircle
 10
2648.1351977021
 20
1834.0168707548
 30
0.0
 40
1.140682966842376
100
AcDbArc
 50
316.0726541555
 51
2.309078413
  0
ARC
  5
313
330
1F
100
AcDbEntity
  8
0
  6
Continuous
 62
     8
370
    15
100
AcDbCircle
 10
2681.1977126927
 20
1867.0757147484
 30
0.0
 40
1.140622705399504
100
AcDbArc
 50
316.0930962355
 51
2.3105934344
  0
ARC
  5
314
330
1F
100
AcDbEntity
  8
0
  6
Continuous
 62
     8
370
    15
100
AcDbCircle
 10
2392.0639773257
 20
1854.3755382865
 30
0.0
 40
9.326420169665774
100
AcDbArc
 50
181.6342377545
 51
223.9938180485
  0
ARC
  5
315
330
1F
100
AcDbEntity
  8
0
  6
Continuous
 62
     8
370
    15
100
AcDbCircle
 10
2391.7069110589
 20
1863.8219374101
 30
0.0
 40
2.413660066658602
100
AcDbArc
 50
52.9887258846
 51
115.716776899
  0
ARC
  5
316
330
1F
100
AcDbEntity
  8
0
  6
Continuous
 62
     8
370
    15
100
AcDbCircle
 10
2392.0629931417
 20
1850.2922028787
 30
0.0
 40
9.325270909174831
100
AcDbArc
 50
181.5983810228
 51
223.9952102669
  0
ARC
  5
317
330
1F
100
AcDbEntity
  8
0
  6
Continuous
 62
     8
370
    15
100
AcDbCircle
 10
2477.4192760939
 20
1913.1922698954
 30
0.0
 40
2.5148988795193
100
AcDbArc
 50
54.3828710171
 51
114.3071028749
  0
ARC
  5
318
330
1F
100
AcDbEntity
  8
0
  6
Continuous
 62
     8
370
    15
100
AcDbCircle
 10
2680.1883085332
 20
1873.6050099423
 30
0.0
 40
3.222041674416405
100
AcDbArc
 50
311.835888437
 51
358.4705933734
  0
ARC
  5
319
330
1F
100
AcDbEntity
  8
0
  6
Continuous
 62
     8
370
    15
100
AcDbCircle
 10
2678.995194284
 20
1876.7762469148
 30
0.0
 40
2.515117621929762
100
AcDbArc
 50
65.7085921932
 51
125.6157882567
  0
ARC
  5
31A
330
1F
100
AcDbEntity
  8
0
  6
Continuous
 62
     8
370
    15
100
AcDbCircle
 10
2680.1872820481
 20
1869.5230035769
 30
0.0
 40
3.223243275180093
100
AcDbArc
 50
311.8412572123
 51
358.36163844
  0
ARC
  5
31B
330
1F
100
AcDbEntity
  8
0
  6
Continuous
 62
     8
370
    15
100
AcDbCircle
 10
2565.0529171339
 20
1942.5538867807
 30
0.0
 40
2.514907004907379
100
AcDbArc
 50
65.6929881557
 51
125.6171523339
  0
ARC
  5
31C
330
1F
100
AcDbEntity
  8
0
  6
Continuous
 62
     8
370
    15
100
AcDbCircle
 10
2501.3851130342
 20
1924.8595253439
 30
0.0
 40
1.610020393221078
100
AcDbArc
 50
35.1741361687
 51
99.5041757157
  0
ARC
  5
31D
330
1F
100
AcDbEntity
  8
0
  6
Continuous
 62
     8
370
    15
100
AcDbCircle
 10
2558.6505218216
 20
1943.9454316699
 30
0.0
 40
1.610745474576714
100
AcDbArc
 50
35.1839574459
 51
99.451636563
  0
LINE
  5
31E
330
1F
100
AcDbEntity
  8
0
  6
Continuous
 62
     8
370
    15
100
AcDbLine
 10
2542.3594001168
 20
1280.7117919672
 30
0.0
 11
2550.916727651
 21
1285.651832001
 31
0.0
  0
ARC
  5
31F
330
1F
100
AcDbEntity
  8
0
  6
Continuous
 62
     8
370
    15
100
AcDbCircle
 10
2393.6835368483
 20
1359.3314756592
 30
0.0
 40
7.868964452475048
100
AcDbArc
 50
128.9072368949
 51
223.9764735691
  0
LWPOLYLINE
  5
320
330
1F
100
AcDbEntity
  8
0
  6
Continuous
 62
     8
370
    15
100
AcDbPolyline
 90
        6
 70
   128
 43
0.0
 10
2517.9583030473
 20
1269.0798959109
 10
2517.7651809191
 20
1269.1709219623
 10
2517.4802102712
 20
1269.470532322
 10
2517.2684592359
 20
1269.9393110573
 10
2517.138062155
 20
1270.5592124239
 10
2517.0940397717
 20
1271.3064208546
  0
ARC
  5
321
330
1F
100
AcDbEntity
  8
0
  6
Continuous
 62
     8
370
    15
100
AcDbCircle
 10
2542.0346114782
 20
1273.5000894908
 30
0.0
 40
2.461107724293567
100
AcDbArc
 50
304.7293262278
 51
6.3289926749
  0
ARC
  5
322
330
1F
100
AcDbEntity
  8
0
  6
Continuous
 62
     8
370
    15
100
AcDbCircle
 10
2388.3140882975
 20
1347.2806267329
 30
0.0
 40
2.960688681438977
100
AcDbArc
 50
178.5007746155
 51
220.6835374541
  0
ARC
  5
323
330
1F
100
AcDbEntity
  8
0
  6
Continuous
 62
     8
370
    15
100
AcDbCircle
 10
2625.5912119908
 20
1326.3090415013
 30
0.0
 40
4.618557586893286
100
AcDbArc
 50
2.6794781716
 51
40.3545616259
  0
ARC
  5
324
330
1F
100
AcDbEntity
  8
0
  6
Continuous
 62
     8
370
    15
100
AcDbCircle
 10
2627.7292288649
 20
1322.9998919974
 30
0.0
 40
2.48899451596623
100
AcDbArc
 50
305.3414440557
 51
5.970943492
  0
ARC
  5
325
330
1F
100
AcDbEntity
  8
0
  6
Continuous
 62
     8
370
    15
100
AcDbCircle
 10
2645.7135888472
 20
1340.6606833112
 30
0.0
 40
3.567639915070042
100
AcDbArc
 50
3.3985483981
 51
47.782726744
  0
ARC
  5
326
330
1F
100
AcDbEntity
  8
0
  6
Continuous
 62
     8
370
    15
100
AcDbCircle
 10
2646.4264374972
 20
1337.4907945673
 30
0.0
 40
2.850846963405357
100
AcDbArc
 50
316.0648794734
 51
2.3166378218
  0
ARC
  5
327
330
1F
100
AcDbEntity
  8
0
  6
Continuous
 62
     8
370
    15
100
AcDbCircle
 10
2678.8081151547
 20
1373.7339443332
 30
0.0
 40
3.534792531150492
100
AcDbArc
 50
3.1965388045
 51
47.6544164256
  0
ARC
  5
328
330
1F
100
AcDbEntity
  8
0
  6
Continuous
 62
     8
370
    15
100
AcDbCircle
 10
2679.4886714241
 20
1370.5497217143
 30
0.0
 40
2.85106417906171
100
AcDbArc
 50
316.0888412729
 51
2.3153460735
  0
ARC
  5
329
330
1F
100
AcDbEntity
  8
0
  6
Continuous
 62
     8
370
    15
100
AcDbCircle
 10
2392.0631584575
 20
1357.1016515682
 30
0.0
 40
9.325459866877509
100
AcDbArc
 50
181.601248911
 51
223.9949503876
  0
ARC
  5
32A
330
1F
100
AcDbEntity
  8
0
  6
Continuous
 62
     8
370
    15
100
AcDbCircle
 10
2392.0629931417
 20
1353.8354052158
 30
0.0
 40
9.325270909174838
100
AcDbArc
 50
181.5983810228
 51
223.9952102669
  0
ARC
  5
32B
330
1F
100
AcDbEntity
  8
0
  6
Continuous
 62
     8
370
    15
100
AcDbCircle
 10
2680.1890073668
 20
1376.3311869795
 30
0.0
 40
3.221224886015828
100
AcDbArc
 50
311.8322111968
 51
358.5437343213
  0
ARC
  5
32C
330
1F
100
AcDbEntity
  8
0
  6
Continuous
 62
     8
370
    15
100
AcDbCircle
 10
2680.1872820481
 20
1373.066205914
 30
0.0
 40
3.223243275180112
100
AcDbArc
 50
311.8412572123
 51
358.36163844
  0
ENDSEC
  0
SECTION
  2
OBJECTS
  0
DICTIONARY
  5
C
330
0
100
AcDbDictionary
281
     1
  3
ACAD_GROUP
350
D
  3
ACAD_LAYOUT
350
1A
  3
ACAD_MATERIAL
350
3B
  3
ACAD_MLEADERSTYLE
350
32E
  3
ACAD_MLINESTYLE
350
17
  3
ACAD_PLOTSETTINGS
350
19
  3
ACAD_PLOTSTYLENAME
350
E
  3
ACAD_TABLESTYLE
350
32D
  0
DICTIONARY
  5
D
102
{ACAD_REACTORS
330
C
102
}
330
C
100
AcDbDictionary
281
     1
  0
DICTIONARY
  5
1A
102
{ACAD_REACTORS
330
C
102
}
330
C
100
AcDbDictionary
281
     1
  3
Layout1
350
1E
  3
Layout2
350
26
  3
Model
350
22
  0
DICTIONARY
  5
3B
102
{ACAD_REACTORS
330
C
102
}
330
C
100
AcDbDictionary
281
     1
  3
ByBlock
350
3D
  3
ByLayer
350
3C
  3
Global
350
3E
  0
DICTIONARY
  5
32E
102
{ACAD_REACTORS
330
C
102
}
330
C
100
AcDbDictionary
281
     1
  0
DICTIONARY
  5
17
102
{ACAD_REACTORS
330
C
102
}
330
C
100
AcDbDictionary
281
     1
  3
Standard
350
18
  0
DICTIONARY
  5
19
102
{ACAD_REACTORS
330
C
102
}
330
C
100
AcDbDictionary
281
     1
  0
ACDBDICTIONARYWDFLT
  5
E
102
{ACAD_REACTORS
330
C
102
}
330
C
100
AcDbDictionary
281
     1
  3
Normal
350
F
100
AcDbDictionaryWithDefault
340
F
  0
DICTIONARY
  5
32D
102
{ACAD_REACTORS
330
C
102
}
330
C
100
AcDbDictionary
281
     1
  0
LAYOUT
  5
1E
102
{ACAD_REACTORS
330
1A
102
}
330
1A
100
AcDbPlotSettings
  1

  2
none_device
  4

  6

 40
0.0
 41
0.0
 42
0.0
 43
0.0
 44
0.0
 45
0.0
 46
0.0
 47
0.0
 48
0.0
 49
0.0
140
0.0
141
0.0
142
1.0
143
1.0
 70
   688
 72
     0
 73
     0
 74
     5
  7

 75
    16
 76
     0
 77
     2
 78
   300
147
1.0
148
0.0
149
0.0
100
AcDbLayout
  1
Layout1
 70
     1
 71
     1
 10
0.0
 20
0.0
 11
420.0
 21
297.0
 12
0.0
 22
0.0
 32
0.0
 14
1.0000000000E+20
 24
1.0000000000E+20
 34
1.0000000000E+20
 15
-1.0000000000E+20
 25
-1.0000000000E+20
 35
-1.0000000000E+20
146
0.0
 13
0.0
 23
0.0
 33
0.0
 16
1.0
 26
0.0
 36
0.0
 17
0.0
 27
1.0
 37
0.0
 76
     0
330
1B
  0
LAYOUT
  5
26
102
{ACAD_REACTORS
330
1A
102
}
330
1A
100
AcDbPlotSettings
  1

  2
none_device
  4

  6

 40
0.0
 41
0.0
 42
0.0
 43
0.0
 44
0.0
 45
0.0
 46
0.0
 47
0.0
 48
0.0
 49
0.0
140
0.0
141
0.0
142
1.0
143
1.0
 70
   688
 72
     0
 73
     0
 74
     5
  7

 75
    16
 76
     0
 77
     2
 78
   300
147
1.0
148
0.0
149
0.0
100
AcDbLayout
  1
Layout2
 70
     1
 71
     2
 10
0.0
 20
0.0
 11
0.0
 21
0.0
 12
0.0
 22
0.0
 32
0.0
 14
0.0
 24
0.0
 34
0.0
 15
0.0
 25
0.0
 35
0.0
146
0.0
 13
0.0
 23
0.0
 33
0.0
 16
1.0
 26
0.0
 36
0.0
 17
0.0
 27
1.0
 37
0.0
 76
     0
330
23
  0
LAYOUT
  5
22
102
{ACAD_REACTORS
330
1A
102
}
330
1A
100
AcDbPlotSettings
  1

  2
none_device
  4

  6

 40
0.0
 41
0.0
 42
0.0
 43
0.0
 44
0.0
 45
0.0
 46
0.0
 47
0.0
 48
0.0
 49
0.0
140
0.0
141
0.0
142
1.0
143
1.0
 70
  1712
 72
     0
 73
     0
 74
     0
  7

 75
     0
 76
     0
 77
     2
 78
   300
147
1.0
148
0.0
149
0.0
100
AcDbLayout
  1
Model
 70
     1
 71
     0
 10
0.0
 20
0.0
 11
2970.0
 21
2100.0
 12
0.0
 22
0.0
 32
0.0
 14
0.0
 24
0.0
 34
0.0
 15
2970.0
 25
2100.0
 35
0.0
146
0.0
 13
0.0
 23
0.0
 33
0.0
 16
1.0
 26
0.0
 36
0.0
 17
0.0
 27
1.0
 37
0.0
 76
     0
330
1F
331
29
  0
MATERIAL
  5
3D
102
{ACAD_REACTORS
330
3B
102
}
330
3B
100
AcDbMaterial
  1
ByBlock
  0
MATERIAL
  5
3C
102
{ACAD_REACTORS
330
3B
102
}
330
3B
100
AcDbMaterial
  1
ByLayer
  0
MATERIAL
  5
3E
102
{ACAD_REACTORS
330
3B
102
}
330
3B
100
AcDbMaterial
  1
Global
  0
MLINESTYLE
  5
18
102
{ACAD_REACTORS
330
17
102
}
330
17
100
AcDbMlineStyle
  2
Standard
 70
     0
  3

 62
   256
 51
90.0
 52
90.0
 71
     2
 49
0.5
 62
   256
  6
BYLAYER
 49
-0.5
 62
   256
  6
BYLAYER
  0
ACDBPLACEHOLDER
  5
F
102
{ACAD_REACTORS
330
E
102
}
330
E
  0
ENDSEC
  0
EOF
