  0
SECTION
  2
HEADER
  9
$ACADVER
  1
AC1018
  9
$ACADMAINTVER
 70
     0
  9
$DWGCODEPAGE
  3
ANSI_1252
  9
$INSBASE
 10
0.0
 20
0.0
 30
0.0
  9
$EXTMIN
 10
0.0
 20
0.0
 30
0.0
  9
$EXTMAX
 10
2970.0
 20
2100.0
 30
0.0
  9
$LIMMIN
 10
0.0
 20
0.0
  9
$LIMMAX
 10
2970.0
 20
2100.0
  9
$ORTHOMODE
 70
     0
  9
$REGENMODE
 70
     1
  9
$FILLMODE
 70
     1
  9
$QTEXTMODE
 70
     0
  9
$MIRRTEXT
 70
     1
  9
$LTSCALE
 40
10.0
  9
$ATTMODE
 70
     1
  9
$TEXTSIZE
 40
35.0
  9
$TRACEWID
 40
1.0
  9
$TEXTSTYLE
  7
Standard
  9
$CLAYER
  8
0
  9
$CELTYPE
  6
ByLayer
  9
$CECOLOR
 62
   256
  9
$CELTSCALE
 40
1.0
  9
$DISPSILH
 70
     0
  9
$DIMSCALE
 40
1.0
  9
$DIMASZ
 40
33.02
  9
$DIMEXO
 40
10.0
  9
$DIMDLI
 40
3.75
  9
$DIMRND
 40
0.0
  9
$DIMDLE
 40
0.0
  9
$DIMEXE
 40
10.0
  9
$DIMTP
 40
0.0
  9
$DIMTM
 40
0.0
  9
$DIMTXT
 40
35.0
  9
$DIMCEN
 40
2.5
  9
$DIMTSZ
 40
0.0
  9
$DIMTOL
 70
     0
  9
$DIMLIM
 70
     0
  9
$DIMTIH
 70
     1
  9
$DIMTOH
 70
     1
  9
$DIMSE1
 70
     0
  9
$DIMSE2
 70
     0
  9
$DIMTAD
 70
     1
  9
$DIMZIN
 70
     0
  9
$DIMBLK
  1

  9
$DIMASO
 70
     1
  9
$DIMSHO
 70
     1
  9
$DIMPOST
  1

  9
$DIMAPOST
  1

  9
$DIMALT
 70
     0
  9
$DIMALTD
 70
     3
  9
$DIMALTF
 40
0.0393700787
  9
$DIMLFAC
 40
1.0
  9
$DIMTOFL
 70
     1
  9
$DIMTVP
 40
0.0
  9
$DIMTIX
 70
     0
  9
$DIMSOXD
 70
     0
  9
$DIMSAH
 70
     0
  9
$DIMBLK1
  1

  9
$DIMBLK2
  1

  9
$DIMSTYLE
  2
ISO-25
  9
$DIMCLRD
 70
     0
  9
$DIMCLRE
 70
     0
  9
$DIMCLRT
 70
     0
  9
$DIMTFAC
 40
1.0
  9
$DIMGAP
 40
15.24
  9
$DIMJUST
 70
     0
  9
$DIMSD1
 70
     0
  9
$DIMSD2
 70
     0
  9
$DIMTOLJ
 70
     0
  9
$DIMTZIN
 70
     0
  9
$DIMALTZ
 70
     0
  9
$DIMALTTZ
 70
     0
  9
$DIMUPT
 70
     0
  9
$DIMDEC
 70
     2
  9
$DIMTDEC
 70
     2
  9
$DIMALTU
 70
     2
  9
$DIMALTTD
 70
     3
  9
$DIMTXSTY
  7
Standard
  9
$DIMAUNIT
 70
     0
  9
$DIMADEC
 70
     2
  9
$DIMALTRND
 40
0.0
  9
$DIMAZIN
 70
     0
  9
$DIMDSEP
 70
    44
  9
$DIMATFIT
 70
     3
  9
$DIMFRAC
 70
     0
  9
$DIMLDRBLK
  1

  9
$DIMLUNIT
 70
     2
  9
$DIMLWD
 70
    -2
  9
$DIMLWE
 70
    -2
  9
$DIMTMOVE
 70
     0
  9
$LUNITS
 70
     2
  9
$LUPREC
 70
     2
  9
$SKETCHINC
 40
1.0
  9
$FILLETRAD
 40
10.0
  9
$AUNITS
 70
     0
  9
$AUPREC
 70
     2
  9
$MENU
  1
.
  9
$ELEVATION
 40
0.0
  9
$PELEVATION
 40
0.0
  9
$THICKNESS
 40
0.0
  9
$LIMCHECK
 70
     0
  9
$CHAMFERA
 40
10.0
  9
$CHAMFERB
 40
10.0
  9
$CHAMFERC
 40
20.0
  9
$CHAMFERD
 40
0.0
  9
$SKPOLY
 70
     0
  9
$TDCREATE
 40
2456941.747737268
  9
$TDUCREATE
 40
2456941.706070602
  9
$TDUPDATE
 40
2456941.747737847
  9
$TDUUPDATE
 40
2456941.706071181
  9
$TDINDWG
 40
0.0000000116
  9
$TDUSRTIMER
 40
0.0000000116
  9
$USRTIMER
 70
     1
  9
$ANGBASE
 50
0.0
  9
$ANGDIR
 70
     0
  9
$PDMODE
 70
     0
  9
$PDSIZE
 40
-1.0
  9
$PLINEWID
 40
0.0
  9
$SPLFRAME
 70
     0
  9
$SPLINETYPE
 70
     6
  9
$SPLINESEGS
 70
     8
  9
$HANDSEED
  5
434
  9
$SURFTAB1
 70
     6
  9
$SURFTAB2
 70
     6
  9
$SURFTYPE
 70
     6
  9
$SURFU
 70
     6
  9
$SURFV
 70
     6
  9
$UCSBASE
  2

  9
$UCSNAME
  2

  9
$UCSORG
 10
0.0
 20
0.0
 30
0.0
  9
$UCSXDIR
 10
1.0
 20
0.0
 30
0.0
  9
$UCSYDIR
 10
0.0
 20
1.0
 30
0.0
  9
$UCSORTHOREF
  2

  9
$UCSORTHOVIEW
 70
     0
  9
$UCSORGTOP
 10
0.0
 20
0.0
 30
0.0
  9
$UCSORGBOTTOM
 10
0.0
 20
0.0
 30
0.0
  9
$UCSORGLEFT
 10
0.0
 20
0.0
 30
0.0
  9
$UCSORGRIGHT
 10
0.0
 20
0.0
 30
0.0
  9
$UCSORGFRONT
 10
0.0
 20
0.0
 30
0.0
  9
$UCSORGBACK
 10
0.0
 20
0.0
 30
0.0
  9
$PUCSBASE
  2

  9
$PUCSNAME
  2

  9
$PUCSORG
 10
0.0
 20
0.0
 30
0.0
  9
$PUCSXDIR
 10
1.0
 20
0.0
 30
0.0
  9
$PUCSYDIR
 10
0.0
 20
1.0
 30
0.0
  9
$PUCSORTHOREF
  2

  9
$PUCSORTHOVIEW
 70
     0
  9
$PUCSORGTOP
 10
0.0
 20
0.0
 30
0.0
  9
$PUCSORGBOTTOM
 10
0.0
 20
0.0
 30
0.0
  9
$PUCSORGLEFT
 10
0.0
 20
0.0
 30
0.0
  9
$PUCSORGRIGHT
 10
0.0
 20
0.0
 30
0.0
  9
$PUCSORGFRONT
 10
0.0
 20
0.0
 30
0.0
  9
$PUCSORGBACK
 10
0.0
 20
0.0
 30
0.0
  9
$USERI1
 70
     0
  9
$USERI2
 70
     0
  9
$USERI3
 70
     0
  9
$USERI4
 70
     0
  9
$USERI5
 70
     0
  9
$USERR1
 40
0.0
  9
$USERR2
 40
0.0
  9
$USERR3
 40
0.0
  9
$USERR4
 40
0.0
  9
$USERR5
 40
0.0
  9
$WORLDVIEW
 70
     1
  9
$SHADEDGE
 70
     3
  9
$SHADEDIF
 70
    70
  9
$TILEMODE
 70
     1
  9
$MAXACTVP
 70
    64
  9
$PINSBASE
 10
0.0
 20
0.0
 30
0.0
  9
$PLIMCHECK
 70
     0
  9
$PEXTMIN
 10
1.0000000000E+20
 20
1.0000000000E+20
 30
1.0000000000E+20
  9
$PEXTMAX
 10
-1.0000000000E+20
 20
-1.0000000000E+20
 30
-1.0000000000E+20
  9
$PLIMMIN
 10
0.0
 20
0.0
  9
$PLIMMAX
 10
420.0
 20
297.0
  9
$UNITMODE
 70
     0
  9
$VISRETAIN
 70
     1
  9
$PLINEGEN
 70
     0
  9
$PSLTSCALE
 70
     1
  9
$TREEDEPTH
 70
  3020
  9
$CMLSTYLE
  2
Standard
  9
$CMLJUST
 70
     0
  9
$CMLSCALE
 40
20.0
  9
$PROXYGRAPHICS
 70
     1
  9
$MEASUREMENT
 70
     1
  9
$CELWEIGHT
370
    -1
  9
$ENDCAPS
280
     0
  9
$JOINSTYLE
280
     0
  9
$LWDISPLAY
290
     1
  9
$INSUNITS
 70
     4
  9
$HYPERLINKBASE
  1

  9
$STYLESHEET
  1

  9
$XEDIT
290
     1
  9
$CEPSNTYPE
380
     0
  9
$PSTYLEMODE
290
     1
  9
$FINGERPRINTGUID
  2
{55E94B30-173D-48E4-B27F-A6A85B808063}
  9
$VERSIONGUID
  2
{FAEB1C32-E019-11D5-929B-00C0DF256EC4}
  9
$EXTNAMES
290
     1
  9
$PSVPSCALE
 40
0.0
  9
$OLESTARTUP
290
     0
  9
$SORTENTS
280
   127
  9
$INDEXCTL
280
     0
  9
$HIDETEXT
280
     1
  9
$XCLIPFRAME
290
     0
  9
$HALOGAP
280
     0
  9
$OBSCOLOR
 70
   257
  9
$OBSLTYPE
280
     0
  9
$INTERSECTIONDISPLAY
280
     0
  9
$INTERSECTIONCOLOR
 70
   257
  9
$DIMASSOC
280
     2
  9
$PROJECTNAME
  1

  0
ENDSEC
  0
SECTION
  2
CLASSES
  0
CLASS
  1
ACDBDICTIONARYWDFLT
  2
AcDbDictionaryWithDefault
  3
ObjectDBX Classes
 90
        0
 91
        4
280
     0
281
     0
  0
CLASS
  1
VISUALSTYLE
  2
AcDbVisualStyle
  3
ObjectDBX Classes
 90
     4095
 91
        4
280
     0
281
     0
  0
CLASS
  1
MATERIAL
  2
AcDbMaterial
  3
ObjectDBX Classes
 90
     1153
 91
        4
280
     0
281
     0
  0
ENDSEC
  0
SECTION
  2
TABLES
  0
TABLE
  2
VPORT
  5
8
330
0
100
AcDbSymbolTable
 70
     1
  0
VPORT
  5
29
330
8
100
AcDbSymbolTableRecord
100
AcDbViewportTableRecord
  2
*Active
 70
     0
 10
0.0
 20
0.0
 11
1.0
 21
1.0
 12
1485.0
 22
1050.0
 13
0.0
 23
0.0
 14
10.0
 24
10.0
 15
10.0
 25
10.0
 16
0.0
 26
0.0
 36
1.0
 17
0.0
 27
0.0
 37
0.0
 40
2100.0
 41
1.4142857143
 42
50.0
 43
0.0
 44
0.0
 50
0.0
 51
0.0
 71
     0
 72
  2000
 73
     1
 74
     3
 75
     0
 76
     0
 77
     0
 78
     0
281
     0
 65
     1
110
0.0
120
0.0
130
0.0
111
1.0
121
0.0
131
0.0
112
0.0
122
1.0
132
0.0
 79
     0
146
0.0
  0
ENDTAB
  0
TABLE
  2
LTYPE
  5
5
330
0
100
AcDbSymbolTable
 70
     6
  0
LTYPE
  5
14
330
5
100
AcDbSymbolTableRecord
100
AcDbLinetypeTableRecord
  2
ByBlock
 70
     0
  3

 72
    65
 73
     0
 40
0.0
  0
LTYPE
  5
15
330
5
100
AcDbSymbolTableRecord
100
AcDbLinetypeTableRecord
  2
ByLayer
 70
     0
  3

 72
    65
 73
     0
 40
0.0
  0
LTYPE
  5
16
330
5
100
AcDbSymbolTableRecord
100
AcDbLinetypeTableRecord
  2
Continuous
 70
     0
  3
Solid line
 72
    65
 73
     0
 40
0.0
  0
LTYPE
  5
3F
330
5
100
AcDbSymbolTableRecord
100
AcDbLinetypeTableRecord
  2
HIDDEN
 70
     0
  3
Hidden __ __ __ __ __ __ __ __ __ __ __ __ __ __
 72
    65
 73
     2
 40
1.905
 49
1.27
 74
     0
 49
-0.635
 74
     0
  0
LTYPE
  5
40
330
5
100
AcDbSymbolTableRecord
100
AcDbLinetypeTableRecord
  2
PHANTOM
 70
     0
  3
Phantom ______  __  __  ______  __  __  ______
 72
    65
 73
     6
 40
12.7
 49
6.35
 74
     0
 49
-1.27
 74
     0
 49
1.27
 74
     0
 49
-1.27
 74
     0
 49
1.27
 74
     0
 49
-1.27
 74
     0
  0
LTYPE
  5
41
330
5
100
AcDbSymbolTableRecord
100
AcDbLinetypeTableRecord
  2
CENTER
 70
     0
  3
Center ____ _ ____ _ ____ _ ____ _ ____ _ ____
 72
    65
 73
     4
 40
10.16
 49
6.35
 74
     0
 49
-1.27
 74
     0
 49
1.27
 74
     0
 49
-1.27
 74
     0
  0
LTYPE
  5
42
330
5
100
AcDbSymbolTableRecord
100
AcDbLinetypeTableRecord
  2
CENTERX2
 70
     0
  3
Center (2x) ________  __  ________  __  _____
 72
    65
 73
     4
 40
20.32
 49
12.7
 74
     0
 49
-2.54
 74
     0
 49
2.54
 74
     0
 49
-2.54
 74
     0
  0
LTYPE
  5
43
330
5
100
AcDbSymbolTableRecord
100
AcDbLinetypeTableRecord
  2
DOT2
 70
     0
  3
Dot (.5x) ........................................
 72
    65
 73
     2
 40
0.635
 49
0.0
 74
     0
 49
-0.635
 74
     0
  0
ENDTAB
  0
TABLE
  2
LAYER
  5
2
330
0
100
AcDbSymbolTable
 70
     3
  0
LAYER
  5
10
330
2
100
AcDbSymbolTableRecord
100
AcDbLayerTableRecord
  2
0
 70
     0
 62
     7
  6
Continuous
370
    -3
390
F
  0
LAYER
  5
44
330
2
100
AcDbSymbolTableRecord
100
AcDbLayerTableRecord
  2
MEDIÇÕES
 70
     0
 62
     7
  6
Continuous
370
    -3
390
F
  0
LAYER
  5
45
330
2
100
AcDbSymbolTableRecord
100
AcDbLayerTableRecord
  2
ACABAMENTO
 70
     0
 62
     7
  6
Continuous
370
    80
390
F
  0
ENDTAB
  0
TABLE
  2
STYLE
  5
3
330
0
100
AcDbSymbolTable
 70
     4
  0
STYLE
  5
11
330
3
100
AcDbSymbolTableRecord
100
AcDbTextStyleTableRecord
  2
Standard
 70
     0
 40
0.0
 41
1.0
 50
0.0
 71
     0
 42
35.0
  3
txt
  4

  0
STYLE
  5
111
330
3
100
AcDbSymbolTableRecord
100
AcDbTextStyleTableRecord
  2
SLDTEXTSTYLE0
 70
     0
 40
0.0
 41
0.6875
 50
0.0
 71
     0
 42
0.2
  3
TXT
  4

  0
STYLE
  5
113
330
3
100
AcDbSymbolTableRecord
100
AcDbTextStyleTableRecord
  2
SLDTEXTSTYLE1
 70
     0
 40
0.0
 41
0.75
 50
0.0
 71
     0
 42
0.2
  3
TXT
  4

  0
STYLE
  5
115
330
3
100
AcDbSymbolTableRecord
100
AcDbTextStyleTableRecord
  2
SLDTEXTSTYLE2
 70
     0
 40
0.0
 41
0.605
 50
0.0
 71
     0
 42
0.2
  3
TXT
  4

  0
ENDTAB
  0
TABLE
  2
VIEW
  5
6
330
0
100
AcDbSymbolTable
 70
     0
  0
ENDTAB
  0
TABLE
  2
UCS
  5
7
330
0
100
AcDbSymbolTable
 70
     0
  0
ENDTAB
  0
TABLE
  2
APPID
  5
9
330
0
100
AcDbSymbolTable
 70
     1
  0
APPID
  5
12
330
9
100
AcDbSymbolTableRecord
100
AcDbRegAppTableRecord
  2
ACAD
 70
     0
  0
ENDTAB
  0
TABLE
  2
DIMSTYLE
  5
A
330
0
100
AcDbSymbolTable
 70
     4
100
AcDbDimStyleTable
  0
DIMSTYLE
105
27
330
A
100
AcDbSymbolTableRecord
100
AcDbDimStyleTableRecord
  2
ISO-25
 70
     0
 41
2.5
 42
0.625
 43
3.75
 44
1.25
 73
     0
 74
     0
 77
     1
 78
     8
140
2.5
141
2.5
143
0.0393700787
147
0.625
171
     3
172
     1
178
     0
271
     2
272
     2
274
     3
278
    44
283
     0
284
     8
340
11
  0
DIMSTYLE
105
17E
102
{ACAD_REACTORS
330
17D
102
}
330
A
100
AcDbSymbolTableRecord
100
AcDbDimStyleTableRecord
  2
SLDDIMSTYLE0
 70
     0
 41
33.02
 44
0.0
 45
0.000000001
 73
     0
 74
     0
 77
     1
 78
    12
 79
     3
140
35.0
147
8.75
173
     1
178
     0
271
     0
272
     2
276
     2
284
    12
340
113
  0
DIMSTYLE
105
2AE
102
{ACAD_REACTORS
330
2AD
102
}
330
A
100
AcDbSymbolTableRecord
100
AcDbDimStyleTableRecord
  2
SLDDIMSTYLE1
 70
     0
 41
33.02
 44
0.0
 45
0.000000001
 73
     0
 74
     0
 77
     1
 78
    12
 79
     3
140
35.0
147
8.75
173
     1
178
     0
271
     0
272
     0
276
     2
284
    12
340
113
  0
DIMSTYLE
105
316
102
{ACAD_REACTORS
330
315
102
}
330
A
100
AcDbSymbolTableRecord
100
AcDbDimStyleTableRecord
  2
SLDDIMSTYLE2
 70
     0
 41
33.02
 44
0.0
 45
0.000000001
 73
     0
 74
     0
 77
     1
 78
    12
 79
     3
140
35.0
147
8.75
173
     1
178
     0
271
     2
272
     2
276
     2
284
    12
340
113
  0
ENDTAB
  0
TABLE
  2
BLOCK_RECORD
  5
1
330
0
100
AcDbSymbolTable
 70
     5
  0
BLOCK_RECORD
  5
1F
330
1
100
AcDbSymbolTableRecord
100
AcDbBlockTableRecord
  2
*Model_Space
340
22
  0
BLOCK_RECORD
  5
1B
330
1
100
AcDbSymbolTableRecord
100
AcDbBlockTableRecord
  2
*Paper_Space
340
1E
  0
BLOCK_RECORD
  5
23
330
1
100
AcDbSymbolTableRecord
100
AcDbBlockTableRecord
  2
*Paper_Space0
340
26
  0
BLOCK_RECORD
  5
46
330
1
100
AcDbSymbolTableRecord
100
AcDbBlockTableRecord
  2
Logo_Next.V3
340
0
102
{BLKREFS
331
110
102
}
  0
BLOCK_RECORD
  5
17F
330
1
100
AcDbSymbolTableRecord
100
AcDbBlockTableRecord
  2
_D
340
0
  0
BLOCK_RECORD
  5
2AF
330
1
100
AcDbSymbolTableRecord
100
AcDbBlockTableRecord
  2
_D_1
340
0
  0
BLOCK_RECORD
  5
317
330
1
100
AcDbSymbolTableRecord
100
AcDbBlockTableRecord
  2
_D_2
340
0
  0
ENDTAB
  0
ENDSEC
  0
SECTION
  2
BLOCKS
  0
BLOCK
  5
20
330
1F
100
AcDbEntity
  8
0
100
AcDbBlockBegin
  2
*Model_Space
 70
     0
 10
0.0
 20
0.0
 30
0.0
  3
*Model_Space
  1

  0
ENDBLK
  5
21
330
1F
100
AcDbEntity
  8
0
100
AcDbBlockEnd
  0
BLOCK
  5
1C
330
1B
100
AcDbEntity
 67
     1
  8
0
100
AcDbBlockBegin
  2
*Paper_Space
 70
     0
 10
0.0
 20
0.0
 30
0.0
  3
*Paper_Space
  1

  0
ENDBLK
  5
1D
330
1B
100
AcDbEntity
 67
     1
  8
0
100
AcDbBlockEnd
  0
BLOCK
  5
24
330
23
100
AcDbEntity
  8
0
100
AcDbBlockBegin
  2
*Paper_Space0
 70
     0
 10
0.0
 20
0.0
 30
0.0
  3
*Paper_Space0
  1

  0
ENDBLK
  5
25
330
23
100
AcDbEntity
  8
0
100
AcDbBlockEnd
  0
BLOCK
  5
47
330
46
100
AcDbEntity
  8
0
100
AcDbBlockBegin
  2
Logo_Next.V3
 70
     0
 10
0.0
 20
0.0
 30
0.0
  3
Logo_Next.V3
  1

  0
ARC
  5
49
330
46
100
AcDbEntity
  8
0
  6
Continuous
 62
     7
370
     0
100
AcDbCircle
 10
-1587.1800722805
 20
422.6709638731
 30
0.0
 40
35.62761368349867
100
AcDbArc
 50
33.8993301947
 51
90.0
  0
ARC
  5
4A
330
46
100
AcDbEntity
  8
0
  6
Continuous
 62
     7
370
     0
100
AcDbCircle
 10
-1131.6851711632
 20
422.6709638731
 30
0.0
 40
35.6276136834984
100
AcDbArc
 50
90.0
 51
180.0
  0
ARC
  5
4B
330
46
100
AcDbEntity
  8
0
  6
Continuous
 62
     7
370
     0
100
AcDbCircle
 10
-883.6670100843
 20
422.6709638731
 30
0.0
 40
35.62761368349868
100
AcDbArc
 50
0.0
 51
90.0
  0
ARC
  5
4C
330
46
100
AcDbEntity
  8
0
  6
Continuous
 62
     7
370
     0
100
AcDbCircle
 10
-883.6670100843
 20
-422.6709638716
 30
0.0
 40
35.62761368349857
100
AcDbArc
 50
270.0
 51
0.0
  0
ARC
  5
4D
330
46
100
AcDbEntity
  8
0
  6
Continuous
 62
     7
370
     0
100
AcDbCircle
 10
-1213.6286423958
 20
-422.6709638716
 30
0.0
 40
35.62761368349845
100
AcDbArc
 50
215.8239333713
 51
270.0
  0
ARC
  5
4E
330
46
100
AcDbEntity
  8
0
  6
Continuous
 62
     7
370
     0
100
AcDbCircle
 10
-1700.7949027296
 20
-422.6709638716
 30
0.0
 40
35.62761368349834
100
AcDbArc
 50
270.0
 51
0.0
  0
ARC
  5
4F
330
46
100
AcDbEntity
  8
0
  6
Continuous
 62
     7
370
     0
100
AcDbCircle
 10
-1775.2437764562
 20
-437.8290234302
 30
0.0
 40
20.46955412487762
100
AcDbArc
 50
180.0
 51
270.0
  0
ARC
  5
50
330
46
100
AcDbEntity
  8
0
  6
Continuous
 62
     7
370
     0
100
AcDbCircle
 10
-1775.2437764562
 20
437.8290234317
 30
0.0
 40
20.46955412487785
100
AcDbArc
 50
90.0
 51
180.0
  0
ARC
  5
51
330
46
100
AcDbEntity
  8
0
  6
Continuous
 62
     7
370
     0
100
AcDbCircle
 10
273.7504665449
 20
598.8614812289
 30
0.0
 40
35.62761368349846
100
AcDbArc
 50
38.8556584896
 51
105.8183764148
  0
ARC
  5
52
330
46
100
AcDbEntity
  8
0
  6
Continuous
 62
     7
370
     0
100
AcDbCircle
 10
604.2801104592
 20
693.8639124127
 30
0.0
 40
35.62761368349815
100
AcDbArc
 50
106.1668587455
 51
171.8012460536
  0
ARC
  5
53
330
46
100
AcDbEntity
  8
0
  6
Continuous
 62
     7
370
     0
100
AcDbCircle
 10
905.7459044969
 20
781.2587603884
 30
0.0
 40
35.62761368349857
100
AcDbArc
 50
347.4974268902
 51
106.1668587455
  0
ARC
  5
54
330
46
100
AcDbEntity
  8
0
  6
Continuous
 62
     7
370
     0
100
AcDbCircle
 10
978.923471261
 20
291.6141658775
 30
0.0
 40
35.62761368350721
100
AcDbArc
 50
180.0
 51
270.0
  0
ARC
  5
55
330
46
100
AcDbEntity
  8
0
  6
Continuous
 62
     7
370
     0
100
AcDbCircle
 10
978.923471261
 20
422.5043183007
 30
0.0
 40
35.62761368352926
100
AcDbArc
 50
90.0
 51
180.0
  0
ARC
  5
56
330
46
100
AcDbEntity
  8
0
  6
Continuous
 62
     7
370
     0
100
AcDbCircle
 10
1774.8734010732
 20
437.6623778593
 30
0.0
 40
20.46955412487767
100
AcDbArc
 50
0.0
 51
90.0
  0
ARC
  5
57
330
46
100
AcDbEntity
  8
0
  6
Continuous
 62
     7
370
     0
100
AcDbCircle
 10
1774.8734010732
 20
276.8465881355
 30
0.0
 40
20.46955412487756
100
AcDbArc
 50
270.0
 51
0.0
  0
ARC
  5
58
330
46
100
AcDbEntity
  8
0
  6
Continuous
 62
     7
370
     0
100
AcDbCircle
 10
1586.1281146836
 20
-423.5855275187
 30
0.0
 40
35.62761368349857
100
AcDbArc
 50
270.0
 51
0.0
  0
ARC
  5
59
330
46
100
AcDbEntity
  8
0
  6
Continuous
 62
     7
370
     0
100
AcDbCircle
 10
997.8332858737
 20
-580.3602954418
 30
0.0
 40
35.62761368353062
100
AcDbArc
 50
219.5992848036
 51
286.1919412867
  0
ARC
  5
5A
330
46
100
AcDbEntity
  8
0
  6
Continuous
 62
     7
370
     0
100
AcDbCircle
 10
598.2914840963
 20
-693.766887036
 30
0.0
 40
35.62761368349779
100
AcDbArc
 50
286.0985506514
 51
351.7882282766
  0
ARC
  5
5B
330
46
100
AcDbEntity
  8
0
  6
Continuous
 62
     7
370
     0
100
AcDbCircle
 10
278.1330387818
 20
-786.1671005913
 30
0.0
 40
35.62761368352944
100
AcDbArc
 50
166.6872067774
 51
286.0985506513
  0
ARC
  5
5C
330
46
100
AcDbEntity
  8
0
  6
Continuous
 62
     7
370
     0
100
AcDbCircle
 10
63.5912815337
 20
73.5879902946
 30
0.0
 40
35.62761368350465
100
AcDbArc
 50
0.0
 51
90.0
  0
ARC
  5
5D
330
46
100
AcDbEntity
  8
0
  6
Continuous
 62
     7
370
     0
100
AcDbCircle
 10
63.5912815337
 20
-51.5698150553
 30
0.0
 40
35.62761368350699
100
AcDbArc
 50
270.0
 51
0.0
  0
ARC
  5
5E
330
46
100
AcDbEntity
  8
0
  6
Continuous
 62
     7
370
     0
100
AcDbCircle
 10
219.1309173284
 20
-287.598587012
 30
0.0
 40
35.62761368349848
100
AcDbArc
 50
0.0
 51
90.0
  0
ARC
  5
5F
330
46
100
AcDbEntity
  8
0
  6
Continuous
 62
     7
370
     0
100
AcDbCircle
 10
219.1309173284
 20
-423.7014330253
 30
0.0
 40
35.6276136834864
100
AcDbArc
 50
270.0
 51
0.0
  0
ARC
  5
60
330
46
100
AcDbEntity
  8
0
  6
Continuous
 62
     7
370
     0
100
AcDbCircle
 10
-716.7680027826
 20
-423.7014330253
 30
0.0
 40
35.62761368349868
100
AcDbArc
 50
180.0
 51
270.0
  0
ARC
  5
61
330
46
100
AcDbEntity
  8
0
  6
Continuous
 62
     7
370
     0
100
AcDbCircle
 10
-716.7680027826
 20
423.1800330044
 30
0.0
 40
35.62761368351687
100
AcDbArc
 50
90.0
 51
180.0
  0
ARC
  5
62
330
46
100
AcDbEntity
  8
0
  6
Continuous
 62
     7
370
     0
100
AcDbCircle
 10
751.1693702587
 20
84.1572284311
 30
0.0
 40
75.62761368389583
100
AcDbArc
 50
167.4974268903
 51
224.796493861
  0
ARC
  5
63
330
46
100
AcDbEntity
  8
0
  6
Continuous
 62
     7
370
     0
100
AcDbCircle
 10
671.5727689264
 20
-185.9690548709
 30
0.0
 40
75.62761368389594
100
AcDbArc
 50
39.5992848035
 51
171.7882282765
  0
ARC
  5
64
330
46
100
AcDbEntity
  8
0
  6
Continuous
 62
     7
370
     0
100
AcDbCircle
 10
464.4284846463
 20
1.1328478898
 30
0.0
 40
75.62761368391911
100
AcDbArc
 50
346.6872067774
 51
44.28188045
  0
ARC
  5
65
330
46
100
AcDbEntity
  8
0
  6
Continuous
 62
     7
370
     0
100
AcDbCircle
 10
542.5238335845
 20
265.2390096659
 30
0.0
 40
75.62761368389592
100
AcDbArc
 50
218.8556584896
 51
351.8012460535
  0
ARC
  5
66
330
46
100
AcDbEntity
  8
0
  6
Continuous
 62
     7
370
     0
100
AcDbCircle
 10
-883.6670100843
 20
-422.6709638716
 30
0.0
 40
55.6276136836683
100
AcDbArc
 50
270.0
 51
0.0
  0
ARC
  5
67
330
46
100
AcDbEntity
  8
0
  6
Continuous
 62
     7
370
     0
100
AcDbCircle
 10
-1213.6286423958
 20
-422.6709638716
 30
0.0
 40
55.62761368366832
100
AcDbArc
 50
215.8239333713
 51
270.0
  0
ARC
  5
68
330
46
100
AcDbEntity
  8
0
  6
Continuous
 62
     7
370
     0
100
AcDbCircle
 10
-1700.7949027296
 20
-422.6709638716
 30
0.0
 40
55.62761368366824
100
AcDbArc
 50
270.0
 51
0.0
  0
ARC
  5
69
330
46
100
AcDbEntity
  8
0
  6
Continuous
 62
     7
370
     0
100
AcDbCircle
 10
-1775.2437764562
 20
-437.8290234302
 30
0.0
 40
40.46955412504764
100
AcDbArc
 50
180.0
 51
270.0
  0
ARC
  5
6A
330
46
100
AcDbEntity
  8
0
  6
Continuous
 62
     7
370
     0
100
AcDbCircle
 10
-1775.2437764562
 20
437.8290234317
 30
0.0
 40
40.46955412504764
100
AcDbArc
 50
90.0
 51
180.0
  0
ARC
  5
6B
330
46
100
AcDbEntity
  8
0
  6
Continuous
 62
     7
370
     0
100
AcDbCircle
 10
-1587.1800722805
 20
422.6709638731
 30
0.0
 40
55.62761368366836
100
AcDbArc
 50
33.8993301947
 51
90.0
  0
ARC
  5
6C
330
46
100
AcDbEntity
  8
0
  6
Continuous
 62
     7
370
     0
100
AcDbCircle
 10
-1131.6851711632
 20
422.6709638731
 30
0.0
 40
55.6276136836683
100
AcDbArc
 50
90.0
 51
180.0
  0
ARC
  5
6D
330
46
100
AcDbEntity
  8
0
  6
Continuous
 62
     7
370
     0
100
AcDbCircle
 10
-883.6670100843
 20
422.6709638731
 30
0.0
 40
55.62761368366819
100
AcDbArc
 50
0.0
 51
90.0
  0
ARC
  5
6E
330
46
100
AcDbEntity
  8
0
  6
Continuous
 62
     7
370
     0
100
AcDbCircle
 10
751.1693702587
 20
84.1572284311
 30
0.0
 40
55.62761368366852
100
AcDbArc
 50
167.4974268903
 51
224.796493861
  0
ARC
  5
6F
330
46
100
AcDbEntity
  8
0
  6
Continuous
 62
     7
370
     0
100
AcDbCircle
 10
542.5238335845
 20
265.2390096659
 30
0.0
 40
55.62761368366862
100
AcDbArc
 50
218.8556584895
 51
351.8012460535
  0
ARC
  5
70
330
46
100
AcDbEntity
  8
0
  6
Continuous
 62
     7
370
     0
100
AcDbCircle
 10
464.4284846463
 20
1.1328478898
 30
0.0
 40
55.62761368368375
100
AcDbArc
 50
346.6872067774
 51
44.2818804499
  0
ARC
  5
71
330
46
100
AcDbEntity
  8
0
  6
Continuous
 62
     7
370
     0
100
AcDbCircle
 10
671.5727689264
 20
-185.9690548709
 30
0.0
 40
55.62761368366825
100
AcDbArc
 50
39.5992848036
 51
171.7882282766
  0
ARC
  5
72
330
46
100
AcDbEntity
  8
0
  6
Continuous
 62
     7
370
     0
100
AcDbCircle
 10
219.1309173284
 20
-287.598587012
 30
0.0
 40
55.62761368366822
100
AcDbArc
 50
0.0
 51
90.0
  0
ARC
  5
73
330
46
100
AcDbEntity
  8
0
  6
Continuous
 62
     7
370
     0
100
AcDbCircle
 10
63.5912815337
 20
-51.5698150553
 30
0.0
 40
55.62761368370145
100
AcDbArc
 50
270.0
 51
0.0
  0
ARC
  5
74
330
46
100
AcDbEntity
  8
0
  6
Continuous
 62
     7
370
     0
100
AcDbCircle
 10
63.5912815337
 20
73.5879902946
 30
0.0
 40
55.62761368370145
100
AcDbArc
 50
0.0
 51
90.0
  0
ARC
  5
75
330
46
100
AcDbEntity
  8
0
  6
Continuous
 62
     7
370
     0
100
AcDbCircle
 10
278.1330387818
 20
-786.1671005913
 30
0.0
 40
55.6276136836991
100
AcDbArc
 50
166.6872067774
 51
286.0985506513
  0
ARC
  5
76
330
46
100
AcDbEntity
  8
0
  6
Continuous
 62
     7
370
     0
100
AcDbCircle
 10
598.2914840963
 20
-693.766887036
 30
0.0
 40
55.6276136836682
100
AcDbArc
 50
286.0985506514
 51
351.7882282766
  0
ARC
  5
77
330
46
100
AcDbEntity
  8
0
  6
Continuous
 62
     7
370
     0
100
AcDbCircle
 10
997.8332858737
 20
-580.3602954418
 30
0.0
 40
55.62761368370253
100
AcDbArc
 50
219.5992848036
 51
286.1919412867
  0
ARC
  5
78
330
46
100
AcDbEntity
  8
0
  6
Continuous
 62
     7
370
     0
100
AcDbCircle
 10
1586.1281146836
 20
-423.5855275187
 30
0.0
 40
55.62761368366864
100
AcDbArc
 50
270.0
 51
0.0
  0
ARC
  5
79
330
46
100
AcDbEntity
  8
0
  6
Continuous
 62
     7
370
     0
100
AcDbCircle
 10
1774.8734010732
 20
276.8465881355
 30
0.0
 40
40.46955412504767
100
AcDbArc
 50
270.0
 51
0.0
  0
ARC
  5
7A
330
46
100
AcDbEntity
  8
0
  6
Continuous
 62
     7
370
     0
100
AcDbCircle
 10
1774.8734010732
 20
437.6623778593
 30
0.0
 40
40.46955412504775
100
AcDbArc
 50
0.0
 51
90.0
  0
ARC
  5
7B
330
46
100
AcDbEntity
  8
0
  6
Continuous
 62
     7
370
     0
100
AcDbCircle
 10
978.923471261
 20
422.5043183007
 30
0.0
 40
55.62761368369934
100
AcDbArc
 50
90.0
 51
180.0
  0
ARC
  5
7C
330
46
100
AcDbEntity
  8
0
  6
Continuous
 62
     7
370
     0
100
AcDbCircle
 10
978.923471261
 20
291.6141658775
 30
0.0
 40
55.62761368369922
100
AcDbArc
 50
180.0
 51
270.0
  0
ARC
  5
7D
330
46
100
AcDbEntity
  8
0
  6
Continuous
 62
     7
370
     0
100
AcDbCircle
 10
905.7459044969
 20
781.2587603884
 30
0.0
 40
55.62761368366819
100
AcDbArc
 50
347.4974268903
 51
106.1668587455
  0
ARC
  5
7E
330
46
100
AcDbEntity
  8
0
  6
Continuous
 62
     7
370
     0
100
AcDbCircle
 10
604.2801104592
 20
693.8639124127
 30
0.0
 40
55.6276136836683
100
AcDbArc
 50
106.1668587455
 51
171.8012460535
  0
ARC
  5
7F
330
46
100
AcDbEntity
  8
0
  6
Continuous
 62
     7
370
     0
100
AcDbCircle
 10
273.7504665449
 20
598.8614812289
 30
0.0
 40
55.62761368366799
100
AcDbArc
 50
38.8556584895
 51
105.8183764146
  0
ARC
  5
80
330
46
100
AcDbEntity
  8
0
  6
Continuous
 62
     7
370
     0
100
AcDbCircle
 10
-716.7680027826
 20
423.1800330044
 30
0.0
 40
55.62761368369939
100
AcDbArc
 50
90.0
 51
180.0
  0
ARC
  5
81
330
46
100
AcDbEntity
  8
0
  6
Continuous
 62
     7
370
     0
100
AcDbCircle
 10
-716.7680027826
 20
-423.7014330253
 30
0.0
 40
55.62761368366853
100
AcDbArc
 50
180.0
 51
270.0
  0
ARC
  5
82
330
46
100
AcDbEntity
  8
0
  6
Continuous
 62
     7
370
     0
100
AcDbCircle
 10
219.1309173284
 20
-423.7014330253
 30
0.0
 40
55.62761368369945
100
AcDbArc
 50
270.0
 51
0.0
  0
LINE
  5
83
330
46
100
AcDbEntity
  8
0
  6
Continuous
 62
     7
370
     0
100
AcDbLine
 10
-1775.2437764562
 20
458.2985775566
 30
0.0
 11
-1587.1800722805
 21
458.2985775566
 31
0.0
  0
LINE
  5
84
330
46
100
AcDbEntity
  8
0
  6
Continuous
 62
     7
370
     0
100
AcDbLine
 10
-1557.608482937
 20
442.5417454501
 30
0.0
 11
-1167.3127848467
 21
-138.2941950862
 31
0.0
  0
LINE
  5
85
330
46
100
AcDbEntity
  8
0
  6
Continuous
 62
     7
370
     0
100
AcDbLine
 10
-1167.3127848467
 20
422.6709638731
 30
0.0
 11
-1167.3127848467
 21
-138.2941950862
 31
0.0
  0
LINE
  5
86
330
46
100
AcDbEntity
  8
0
  6
Continuous
 62
     7
370
     0
100
AcDbLine
 10
-1131.6851711632
 20
458.2985775566
 30
0.0
 11
-883.6670100843
 21
458.2985775566
 31
0.0
  0
LINE
  5
87
330
46
100
AcDbEntity
  8
0
  6
Continuous
 62
     7
370
     0
100
AcDbLine
 10
-848.0393964008
 20
422.6709638731
 30
0.0
 11
-848.0393964008
 21
-422.6709638716
 31
0.0
  0
LINE
  5
88
330
46
100
AcDbEntity
  8
0
  6
Continuous
 62
     7
370
     0
100
AcDbLine
 10
-883.6670100843
 20
-458.2985775551
 30
0.0
 11
-1213.6286423958
 21
-458.2985775551
 31
0.0
  0
LINE
  5
89
330
46
100
AcDbEntity
  8
0
  6
Continuous
 62
     7
370
     0
100
AcDbLine
 10
-1665.1672890461
 20
141.98084568
 30
0.0
 11
-1242.5162028167
 21
-443.5236785561
 31
0.0
  0
LINE
  5
8A
330
46
100
AcDbEntity
  8
0
  6
Continuous
 62
     7
370
     0
100
AcDbLine
 10
-1665.1672890461
 20
-422.6709638716
 30
0.0
 11
-1665.1672890461
 21
141.98084568
 31
0.0
  0
LINE
  5
8B
330
46
100
AcDbEntity
  8
0
  6
Continuous
 62
     7
370
     0
100
AcDbLine
 10
-1775.2437764562
 20
-458.2985775551
 30
0.0
 11
-1700.7949027296
 21
-458.2985775551
 31
0.0
  0
LINE
  5
8C
330
46
100
AcDbEntity
  8
0
  6
Continuous
 62
     7
370
     0
100
AcDbLine
 10
-1795.713330581
 20
-437.8290234302
 30
0.0
 11
-1795.713330581
 21
437.8290234317
 31
0.0
  0
LINE
  5
8D
330
46
100
AcDbEntity
  8
0
  6
Continuous
 62
     7
370
     0
100
AcDbLine
 10
-716.7680027826
 20
458.8076466879
 30
0.0
 11
-27.5292825723
 21
458.8076466879
 31
0.0
  0
LINE
  5
8E
330
46
100
AcDbEntity
  8
0
  6
Continuous
 62
     7
370
     0
100
AcDbLine
 10
-27.5292825723
 20
458.8076466879
 30
0.0
 11
-99.0477677645
 21
530.2709748739
 31
0.0
  0
LINE
  5
8F
330
46
100
AcDbEntity
  8
0
  6
Continuous
 62
     7
370
     0
100
AcDbLine
 10
-99.0477677645
 20
530.2709748739
 30
0.0
 11
264.0387765096
 21
633.1398991247
 31
0.0
  0
LINE
  5
90
330
46
100
AcDbEntity
  8
0
  6
Continuous
 62
     7
370
     0
100
AcDbLine
 10
301.4947189366
 20
621.2128417246
 30
0.0
 11
518.9301531369
 21
351.3150175393
 31
0.0
  0
LINE
  5
91
330
46
100
AcDbEntity
  8
0
  6
Continuous
 62
     7
370
     0
100
AcDbLine
 10
518.9301531369
 20
351.3150175393
 30
0.0
 11
569.0166347679
 21
698.9446740632
 31
0.0
  0
LINE
  5
92
330
46
100
AcDbEntity
  8
0
  6
Continuous
 62
     7
370
     0
100
AcDbLine
 10
594.3601143785
 20
728.0826285566
 30
0.0
 11
895.8259084162
 21
815.4774765323
 31
0.0
  0
LINE
  5
93
330
46
100
AcDbEntity
  8
0
  6
Continuous
 62
     7
370
     0
100
AcDbLine
 10
940.5286551389
 20
773.5459713626
 30
0.0
 11
790.1659240582
 21
95.4476383795
 31
0.0
  0
LINE
  5
94
330
46
100
AcDbEntity
  8
0
  6
Continuous
 62
     7
370
     0
100
AcDbLine
 10
790.1659240582
 20
95.4476383795
 30
0.0
 11
1290.4292889099
 21
-408.3821318021
 31
0.0
  0
LINE
  5
95
330
46
100
AcDbEntity
  8
0
  6
Continuous
 62
     7
370
     0
100
AcDbLine
 10
1290.4292889099
 20
-408.3821318021
 30
0.0
 11
1290.4292889099
 21
255.986552194
 31
0.0
  0
LINE
  5
96
330
46
100
AcDbEntity
  8
0
  6
Continuous
 62
     7
370
     0
100
AcDbLine
 10
1290.4292889099
 20
255.986552194
 30
0.0
 11
978.923471261
 21
255.986552194
 31
0.0
  0
LINE
  5
97
330
46
100
AcDbEntity
  8
0
  6
Continuous
 62
     7
370
     0
100
AcDbLine
 10
943.2958575775
 20
291.6141658775
 30
0.0
 11
943.2958575775
 21
422.5043183007
 31
0.0
  0
LINE
  5
98
330
46
100
AcDbEntity
  8
0
  6
Continuous
 62
     7
370
     0
100
AcDbLine
 10
978.923471261
 20
458.1319319842
 30
0.0
 11
1774.8734010732
 21
458.1319319842
 31
0.0
  0
LINE
  5
99
330
46
100
AcDbEntity
  8
0
  6
Continuous
 62
     7
370
     0
100
AcDbLine
 10
1795.342955198
 20
437.6623778593
 30
0.0
 11
1795.342955198
 21
276.8465881355
 31
0.0
  0
LINE
  5
9A
330
46
100
AcDbEntity
  8
0
  6
Continuous
 62
     7
370
     0
100
AcDbLine
 10
1774.8734010732
 20
256.3770340107
 30
0.0
 11
1621.7557283671
 21
256.3770340107
 31
0.0
  0
LINE
  5
9B
330
46
100
AcDbEntity
  8
0
  6
Continuous
 62
     7
370
     0
100
AcDbLine
 10
1621.7557283671
 20
256.3770340107
 30
0.0
 11
1621.7557283671
 21
-423.5855275187
 31
0.0
  0
LINE
  5
9C
330
46
100
AcDbEntity
  8
0
  6
Continuous
 62
     7
370
     0
100
AcDbLine
 10
1586.1281146836
 20
-459.2131412022
 30
0.0
 11
1339.6695201832
 21
-459.2131412022
 31
0.0
  0
LINE
  5
9D
330
46
100
AcDbEntity
  8
0
  6
Continuous
 62
     7
370
     0
100
AcDbLine
 10
1339.6695201832
 20
-459.2131412022
 30
0.0
 11
1385.4091054823
 21
-504.9174545962
 31
0.0
  0
LINE
  5
9E
330
46
100
AcDbEntity
  8
0
  6
Continuous
 62
     7
370
     0
100
AcDbLine
 10
1385.4091054823
 20
-504.9174545962
 30
0.0
 11
1007.7682610309
 21
-614.5746656012
 31
0.0
  0
LINE
  5
9F
330
46
100
AcDbEntity
  8
0
  6
Continuous
 62
     7
370
     0
100
AcDbLine
 10
970.3814542472
 20
-603.0698484346
 30
0.0
 11
695.3546099506
 21
-270.611053459
 31
0.0
  0
LINE
  5
A0
330
46
100
AcDbEntity
  8
0
  6
Continuous
 62
     7
370
     0
100
AcDbLine
 10
695.3546099506
 20
-270.611053459
 30
0.0
 11
633.5538045128
 21
-698.8556605253
 31
0.0
  0
LINE
  5
A1
330
46
100
AcDbEntity
  8
0
  6
Continuous
 62
     7
370
     0
100
AcDbLine
 10
608.1706775441
 20
-727.9974054896
 30
0.0
 11
288.0122322296
 21
-820.3976190449
 31
0.0
  0
LINE
  5
A2
330
46
100
AcDbEntity
  8
0
  6
Continuous
 62
     7
370
     0
100
AcDbLine
 10
243.4628287838
 20
-777.9632359241
 30
0.0
 11
425.2486584403
 21
-9.7212981838
 31
0.0
  0
LINE
  5
A3
330
46
100
AcDbEntity
  8
0
  6
Continuous
 62
     7
370
     0
100
AcDbLine
 10
425.2486584403
 20
-9.7212981838
 30
0.0
 11
159.2646243592
 21
263.0151701683
 31
0.0
  0
LINE
  5
A4
330
46
100
AcDbEntity
  8
0
  6
Continuous
 62
     7
370
     0
100
AcDbLine
 10
-419.9767730238
 20
263.0151701683
 30
0.0
 11
159.2646243592
 21
263.0151701683
 31
0.0
  0
LINE
  5
A5
330
46
100
AcDbEntity
  8
0
  6
Continuous
 62
     7
370
     0
100
AcDbLine
 10
-419.9767730238
 20
109.2156039781
 30
0.0
 11
-419.9767730238
 21
263.0151701683
 31
0.0
  0
LINE
  5
A6
330
46
100
AcDbEntity
  8
0
  6
Continuous
 62
     7
370
     0
100
AcDbLine
 10
63.5912815337
 20
109.2156039781
 30
0.0
 11
-419.9767730238
 21
109.2156039781
 31
0.0
  0
LINE
  5
A7
330
46
100
AcDbEntity
  8
0
  6
Continuous
 62
     7
370
     0
100
AcDbLine
 10
99.2188952172
 20
-51.5698150553
 30
0.0
 11
99.2188952172
 21
73.5879902946
 31
0.0
  0
LINE
  5
A8
330
46
100
AcDbEntity
  8
0
  6
Continuous
 62
     7
370
     0
100
AcDbLine
 10
-419.9767730238
 20
-87.1974287388
 30
0.0
 11
63.5912815337
 21
-87.1974287388
 31
0.0
  0
LINE
  5
A9
330
46
100
AcDbEntity
  8
0
  6
Continuous
 62
     7
370
     0
100
AcDbLine
 10
-419.9767730238
 20
-251.9709733285
 30
0.0
 11
-419.9767730238
 21
-87.1974287388
 31
0.0
  0
LINE
  5
AA
330
46
100
AcDbEntity
  8
0
  6
Continuous
 62
     7
370
     0
100
AcDbLine
 10
219.1309173284
 20
-251.9709733285
 30
0.0
 11
-419.9767730238
 21
-251.9709733285
 31
0.0
  0
LINE
  5
AB
330
46
100
AcDbEntity
  8
0
  6
Continuous
 62
     7
370
     0
100
AcDbLine
 10
254.7585310119
 20
-423.7014330253
 30
0.0
 11
254.7585310119
 21
-287.598587012
 31
0.0
  0
LINE
  5
AC
330
46
100
AcDbEntity
  8
0
  6
Continuous
 62
     7
370
     0
100
AcDbLine
 10
-716.7680027826
 20
-459.3290467088
 30
0.0
 11
219.1309173284
 21
-459.3290467088
 31
0.0
  0
LINE
  5
AD
330
46
100
AcDbEntity
  8
0
  6
Continuous
 62
     7
370
     0
100
AcDbLine
 10
-752.3956164661
 20
423.1800330044
 30
0.0
 11
-752.3956164661
 21
-423.7014330253
 31
0.0
  0
LINE
  5
AE
330
46
100
AcDbEntity
  8
0
  6
Continuous
 62
     7
370
     0
100
AcDbLine
 10
804.2998003838
 20
673.1081113756
 30
0.0
 11
677.3351681763
 21
100.5293557941
 31
0.0
  0
LINE
  5
AF
330
46
100
AcDbEntity
  8
0
  6
Continuous
 62
     7
370
     0
100
AcDbLine
 10
697.5029678163
 20
30.8707085559
 30
0.0
 11
1175.1030802751
 21
-450.1342416968
 31
0.0
  0
LINE
  5
B0
330
46
100
AcDbEntity
  8
0
  6
Continuous
 62
     7
370
     0
100
AcDbLine
 10
1175.1030802751
 20
-450.1342416968
 30
0.0
 11
1024.4448801484
 21
-493.8815171312
 31
0.0
  0
LINE
  5
B1
330
46
100
AcDbEntity
  8
0
  6
Continuous
 62
     7
370
     0
100
AcDbLine
 10
1024.4448801484
 20
-493.8815171312
 30
0.0
 11
729.8454485285
 21
-137.7629270083
 31
0.0
  0
LINE
  5
B2
330
46
100
AcDbEntity
  8
0
  6
Continuous
 62
     7
370
     0
100
AcDbLine
 10
596.7205722638
 20
-175.1669899616
 30
0.0
 11
530.4127137476
 21
-634.642924201
 31
0.0
  0
LINE
  5
B3
330
46
100
AcDbEntity
  8
0
  6
Continuous
 62
     7
370
     0
100
AcDbLine
 10
530.4127137476
 20
-634.642924201
 30
0.0
 11
381.5365450752
 21
-677.6097425998
 31
0.0
  0
LINE
  5
B4
330
46
100
AcDbEntity
  8
0
  6
Continuous
 62
     7
370
     0
100
AcDbLine
 10
381.5365450752
 20
-677.6097425998
 30
0.0
 11
538.0237939297
 21
-16.2816978407
 31
0.0
  0
LINE
  5
B5
330
46
100
AcDbEntity
  8
0
  6
Continuous
 62
     7
370
     0
100
AcDbLine
 10
518.5713194598
 20
53.9352094836
 30
0.0
 11
109.2473797304
 21
473.6504984412
 31
0.0
  0
LINE
  5
B6
330
46
100
AcDbEntity
  8
0
  6
Continuous
 62
     7
370
     0
100
AcDbLine
 10
109.2473797304
 20
473.6504984412
 30
0.0
 11
246.2385432832
 21
512.4625498621
 31
0.0
  0
LINE
  5
B7
330
46
100
AcDbEntity
  8
0
  6
Continuous
 62
     7
370
     0
100
AcDbLine
 10
246.2385432832
 20
512.4625498621
 30
0.0
 11
483.6304252168
 21
217.7932258452
 31
0.0
  0
LINE
  5
B8
330
46
100
AcDbEntity
  8
0
  6
Continuous
 62
     7
370
     0
100
AcDbLine
 10
617.3784825774
 20
254.453951684
 30
0.0
 11
672.1796823774
 21
634.8065267316
 31
0.0
  0
LINE
  5
B9
330
46
100
AcDbEntity
  8
0
  6
Continuous
 62
     7
370
     0
100
AcDbLine
 10
672.1796823774
 20
634.8065267316
 30
0.0
 11
804.2998003838
 21
673.1081113756
 31
0.0
  0
LINE
  5
BA
330
46
100
AcDbEntity
  8
0
  6
Continuous
 62
     7
370
     0
100
AcDbLine
 10
1955.2327139547
 20
478.1319319843
 30
0.0
 11
1986.2593721161
 21
478.1319319843
 31
0.0
  0
LINE
  5
BB
330
46
100
AcDbEntity
  8
0
  6
Continuous
 62
     7
370
     0
100
AcDbLine
 10
1986.2593721161
 20
478.1319319843
 30
0.0
 11
1986.2593721161
 21
236.3770340105
 31
0.0
  0
LINE
  5
BC
330
46
100
AcDbEntity
  8
0
  6
Continuous
 62
     7
370
     0
100
AcDbLine
 10
1955.2327139547
 20
236.3770340105
 30
0.0
 11
1986.2593721161
 21
236.3770340105
 31
0.0
  0
LINE
  5
BD
330
46
100
AcDbEntity
  8
0
  6
Continuous
 62
     7
370
     0
100
AcDbLine
 10
1955.2327139547
 20
478.1319319843
 30
0.0
 11
1955.2327139547
 21
236.3770340105
 31
0.0
  0
LINE
  5
BE
330
46
100
AcDbEntity
  8
0
  6
Continuous
 62
     7
370
     0
100
AcDbLine
 10
-1986.2593721163
 20
478.2985775568
 30
0.0
 11
-1986.2593721163
 21
-478.2985775552
 31
0.0
  0
LINE
  5
BF
330
46
100
AcDbEntity
  8
0
  6
Continuous
 62
     7
370
     0
100
AcDbLine
 10
-1955.2327139549
 20
-478.2985775552
 30
0.0
 11
-1986.2593721163
 21
-478.2985775552
 31
0.0
  0
LINE
  5
C0
330
46
100
AcDbEntity
  8
0
  6
Continuous
 62
     7
370
     0
100
AcDbLine
 10
-1955.2327139549
 20
478.2985775568
 30
0.0
 11
-1955.2327139549
 21
-478.2985775552
 31
0.0
  0
LINE
  5
C1
330
46
100
AcDbEntity
  8
0
  6
Continuous
 62
     7
370
     0
100
AcDbLine
 10
-1955.2327139549
 20
478.2985775568
 30
0.0
 11
-1986.2593721163
 21
478.2985775568
 31
0.0
  0
LINE
  5
C2
330
46
100
AcDbEntity
  8
0
  6
Continuous
 62
     7
370
     0
100
AcDbLine
 10
1875.6425908404
 20
478.1319319843
 30
0.0
 11
1875.6425908404
 21
236.3770340105
 31
0.0
  0
LINE
  5
C3
330
46
100
AcDbEntity
  8
0
  6
Continuous
 62
     7
370
     0
100
AcDbLine
 10
1844.2112371367
 20
236.3770340105
 30
0.0
 11
1875.6425908404
 21
236.3770340105
 31
0.0
  0
LINE
  5
C4
330
46
100
AcDbEntity
  8
0
  6
Continuous
 62
     7
370
     0
100
AcDbLine
 10
1844.2112371367
 20
478.1319319843
 30
0.0
 11
1844.2112371367
 21
236.3770340105
 31
0.0
  0
LINE
  5
C5
330
46
100
AcDbEntity
  8
0
  6
Continuous
 62
     7
370
     0
100
AcDbLine
 10
1844.2112371367
 20
478.1319319843
 30
0.0
 11
1875.6425908404
 21
478.1319319843
 31
0.0
  0
LINE
  5
C6
330
46
100
AcDbEntity
  8
0
  6
Continuous
 62
     7
370
     0
100
AcDbLine
 10
1899.9243233154
 20
478.1319319843
 30
0.0
 11
1930.9509814768
 21
478.1319319843
 31
0.0
  0
LINE
  5
C7
330
46
100
AcDbEntity
  8
0
  6
Continuous
 62
     7
370
     0
100
AcDbLine
 10
1930.9509814768
 20
478.1319319843
 30
0.0
 11
1930.9509814768
 21
236.3770340105
 31
0.0
  0
LINE
  5
C8
330
46
100
AcDbEntity
  8
0
  6
Continuous
 62
     7
370
     0
100
AcDbLine
 10
1899.9243233154
 20
236.3770340105
 30
0.0
 11
1930.9509814768
 21
236.3770340105
 31
0.0
  0
LINE
  5
C9
330
46
100
AcDbEntity
  8
0
  6
Continuous
 62
     7
370
     0
100
AcDbLine
 10
1899.9243233154
 20
478.1319319843
 30
0.0
 11
1899.9243233154
 21
236.3770340105
 31
0.0
  0
LINE
  5
CA
330
46
100
AcDbEntity
  8
0
  6
Continuous
 62
     7
370
     0
100
AcDbLine
 10
-828.0393964006
 20
422.6709638731
 30
0.0
 11
-828.0393964006
 21
-422.6709638716
 31
0.0
  0
LINE
  5
CB
330
46
100
AcDbEntity
  8
0
  6
Continuous
 62
     7
370
     0
100
AcDbLine
 10
-883.6670100843
 20
-478.2985775552
 30
0.0
 11
-1213.6286423958
 21
-478.2985775552
 31
0.0
  0
LINE
  5
CC
330
46
100
AcDbEntity
  8
0
  6
Continuous
 62
     7
370
     0
100
AcDbLine
 10
-1645.1672890459
 20
80.1038430154
 30
0.0
 11
-1258.7325908564
 21
-455.2296069238
 31
0.0
  0
LINE
  5
CD
330
46
100
AcDbEntity
  8
0
  6
Continuous
 62
     7
370
     0
100
AcDbLine
 10
-1645.1672890459
 20
-422.6709638716
 30
0.0
 11
-1645.1672890459
 21
80.1038430154
 31
0.0
  0
LINE
  5
CE
330
46
100
AcDbEntity
  8
0
  6
Continuous
 62
     7
370
     0
100
AcDbLine
 10
-1775.2437764562
 20
-478.2985775552
 30
0.0
 11
-1700.7949027296
 21
-478.2985775552
 31
0.0
  0
LINE
  5
CF
330
46
100
AcDbEntity
  8
0
  6
Continuous
 62
     7
370
     0
100
AcDbLine
 10
-1815.7133305812
 20
-437.8290234302
 30
0.0
 11
-1815.7133305812
 21
437.8290234317
 31
0.0
  0
LINE
  5
D0
330
46
100
AcDbEntity
  8
0
  6
Continuous
 62
     7
370
     0
100
AcDbLine
 10
-1775.2437764562
 20
478.2985775568
 30
0.0
 11
-1587.1800722805
 21
478.2985775568
 31
0.0
  0
LINE
  5
D1
330
46
100
AcDbEntity
  8
0
  6
Continuous
 62
     7
370
     0
100
AcDbLine
 10
-1541.0081068318
 20
453.696453567
 30
0.0
 11
-1187.3127848469
 21
-72.6710058069
 31
0.0
  0
LINE
  5
D2
330
46
100
AcDbEntity
  8
0
  6
Continuous
 62
     7
370
     0
100
AcDbLine
 10
-1187.3127848469
 20
422.6709638731
 30
0.0
 11
-1187.3127848469
 21
-72.6710058069
 31
0.0
  0
LINE
  5
D3
330
46
100
AcDbEntity
  8
0
  6
Continuous
 62
     7
370
     0
100
AcDbLine
 10
-1131.6851711632
 20
478.2985775568
 30
0.0
 11
-883.6670100843
 21
478.2985775568
 31
0.0
  0
LINE
  5
D4
330
46
100
AcDbEntity
  8
0
  6
Continuous
 62
     7
370
     0
100
AcDbLine
 10
1017.407346375
 20
-516.7511474419
 30
0.0
 11
714.4350245406
 21
-150.5112144433
 31
0.0
  0
LINE
  5
D5
330
46
100
AcDbEntity
  8
0
  6
Continuous
 62
     7
370
     0
100
AcDbLine
 10
1213.0308279912
 20
-459.9471080694
 30
0.0
 11
1017.407346375
 21
-516.7511474419
 31
0.0
  0
LINE
  5
D6
330
46
100
AcDbEntity
  8
0
  6
Continuous
 62
     7
370
     0
100
AcDbLine
 10
711.6952449037
 20
44.9625243042
 30
0.0
 11
1213.0308279912
 21
-459.9471080694
 31
0.0
  0
LINE
  5
D7
330
46
100
AcDbEntity
  8
0
  6
Continuous
 62
     7
370
     0
100
AcDbLine
 10
831.1275949348
 20
701.7089474319
 30
0.0
 11
696.8608938965
 21
96.1996866255
 31
0.0
  0
LINE
  5
D8
330
46
100
AcDbEntity
  8
0
  6
Continuous
 62
     7
370
     0
100
AcDbLine
 10
654.2233913848
 20
650.4244691219
 30
0.0
 11
831.1275949348
 21
701.7089474319
 31
0.0
  0
LINE
  5
D9
330
46
100
AcDbEntity
  8
0
  6
Continuous
 62
     7
370
     0
100
AcDbLine
 10
597.5828959266
 20
257.3060998497
 30
0.0
 11
654.2233913848
 21
650.4244691219
 31
0.0
  0
LINE
  5
DA
330
46
100
AcDbEntity
  8
0
  6
Continuous
 62
     7
370
     0
100
AcDbLine
 10
253.5141723619
 20
535.311064356
 30
0.0
 11
499.2050032048
 21
230.3404375078
 31
0.0
  0
LINE
  5
DB
330
46
100
AcDbEntity
  8
0
  6
Continuous
 62
     7
370
     0
100
AcDbLine
 10
71.4751101005
 20
483.7361360042
 30
0.0
 11
253.5141723619
 21
535.311064356
 31
0.0
  0
LINE
  5
DC
330
46
100
AcDbEntity
  8
0
  6
Continuous
 62
     7
370
     0
100
AcDbLine
 10
504.2530480834
 20
39.9714311697
 30
0.0
 11
71.4751101005
 21
483.7361360042
 31
0.0
  0
LINE
  5
DD
330
46
100
AcDbEntity
  8
0
  6
Continuous
 62
     7
370
     0
100
AcDbLine
 10
354.1911083338
 20
-706.3181343381
 30
0.0
 11
518.561244287
 21
-11.676357309
 31
0.0
  0
LINE
  5
DE
330
46
100
AcDbEntity
  8
0
  6
Continuous
 62
     7
370
     0
100
AcDbLine
 10
548.3635036894
 20
-650.2784731642
 30
0.0
 11
354.1911083338
 21
-706.3181343381
 31
0.0
  0
LINE
  5
DF
330
46
100
AcDbEntity
  8
0
  6
Continuous
 62
     7
370
     0
100
AcDbLine
 10
616.5155103868
 20
-178.0236356717
 30
0.0
 11
548.3635036894
 21
-650.2784731642
 31
0.0
  0
LINE
  5
E0
330
46
100
AcDbEntity
  8
0
  6
Continuous
 62
     7
370
     0
100
AcDbLine
 10
-1844.615932681
 20
-478.2985775552
 30
0.0
 11
-1875.6425908424
 21
-478.2985775552
 31
0.0
  0
LINE
  5
E1
330
46
100
AcDbEntity
  8
0
  6
Continuous
 62
     7
370
     0
100
AcDbLine
 10
-1875.6425908424
 20
478.2985775568
 30
0.0
 11
-1875.6425908424
 21
-478.2985775552
 31
0.0
  0
LINE
  5
E2
330
46
100
AcDbEntity
  8
0
  6
Continuous
 62
     7
370
     0
100
AcDbLine
 10
-1844.615932681
 20
478.2985775568
 30
0.0
 11
-1875.6425908424
 21
478.2985775568
 31
0.0
  0
LINE
  5
E3
330
46
100
AcDbEntity
  8
0
  6
Continuous
 62
     7
370
     0
100
AcDbLine
 10
-1844.615932681
 20
478.2985775568
 30
0.0
 11
-1844.615932681
 21
-478.2985775552
 31
0.0
  0
LINE
  5
E4
330
46
100
AcDbEntity
  8
0
  6
Continuous
 62
     7
370
     0
100
AcDbLine
 10
-1930.9509814799
 20
478.2985775568
 30
0.0
 11
-1930.9509814799
 21
-478.2985775552
 31
0.0
  0
LINE
  5
E5
330
46
100
AcDbEntity
  8
0
  6
Continuous
 62
     7
370
     0
100
AcDbLine
 10
-1899.9243233185
 20
-478.2985775552
 30
0.0
 11
-1930.9509814799
 21
-478.2985775552
 31
0.0
  0
LINE
  5
E6
330
46
100
AcDbEntity
  8
0
  6
Continuous
 62
     7
370
     0
100
AcDbLine
 10
-1899.9243233185
 20
478.2985775568
 30
0.0
 11
-1899.9243233185
 21
-478.2985775552
 31
0.0
  0
LINE
  5
E7
330
46
100
AcDbEntity
  8
0
  6
Continuous
 62
     7
370
     0
100
AcDbLine
 10
-1899.9243233185
 20
478.2985775568
 30
0.0
 11
-1930.9509814799
 21
478.2985775568
 31
0.0
  0
LINE
  5
E8
330
46
100
AcDbEntity
  8
0
  6
Continuous
 62
     7
370
     0
100
AcDbLine
 10
274.7585310121
 20
-423.7014330253
 30
0.0
 11
274.7585310121
 21
-287.598587012
 31
0.0
  0
LINE
  5
E9
330
46
100
AcDbEntity
  8
0
  6
Continuous
 62
     7
370
     0
100
AcDbLine
 10
219.1309173284
 20
-231.9709733283
 30
0.0
 11
-399.9767730236
 21
-231.9709733283
 31
0.0
  0
LINE
  5
EA
330
46
100
AcDbEntity
  8
0
  6
Continuous
 62
     7
370
     0
100
AcDbLine
 10
-399.9767730236
 20
-231.9709733283
 30
0.0
 11
-399.9767730236
 21
-107.197428739
 31
0.0
  0
LINE
  5
EB
330
46
100
AcDbEntity
  8
0
  6
Continuous
 62
     7
370
     0
100
AcDbLine
 10
-399.9767730236
 20
-107.197428739
 30
0.0
 11
63.5912815337
 21
-107.197428739
 31
0.0
  0
LINE
  5
EC
330
46
100
AcDbEntity
  8
0
  6
Continuous
 62
     7
370
     0
100
AcDbLine
 10
119.2188952174
 20
-51.5698150553
 30
0.0
 11
119.2188952174
 21
73.5879902946
 31
0.0
  0
LINE
  5
ED
330
46
100
AcDbEntity
  8
0
  6
Continuous
 62
     7
370
     0
100
AcDbLine
 10
63.5912815337
 20
129.2156039783
 30
0.0
 11
-399.9767730236
 21
129.2156039783
 31
0.0
  0
LINE
  5
EE
330
46
100
AcDbEntity
  8
0
  6
Continuous
 62
     7
370
     0
100
AcDbLine
 10
-399.9767730236
 20
129.2156039783
 30
0.0
 11
-399.9767730236
 21
243.0151701681
 31
0.0
  0
LINE
  5
EF
330
46
100
AcDbEntity
  8
0
  6
Continuous
 62
     7
370
     0
100
AcDbLine
 10
-399.9767730236
 20
243.0151701681
 30
0.0
 11
150.833129344
 21
243.0151701681
 31
0.0
  0
LINE
  5
F0
330
46
100
AcDbEntity
  8
0
  6
Continuous
 62
     7
370
     0
100
AcDbLine
 10
403.2545801648
 20
-15.8144068439
 30
0.0
 11
150.833129344
 21
243.0151701681
 31
0.0
  0
LINE
  5
F1
330
46
100
AcDbEntity
  8
0
  6
Continuous
 62
     7
370
     0
100
AcDbLine
 10
224.0002791411
 20
-773.3578953924
 30
0.0
 11
403.2545801648
 21
-15.8144068439
 31
0.0
  0
LINE
  5
F2
330
46
100
AcDbEntity
  8
0
  6
Continuous
 62
     7
370
     0
100
AcDbLine
 10
613.7164845329
 20
-747.2131288653
 30
0.0
 11
293.5580392183
 21
-839.6133424205
 31
0.0
  0
LINE
  5
F3
330
46
100
AcDbEntity
  8
0
  6
Continuous
 62
     7
370
     0
100
AcDbLine
 10
708.7048394864
 20
-318.1258824569
 30
0.0
 11
653.3487426358
 21
-701.7123062352
 31
0.0
  0
LINE
  5
F4
330
46
100
AcDbEntity
  8
0
  6
Continuous
 62
     7
370
     0
100
AcDbLine
 10
954.9710302594
 20
-615.8181358695
 30
0.0
 11
708.7048394864
 21
-318.1258824569
 31
0.0
  0
LINE
  5
F5
330
46
100
AcDbEntity
  8
0
  6
Continuous
 62
     7
370
     0
100
AcDbLine
 10
1423.4824283569
 20
-514.6880496767
 30
0.0
 11
1013.3453817697
 21
-633.781323933
 31
0.0
  0
LINE
  5
F6
330
46
100
AcDbEntity
  8
0
  6
Continuous
 62
     7
370
     0
100
AcDbLine
 10
1387.9801424314
 20
-479.2131412023
 30
0.0
 11
1423.4824283569
 21
-514.6880496767
 31
0.0
  0
LINE
  5
F7
330
46
100
AcDbEntity
  8
0
  6
Continuous
 62
     7
370
     0
100
AcDbLine
 10
1586.1281146836
 20
-479.2131412023
 30
0.0
 11
1387.9801424314
 21
-479.2131412023
 31
0.0
  0
LINE
  5
F8
330
46
100
AcDbEntity
  8
0
  6
Continuous
 62
     7
370
     0
100
AcDbLine
 10
1641.7557283673
 20
236.3770340105
 30
0.0
 11
1641.7557283673
 21
-423.5855275187
 31
0.0
  0
LINE
  5
F9
330
46
100
AcDbEntity
  8
0
  6
Continuous
 62
     7
370
     0
100
AcDbLine
 10
1774.8734010732
 20
236.3770340105
 30
0.0
 11
1641.7557283673
 21
236.3770340105
 31
0.0
  0
LINE
  5
FA
330
46
100
AcDbEntity
  8
0
  6
Continuous
 62
     7
370
     0
100
AcDbLine
 10
1815.3429551982
 20
437.6623778593
 30
0.0
 11
1815.3429551982
 21
276.8465881355
 31
0.0
  0
LINE
  5
FB
330
46
100
AcDbEntity
  8
0
  6
Continuous
 62
     7
370
     0
100
AcDbLine
 10
978.923471261
 20
478.1319319843
 30
0.0
 11
1774.8734010732
 21
478.1319319843
 31
0.0
  0
LINE
  5
FC
330
46
100
AcDbEntity
  8
0
  6
Continuous
 62
     7
370
     0
100
AcDbLine
 10
923.2958575773
 20
291.6141658775
 30
0.0
 11
923.2958575773
 21
422.5043183007
 31
0.0
  0
LINE
  5
FD
330
46
100
AcDbEntity
  8
0
  6
Continuous
 62
     7
370
     0
100
AcDbLine
 10
1270.4292889102
 20
235.9865521938
 30
0.0
 11
978.923471261
 21
235.9865521938
 31
0.0
  0
LINE
  5
FE
330
46
100
AcDbEntity
  8
0
  6
Continuous
 62
     7
370
     0
100
AcDbLine
 10
1270.4292889102
 20
-359.8542803228
 30
0.0
 11
1270.4292889102
 21
235.9865521938
 31
0.0
  0
LINE
  5
FF
330
46
100
AcDbEntity
  8
0
  6
Continuous
 62
     7
370
     0
100
AcDbLine
 10
812.0571201107
 20
101.7856491419
 30
0.0
 11
1270.4292889102
 21
-359.8542803228
 31
0.0
  0
LINE
  5
100
330
46
100
AcDbEntity
  8
0
  6
Continuous
 62
     7
370
     0
100
AcDbLine
 10
960.0543808591
 20
769.216302194
 30
0.0
 11
812.0571201107
 21
101.7856491419
 31
0.0
  0
LINE
  5
101
330
46
100
AcDbEntity
  8
0
  6
Continuous
 62
     7
370
     0
100
AcDbLine
 10
588.791402329
 20
747.2917265603
 30
0.0
 11
890.2571963667
 21
834.686574536
 31
0.0
  0
LINE
  5
102
330
46
100
AcDbEntity
  8
0
  6
Continuous
 62
     7
370
     0
100
AcDbLine
 10
505.6855498589
 20
399.6348453204
 30
0.0
 11
549.2210481172
 21
701.7968222288
 31
0.0
  0
LINE
  5
103
330
46
100
AcDbEntity
  8
0
  6
Continuous
 62
     7
370
     0
100
AcDbLine
 10
317.0692969246
 20
633.760053387
 30
0.0
 11
505.6855498589
 21
399.6348453204
 31
0.0
  0
LINE
  5
104
330
46
100
AcDbEntity
  8
0
  6
Continuous
 62
     7
370
     0
100
AcDbLine
 10
-137.3002269205
 20
540.2205661397
 30
0.0
 11
258.5869996259
 21
652.3825114426
 31
0.0
  0
LINE
  5
105
330
46
100
AcDbEntity
  8
0
  6
Continuous
 62
     7
370
     0
100
AcDbLine
 10
-75.8399075956
 20
478.8076466881
 30
0.0
 11
-137.3002269205
 21
540.2205661397
 31
0.0
  0
LINE
  5
106
330
46
100
AcDbEntity
  8
0
  6
Continuous
 62
     7
370
     0
100
AcDbLine
 10
-716.7680027826
 20
478.8076466881
 30
0.0
 11
-75.8399075956
 21
478.8076466881
 31
0.0
  0
LINE
  5
107
330
46
100
AcDbEntity
  8
0
  6
Continuous
 62
     7
370
     0
100
AcDbLine
 10
-772.3956164663
 20
423.1800330044
 30
0.0
 11
-772.3956164663
 21
-423.7014330253
 31
0.0
  0
LINE
  5
108
330
46
100
AcDbEntity
  8
0
  6
Continuous
 62
     7
370
     0
100
AcDbLine
 10
-716.7680027826
 20
-479.3290467089
 30
0.0
 11
219.1309173284
 21
-479.329046709
 31
0.0
  0
ENDBLK
  5
48
330
46
100
AcDbEntity
  8
0
100
AcDbBlockEnd
  0
BLOCK
  5
180
330
17F
100
AcDbEntity
  8
0
100
AcDbBlockBegin
  2
_D
 70
     0
 10
0.0
 20
0.0
 30
0.0
  3
_D
  1

  0
SOLID
  5
182
330
17F
100
AcDbEntity
  8
MEDIÇÕES
100
AcDbTrace
 10
582.9632869253
 20
327.8819170456
 30
0.0
 11
615.9832869253
 21
322.8019170456
 31
0.0
 12
615.9832869253
 22
332.9619170456
 32
0.0
 13
615.9832869253
 23
332.9619170456
 33
0.0
  0
SOLID
  5
183
330
17F
100
AcDbEntity
  8
MEDIÇÕES
100
AcDbTrace
 10
1004.6553564126
 20
327.8819170456
 30
0.0
 11
971.6353564126
 21
332.9619170456
 31
0.0
 12
971.6353564126
 22
322.8019170456
 32
0.0
 13
971.6353564126
 23
322.8019170456
 33
0.0
  0
LINE
  5
184
330
17F
100
AcDbEntity
  8
MEDIÇÕES
100
AcDbLine
 10
582.9632869253
 20
427.8819170457
 30
0.0
 11
582.9632869253
 21
317.8819170456
 31
0.0
  0
LINE
  5
185
330
17F
100
AcDbEntity
  8
MEDIÇÕES
100
AcDbLine
 10
1004.6553564126
 20
427.8819170457
 30
0.0
 11
1004.6553564126
 21
317.8819170456
 31
0.0
  0
LINE
  5
186
330
17F
100
AcDbEntity
  8
MEDIÇÕES
100
AcDbLine
 10
582.9632869253
 20
327.8819170456
 30
0.0
 11
1004.6553564126
 21
327.8819170456
 31
0.0
  0
MTEXT
  5
187
330
17F
100
AcDbEntity
  8
MEDIÇÕES
100
AcDbMText
 10
740.7989063831
 20
372.9992861913
 30
-27.9
 40
35.0
 41
0.0
 71
     1
 72
     1
  1
422
  7
SLDTEXTSTYLE1
 73
     1
 44
1.0
  0
ENDBLK
  5
181
330
17F
100
AcDbEntity
  8
0
100
AcDbBlockEnd
  0
BLOCK
  5
2B0
330
2AF
100
AcDbEntity
  8
0
100
AcDbBlockBegin
  2
_D_1
 70
     0
 10
0.0
 20
0.0
 30
0.0
  3
_D_1
  1

  0
SOLID
  5
2B2
330
2AF
100
AcDbEntity
  8
MEDIÇÕES
100
AcDbTrace
 10
1368.7369522162
 20
427.956837769
 30
0.0
 11
1373.8169522162
 21
460.976837769
 31
0.0
 12
1363.6569522162
 22
460.976837769
 32
0.0
 13
1363.6569522162
 23
460.976837769
 33
0.0
  0
SOLID
  5
2B3
330
2AF
100
AcDbEntity
  8
MEDIÇÕES
100
AcDbTrace
 10
1368.7369522162
 20
1085.3819170457
 30
0.0
 11
1363.6569522162
 21
1052.3619170457
 31
0.0
 12
1373.8169522162
 22
1052.3619170457
 32
0.0
 13
1373.8169522162
 23
1052.3619170457
 33
0.0
  0
LINE
  5
2B4
330
2AF
100
AcDbEntity
  8
MEDIÇÕES
100
AcDbLine
 10
1490.3342301674
 20
427.956837769
 30
0.0
 11
1358.7369522162
 21
427.956837769
 31
0.0
  0
LINE
  5
2B5
330
2AF
100
AcDbEntity
  8
MEDIÇÕES
100
AcDbLine
 10
1505.3927566448
 20
1085.3819170457
 30
0.0
 11
1358.7369522162
 21
1085.3819170457
 31
0.0
  0
LINE
  5
2B6
330
2AF
100
AcDbEntity
  8
MEDIÇÕES
100
AcDbLine
 10
1368.7369522162
 20
427.956837769
 30
0.0
 11
1368.7369522162
 21
1085.3819170457
 31
0.0
  0
MTEXT
  5
2B7
330
2AF
100
AcDbEntity
  8
MEDIÇÕES
100
AcDbMText
 10
1323.6195830704
 20
703.6589621215
 30
0.1
 40
35.0
 41
0.0
 71
     1
 72
     1
  1
657
  7
SLDTEXTSTYLE1
 11
6.123233995736766E-17
 21
1.0
 31
0.0
 73
     1
 44
1.0
  0
ENDBLK
  5
2B1
330
2AF
100
AcDbEntity
  8
0
100
AcDbBlockEnd
  0
BLOCK
  5
318
330
317
100
AcDbEntity
  8
0
100
AcDbBlockBegin
  2
_D_2
 70
     0
 10
0.0
 20
0.0
 30
0.0
  3
_D_2
  1

  0
SOLID
  5
31A
330
317
100
AcDbEntity
  8
MEDIÇÕES
100
AcDbTrace
 10
539.534532887
 20
1709.6655535518
 30
0.0
 11
534.454532887
 21
1676.6455535518
 31
0.0
 12
544.614532887
 22
1676.6455535518
 32
0.0
 13
544.614532887
 23
1676.6455535518
 33
0.0
  0
SOLID
  5
31B
330
317
100
AcDbEntity
  8
MEDIÇÕES
100
AcDbTrace
 10
539.534532887
 20
1348.6655535518
 30
0.0
 11
544.614532887
 21
1381.6855535518
 31
0.0
 12
534.454532887
 22
1381.6855535518
 32
0.0
 13
534.454532887
 23
1381.6855535518
 33
0.0
  0
LINE
  5
31C
330
317
100
AcDbEntity
  8
MEDIÇÕES
100
AcDbLine
 10
663.6240606716
 20
1709.6655535518
 30
0.0
 11
529.534532887
 21
1709.6655535518
 31
0.0
  0
LINE
  5
31D
330
317
100
AcDbEntity
  8
MEDIÇÕES
100
AcDbLine
 10
783.8093216689
 20
1348.6655535518
 30
0.0
 11
529.534532887
 21
1348.6655535518
 31
0.0
  0
LINE
  5
31E
330
317
100
AcDbEntity
  8
MEDIÇÕES
100
AcDbLine
 10
539.534532887
 20
1709.6655535518
 30
0.0
 11
539.534532887
 21
1348.6655535518
 31
0.0
  0
MTEXT
  5
31F
330
317
100
AcDbEntity
  8
MEDIÇÕES
100
AcDbMText
 10
494.4171637412
 20
1487.2441729524
 30
1.3500000001
 40
35.0
 41
0.0
 71
     1
 72
     1
  1
361
  7
SLDTEXTSTYLE1
 11
-7.044195017643634E-15
 21
1.0
 31
0.0
 73
     1
 44
1.0
  0
ENDBLK
  5
319
330
317
100
AcDbEntity
  8
0
100
AcDbBlockEnd
  0
ENDSEC
  0
SECTION
  2
ENTITIES
  0
LINE
  5
109
330
1F
100
AcDbEntity
  8
0
  6
Continuous
 62
     7
370
     0
100
AcDbLine
 10
73.6486218951
 20
2015.2546462079
 30
0.0
 11
2908.3430426184
 21
2015.2546462079
 31
0.0
  0
LINE
  5
10A
330
1F
100
AcDbEntity
  8
0
  6
Continuous
 62
     7
370
     0
100
AcDbLine
 10
73.6486218951
 20
2015.2546462079
 30
0.0
 11
73.6486218951
 21
52.0062153195
 31
0.0
  0
LINE
  5
10B
330
1F
100
AcDbEntity
  8
0
  6
Continuous
 62
     7
370
     0
100
AcDbLine
 10
73.6486218951
 20
52.0062153195
 30
0.0
 11
2908.3430426184
 21
52.0062153195
 31
0.0
  0
LINE
  5
10C
330
1F
100
AcDbEntity
  8
0
  6
Continuous
 62
     8
420
  8421504
370
    40
100
AcDbLine
 10
2065.3036793829
 20
289.6106299821
 30
0.0
 11
2908.3430426184
 21
289.6106299821
 31
0.0
  0
LINE
  5
10D
330
1F
100
AcDbEntity
  8
0
  6
Continuous
 62
     7
370
     0
100
AcDbLine
 10
2908.3430426184
 20
2015.2546462079
 30
0.0
 11
2908.3430426184
 21
52.0062153195
 31
0.0
  0
LINE
  5
10E
330
1F
100
AcDbEntity
  8
0
  6
Continuous
 62
     8
420
  8421504
370
    40
100
AcDbLine
 10
2065.3036793829
 20
244.0269995402
 30
0.0
 11
2908.3430426184
 21
244.0269995402
 31
0.0
  0
LINE
  5
10F
330
1F
100
AcDbEntity
  8
0
  6
Continuous
 62
     8
420
  8421504
370
    40
100
AcDbLine
 10
2065.3036793829
 20
104.4852736976
 30
0.0
 11
2908.3430426184
 21
104.4852736976
 31
0.0
  0
INSERT
  5
110
330
1F
100
AcDbEntity
  8
0
  6
Continuous
 62
     7
100
AcDbBlockReference
  2
Logo_Next.V3
 10
2533.2833433192
 20
385.1362543806
 30
0.0
 41
0.088
 42
0.088
 43
0.088
  0
MTEXT
  5
112
330
1F
100
AcDbEntity
  8
0
  6
Continuous
 62
     7
370
     0
100
AcDbMText
 10
2785.0
 20
84.3360149091
 30
0.0
 40
15.0
 41
0.0
 71
     1
 72
     1
  1
SHEET 1 OF 1
  7
SLDTEXTSTYLE0
 73
     1
 44
1.0
  0
MTEXT
  5
114
330
1F
100
AcDbEntity
  8
0
  6
Continuous
 62
     7
370
     0
100
AcDbMText
 10
2070.1338428396
 20
269.4144030073
 30
0.0
 40
13.2291666667
 41
0.0
 71
     1
 72
     1
  1
TITLE:
  7
SLDTEXTSTYLE1
 73
     1
 44
1.0
  0
MTEXT
  5
116
330
1F
100
AcDbEntity
  8
0
  6
Continuous
 62
     7
370
     0
100
AcDbMText
 10
2189.0191473576
 20
186.4031371449
 30
0.0
 40
26.4583333333
 41
0.0
 71
     1
 72
     1
  1
NC00753
  7
SLDTEXTSTYLE2
 73
     1
 44
1.0
  0
MTEXT
  5
117
330
1F
100
AcDbEntity
  8
0
  6
Continuous
 62
     7
370
     0
100
AcDbMText
 10
2760.0378578924
 20
132.5666195236
 30
0.0
 40
21.1666666667
 41
0.0
 71
     1
 72
     1
  1
10-10-2014
  7
SLDTEXTSTYLE2
 73
     1
 44
1.0
  0
MTEXT
  5
118
330
1F
100
AcDbEntity
  8
0
  6
Continuous
 62
     7
370
     0
100
AcDbMText
 10
2070.1338428396
 20
172.9511179359
 30
0.0
 40
13.2291666667
 41
0.0
 71
     1
 72
     1
  1
Reference :
  7
SLDTEXTSTYLE1
 73
     1
 44
1.0
  0
MTEXT
  5
119
330
1F
100
AcDbEntity
  8
0
  6
Continuous
 62
     7
370
     0
100
AcDbMText
 10
2725.0566539417
 20
124.4366111594
 30
0.0
 40
13.2291666667
 41
0.0
 71
     2
 72
     1
  1
Date:
  7
SLDTEXTSTYLE1
 73
     1
 44
1.0
  0
MTEXT
  5
11A
330
1F
100
AcDbEntity
  8
0
  6
Continuous
 62
     7
370
     0
100
AcDbMText
 10
2070.1338428396
 20
226.1682214746
 30
0.0
 40
13.2291666667
 41
0.0
 71
     1
 72
     1
  1
REVISION:
  7
SLDTEXTSTYLE1
 73
     1
 44
1.0
  0
MTEXT
  5
11B
330
1F
100
AcDbEntity
  8
0
  6
Continuous
 62
     7
370
     0
100
AcDbMText
 10
2189.0191473576
 20
234.0630452774
 30
0.0
 40
21.1666666667
 41
0.0
 71
     1
 72
     1
  1
V2.0
  7
SLDTEXTSTYLE1
 73
     1
 44
1.0
  0
MTEXT
  5
11C
330
1F
100
AcDbEntity
  8
0
  6
Continuous
 62
     7
370
     0
100
AcDbMText
 10
2530.729869167
 20
278.2716088622
 30
0.0
 40
21.1666666667
 41
0.0
 71
     2
 72
     1
  1
NEXT X12 V2 - Passive 2-Way Speaker/Monitor (12"+1")
  7
SLDTEXTSTYLE1
 73
     1
 44
1.0
  0
MTEXT
  5
11D
330
1F
100
AcDbEntity
  8
MEDIÇÕES
100
AcDbMText
 10
2414.0896881916
 20
84.9563102753
 30
0.0
 40
15.875
 41
0.0
 71
     1
 72
     1
  1
All dimensions in mm
  7
SLDTEXTSTYLE1
 73
     1
 44
1.0
  0
MTEXT
  5
11E
330
1F
100
AcDbEntity
  8
0
  6
Continuous
 62
     7
370
     0
100
AcDbMText
 10
2356.2250577519
 20
341.3159263744
 30
0.0
 40
32.0
 41
0.0
 71
     1
 72
     1
  1
proaudio
  7
SLDTEXTSTYLE1
 73
     1
 44
1.0
  0
LINE
  5
11F
330
1F
100
AcDbEntity
  8
0
  6
Continuous
 62
     7
370
    15
100
AcDbLine
 10
589.9632869253
 20
1070.3819170457
 30
0.0
 11
589.9632869253
 21
445.3819170457
 31
0.0
  0
LINE
  5
120
330
1F
100
AcDbEntity
  8
0
  6
Continuous
 62
     7
370
    15
100
AcDbLine
 10
997.6553564126
 20
445.3819170457
 30
0.0
 11
997.6553564126
 21
1070.3819170457
 31
0.0
  0
LINE
  5
121
330
1F
100
AcDbEntity
  8
0
  6
Continuous
 62
     7
370
    15
100
AcDbLine
 10
594.4641643075
 20
430.3819170457
 30
0.0
 11
595.0924357049
 21
427.9568377689
 31
0.0
  0
LINE
  5
122
330
1F
100
AcDbEntity
  8
0
  6
Continuous
 62
     7
370
    15
100
AcDbLine
 10
611.1312555059
 20
427.9568377689
 30
0.0
 11
611.7595269034
 21
430.3819170457
 31
0.0
  0
ARC
  5
123
330
1F
100
AcDbEntity
  8
0
  6
Continuous
 62
     7
370
    15
100
AcDbCircle
 10
611.0344514261
 20
427.9819170457
 30
0.0
 40
0.1000000000000227
100
AcDbArc
 50
270.0
 51
345.4755709219
  0
ARC
  5
124
330
1F
100
AcDbEntity
  8
0
  6
Continuous
 62
     7
370
    15
100
AcDbCircle
 10
595.1892397848
 20
427.9819170457
 30
0.0
 40
0.100000000000125
100
AcDbArc
 50
194.5244290781
 51
270.0
  0
LINE
  5
125
330
1F
100
AcDbEntity
  8
0
  6
Continuous
 62
     7
370
    15
100
AcDbLine
 10
674.9516302174
 20
430.3819170457
 30
0.0
 11
675.5799016149
 21
427.9568377689
 31
0.0
  0
LINE
  5
126
330
1F
100
AcDbEntity
  8
0
  6
Continuous
 62
     7
370
    15
100
AcDbLine
 10
691.6187214158
 20
427.9568377689
 30
0.0
 11
692.2469928133
 21
430.3819170457
 31
0.0
  0
ARC
  5
127
330
1F
100
AcDbEntity
  8
0
  6
Continuous
 62
     7
370
    15
100
AcDbCircle
 10
691.521917336
 20
427.9819170457
 30
0.0
 40
0.1000000000000227
100
AcDbArc
 50
270.0
 51
345.4755709219
  0
ARC
  5
128
330
1F
100
AcDbEntity
  8
0
  6
Continuous
 62
     7
370
    15
100
AcDbCircle
 10
675.6767056947
 20
427.9819170457
 30
0.0
 40
0.1000000000000227
100
AcDbArc
 50
194.5244290781
 51
270.0
  0
LINE
  5
129
330
1F
100
AcDbEntity
  8
0
  6
Continuous
 62
     7
370
    15
100
AcDbLine
 10
914.8623869153
 20
430.3819170457
 30
0.0
 11
915.4906583127
 21
427.9568377687
 31
0.0
  0
LINE
  5
12A
330
1F
100
AcDbEntity
  8
0
  6
Continuous
 62
     7
370
    15
100
AcDbLine
 10
931.5294781137
 20
427.9568377687
 30
0.0
 11
932.1577495112
 21
430.3819170457
 31
0.0
  0
ARC
  5
12B
330
1F
100
AcDbEntity
  8
0
  6
Continuous
 62
     7
370
    15
100
AcDbCircle
 10
931.4326740339
 20
427.9819170456
 30
0.0
 40
0.1000000000000007
100
AcDbArc
 50
270.0
 51
345.475570922
  0
ARC
  5
12C
330
1F
100
AcDbEntity
  8
0
  6
Continuous
 62
     7
370
    15
100
AcDbCircle
 10
915.5874623926
 20
427.9819170456
 30
0.0
 40
0.1000000000000007
100
AcDbArc
 50
194.524429078
 51
270.0
  0
LINE
  5
12D
330
1F
100
AcDbEntity
  8
0
  6
Continuous
 62
     7
370
    15
100
AcDbLine
 10
975.8591164345
 20
430.3819170457
 30
0.0
 11
976.4873878319
 21
427.956837769
 31
0.0
  0
LINE
  5
12E
330
1F
100
AcDbEntity
  8
0
  6
Continuous
 62
     7
370
    15
100
AcDbLine
 10
992.5262076329
 20
427.956837769
 30
0.0
 11
993.1544790303
 21
430.3819170457
 31
0.0
  0
ARC
  5
12F
330
1F
100
AcDbEntity
  8
0
  6
Continuous
 62
     7
370
    15
100
AcDbCircle
 10
992.4294035531
 20
427.9819170458
 30
0.0
 40
0.1000000000000227
100
AcDbArc
 50
270.0
 51
345.4755709219
  0
ARC
  5
130
330
1F
100
AcDbEntity
  8
0
  6
Continuous
 62
     7
370
    15
100
AcDbCircle
 10
976.5841919118
 20
427.9819170458
 30
0.0
 40
0.1000000000000227
100
AcDbArc
 50
194.5244290781
 51
270.0
  0
LINE
  5
131
330
1F
100
AcDbEntity
  8
0
  6
Continuous
 62
     7
370
    15
100
AcDbLine
 10
586.2052711708
 20
1068.3819170457
 30
0.0
 11
586.2052711708
 21
447.3819170457
 31
0.0
  0
LINE
  5
132
330
1F
100
AcDbEntity
  8
0
  6
Continuous
 62
     7
370
    15
100
AcDbLine
 10
1001.4133721671
 20
447.3819170457
 30
0.0
 11
1001.4133721671
 21
1068.3819170457
 31
0.0
  0
ARC
  5
133
330
1F
100
AcDbEntity
  8
0
  6
Continuous
 62
     7
370
    15
100
AcDbCircle
 10
584.9632869253
 20
1072.3819170457
 30
0.0
 40
2.0
100
AcDbArc
 50
180.0
 51
270.0
  0
LINE
  5
134
330
1F
100
AcDbEntity
  8
0
  6
Continuous
 62
     7
370
    15
100
AcDbLine
 10
1004.6553564126
 20
1072.3819170457
 30
0.0
 11
1004.6553564126
 21
1077.5819170457
 31
0.0
  0
ARC
  5
135
330
1F
100
AcDbEntity
  8
0
  6
Continuous
 62
     7
370
    15
100
AcDbCircle
 10
1002.6553564126
 20
1072.3819170457
 30
0.0
 40
1.999999999999886
100
AcDbArc
 50
270.0
 51
0.0
  0
ARC
  5
136
330
1F
100
AcDbEntity
  8
0
  6
Continuous
 62
     7
370
    15
100
AcDbCircle
 10
996.8553564126
 20
1077.5819170457
 30
0.0
 40
7.800000000000182
100
AcDbArc
 50
0.0
 51
90.0
  0
ARC
  5
137
330
1F
100
AcDbEntity
  8
0
  6
Continuous
 62
     7
370
    15
100
AcDbCircle
 10
590.7632869253
 20
1077.5819170457
 30
0.0
 40
7.800000000000182
100
AcDbArc
 50
90.0
 51
180.0
  0
LINE
  5
138
330
1F
100
AcDbEntity
  8
0
  6
Continuous
 62
     7
370
    15
100
AcDbLine
 10
582.9632869253
 20
1077.5819170457
 30
0.0
 11
582.9632869253
 21
1072.3819170457
 31
0.0
  0
ARC
  5
139
330
1F
100
AcDbEntity
  8
0
  6
Continuous
 62
     7
370
    15
100
AcDbCircle
 10
1001.6553564126
 20
442.3819170457
 30
0.0
 40
3.0
100
AcDbArc
 50
0.0
 51
90.0
  0
ARC
  5
13A
330
1F
100
AcDbEntity
  8
0
  6
Continuous
 62
     7
370
    15
100
AcDbCircle
 10
997.1553564126
 20
437.8819170457
 30
0.0
 40
7.5
100
AcDbArc
 50
270.0
 51
0.0
  0
LINE
  5
13B
330
1F
100
AcDbEntity
  8
0
  6
Continuous
 62
     7
370
    15
100
AcDbLine
 10
582.9632869253
 20
442.3819170457
 30
0.0
 11
582.9632869253
 21
437.8819170457
 31
0.0
  0
ARC
  5
13C
330
1F
100
AcDbEntity
  8
0
  6
Continuous
 62
     7
370
    15
100
AcDbCircle
 10
585.9632869253
 20
442.3819170457
 30
0.0
 40
3.0
100
AcDbArc
 50
90.0
 51
180.0
  0
ARC
  5
13D
330
1F
100
AcDbEntity
  8
0
  6
Continuous
 62
     7
370
    15
100
AcDbCircle
 10
590.4632869253
 20
437.8819170457
 30
0.0
 40
7.5
100
AcDbArc
 50
180.0
 51
270.0
  0
LINE
  5
13E
330
1F
100
AcDbEntity
  8
0
  6
Continuous
 62
     7
370
    15
100
AcDbLine
 10
1004.6553564126
 20
437.8819170457
 30
0.0
 11
1004.6553564126
 21
442.3819170457
 31
0.0
  0
LINE
  5
13F
330
1F
100
AcDbEntity
  8
0
  6
Continuous
 62
     7
370
    15
100
AcDbLine
 10
609.6052696414
 20
427.8819170457
 30
0.0
 11
595.1892397848
 21
427.8819170457
 31
0.0
  0
LINE
  5
140
330
1F
100
AcDbEntity
  8
0
  6
Continuous
 62
     7
370
    15
100
AcDbLine
 10
611.0344514261
 20
427.8819170457
 30
0.0
 11
609.6052696414
 21
427.8819170457
 31
0.0
  0
LINE
  5
141
330
1F
100
AcDbEntity
  8
0
  6
Continuous
 62
     7
370
    15
100
AcDbLine
 10
690.0927355513
 20
427.8819170457
 30
0.0
 11
675.6767056947
 21
427.8819170457
 31
0.0
  0
LINE
  5
142
330
1F
100
AcDbEntity
  8
0
  6
Continuous
 62
     7
370
    15
100
AcDbLine
 10
691.521917336
 20
427.8819170457
 30
0.0
 11
690.0927355513
 21
427.8819170457
 31
0.0
  0
LINE
  5
143
330
1F
100
AcDbEntity
  8
0
  6
Continuous
 62
     7
370
    15
100
AcDbLine
 10
930.0034922492
 20
427.8819170456
 30
0.0
 11
915.5874623926
 21
427.8819170456
 31
0.0
  0
LINE
  5
144
330
1F
100
AcDbEntity
  8
0
  6
Continuous
 62
     7
370
    15
100
AcDbLine
 10
931.4326740339
 20
427.8819170456
 30
0.0
 11
930.0034922492
 21
427.8819170456
 31
0.0
  0
LINE
  5
145
330
1F
100
AcDbEntity
  8
0
  6
Continuous
 62
     7
370
    15
100
AcDbLine
 10
991.0002217684
 20
427.8819170458
 30
0.0
 11
976.5841919118
 21
427.8819170458
 31
0.0
  0
LINE
  5
146
330
1F
100
AcDbEntity
  8
0
  6
Continuous
 62
     7
370
    15
100
AcDbLine
 10
992.4294035531
 20
427.8819170458
 30
0.0
 11
991.0002217684
 21
427.8819170458
 31
0.0
  0
ARC
  5
147
330
1F
100
AcDbEntity
  8
0
  6
Continuous
 62
     7
370
    15
100
AcDbCircle
 10
588.2052711708
 20
1068.3819170457
 30
0.0
 40
2.000000000000227
100
AcDbArc
 50
90.0
 51
180.0
  0
ARC
  5
148
330
1F
100
AcDbEntity
  8
0
  6
Continuous
 62
     7
370
    15
100
AcDbCircle
 10
588.2052711708
 20
447.3819170457
 30
0.0
 40
2.000000000000114
100
AcDbArc
 50
180.0
 51
270.0
  0
ARC
  5
149
330
1F
100
AcDbEntity
  8
0
  6
Continuous
 62
     7
370
    15
100
AcDbCircle
 10
999.4133721671
 20
447.3819170457
 30
0.0
 40
2.000000000000057
100
AcDbArc
 50
270.0
 51
0.0
  0
ARC
  5
14A
330
1F
100
AcDbEntity
  8
0
  6
Continuous
 62
     7
370
    15
100
AcDbCircle
 10
999.4133721671
 20
1068.3819170457
 30
0.0
 40
2.000000000000227
100
AcDbArc
 50
0.0
 51
90.0
  0
LINE
  5
14B
330
1F
100
AcDbEntity
  8
0
  6
Continuous
 62
     7
370
    15
100
AcDbLine
 10
984.8021532077
 20
1077.5819170457
 30
0.0
 11
602.8164901301
 21
1077.5819170457
 31
0.0
  0
LINE
  5
14C
330
1F
100
AcDbEntity
  8
0
  6
Continuous
 62
     7
370
    15
100
AcDbLine
 10
984.8021532077
 20
1077.5819170457
 30
0.0
 11
984.8021532077
 21
1072.3819170457
 31
0.0
  0
LINE
  5
14D
330
1F
100
AcDbEntity
  8
0
  6
Continuous
 62
     7
370
    15
100
AcDbLine
 10
602.8164901301
 20
1072.3819170457
 30
0.0
 11
984.8021532077
 21
1072.3819170457
 31
0.0
  0
LINE
  5
14E
330
1F
100
AcDbEntity
  8
0
  6
Continuous
 62
     7
370
    15
100
AcDbLine
 10
602.8164901301
 20
1077.5819170457
 30
0.0
 11
602.8164901301
 21
1072.3819170457
 31
0.0
  0
LWPOLYLINE
  5
14F
330
1F
100
AcDbEntity
  8
0
  6
Continuous
 62
     7
370
    15
100
AcDbPolyline
 90
        9
 70
   128
 43
0.0
 10
602.8164901301
 20
1077.5819170457
 10
602.8449161628
 20
1079.1036215574
 10
602.9291018642
 20
1080.5668478182
 10
603.0658120252
 20
1081.9153648633
 10
603.2497929509
 20
1083.097349939
 10
603.4739743575
 20
1084.0673800217
 10
603.7297410793
 20
1084.7881773993
 10
604.0072641446
 20
1085.2320422329
 10
604.2958784975
 20
1085.3819170457
  0
LINE
  5
150
330
1F
100
AcDbEntity
  8
0
  6
Continuous
 62
     7
370
    15
100
AcDbLine
 10
604.2958784975
 20
1085.3819170457
 30
0.0
 11
983.3227648403
 21
1085.3819170457
 31
0.0
  0
LWPOLYLINE
  5
151
330
1F
100
AcDbEntity
  8
0
  6
Continuous
 62
     7
370
    15
100
AcDbPolyline
 90
        9
 70
   128
 43
0.0
 10
984.8021532077
 20
1077.5819170457
 10
984.7737271751
 20
1079.1036215574
 10
984.6895414736
 20
1080.5668478182
 10
984.5528313126
 20
1081.9153648633
 10
984.3688503869
 20
1083.097349939
 10
984.1446689803
 20
1084.0673800217
 10
983.8889022585
 20
1084.7881773993
 10
983.6113791933
 20
1085.2320422329
 10
983.3227648403
 20
1085.3819170457
  0
LINE
  5
152
330
1F
100
AcDbEntity
  8
0
  6
Continuous
 62
     7
370
    15
100
AcDbLine
 10
984.4228228571
 20
1070.3819170457
 30
0.0
 11
603.1958204807
 21
1070.3819170457
 31
0.0
  0
ARC
  5
153
330
1F
100
AcDbEntity
  8
0
  6
Continuous
 62
     7
370
    15
100
AcDbCircle
 10
605.7372124882
 20
1071.8999034851
 30
0.0
 40
2.960229073202672
100
AcDbArc
 50
170.6288126927
 51
210.8500879568
  0
ARC
  5
154
330
1F
100
AcDbEntity
  8
0
  6
Continuous
 62
     7
370
    15
100
AcDbCircle
 10
981.8814308496
 20
1071.8999034851
 30
0.0
 40
2.960229073201989
100
AcDbArc
 50
329.1499120432
 51
9.3711873074
  0
LINE
  5
155
330
1F
100
AcDbEntity
  8
0
  6
Continuous
 62
     7
370
    15
100
AcDbLine
 10
603.1958204807
 20
1070.3819170457
 30
0.0
 11
584.9632869253
 21
1070.3819170457
 31
0.0
  0
LINE
  5
156
330
1F
100
AcDbEntity
  8
0
  6
Continuous
 62
     7
370
    15
100
AcDbLine
 10
1002.6553564126
 20
1070.3819170457
 30
0.0
 11
984.4228228571
 21
1070.3819170457
 31
0.0
  0
LINE
  5
157
330
1F
100
AcDbEntity
  8
0
  6
Continuous
 62
     7
370
    15
100
AcDbLine
 10
983.3227648403
 20
1085.3819170457
 30
0.0
 11
996.8553564126
 21
1085.3819170457
 31
0.0
  0
LINE
  5
158
330
1F
100
AcDbEntity
  8
0
  6
Continuous
 62
     7
370
    15
100
AcDbLine
 10
590.7632869253
 20
1085.3819170457
 30
0.0
 11
604.2958784975
 21
1085.3819170457
 31
0.0
  0
LINE
  5
159
330
1F
100
AcDbEntity
  8
0
  6
Continuous
 62
     7
370
    15
100
AcDbLine
 10
602.8164901301
 20
437.8819170457
 30
0.0
 11
984.8021532077
 21
437.8819170457
 31
0.0
  0
LINE
  5
15A
330
1F
100
AcDbEntity
  8
0
  6
Continuous
 62
     7
370
    15
100
AcDbLine
 10
602.8164901301
 20
437.8819170457
 30
0.0
 11
602.8164901301
 21
442.3819170457
 31
0.0
  0
LINE
  5
15B
330
1F
100
AcDbEntity
  8
0
  6
Continuous
 62
     7
370
    15
100
AcDbLine
 10
984.8021532077
 20
442.3819170457
 30
0.0
 11
602.8164901301
 21
442.3819170457
 31
0.0
  0
LINE
  5
15C
330
1F
100
AcDbEntity
  8
0
  6
Continuous
 62
     7
370
    15
100
AcDbLine
 10
984.8021532077
 20
437.8819170457
 30
0.0
 11
984.8021532077
 21
442.3819170457
 31
0.0
  0
LWPOLYLINE
  5
15D
330
1F
100
AcDbEntity
  8
0
  6
Continuous
 62
     7
370
    15
100
AcDbPolyline
 90
        9
 70
   128
 43
0.0
 10
983.3796643929
 20
430.3819170457
 10
983.6571781938
 20
430.5260274427
 10
983.924027295
 20
430.9528205519
 10
984.1699568352
 20
431.6458949534
 10
984.38551588
 20
432.5786161868
 10
984.5624206163
 20
433.7151402981
 10
984.6938726941
 20
435.011791303
 10
984.774820484
 20
436.4187396306
 10
984.8021532077
 20
437.8819170457
  0
LINE
  5
15E
330
1F
100
AcDbEntity
  8
0
  6
Continuous
 62
     7
370
    15
100
AcDbLine
 10
983.3796643929
 20
430.3819170457
 30
0.0
 11
604.238978945
 21
430.3819170457
 31
0.0
  0
LWPOLYLINE
  5
15F
330
1F
100
AcDbEntity
  8
0
  6
Continuous
 62
     7
370
    15
100
AcDbPolyline
 90
        9
 70
   128
 43
0.0
 10
602.8164901301
 20
437.8819170457
 10
602.8438228538
 20
436.4187396306
 10
602.9247706437
 20
435.011791303
 10
603.0562227216
 20
433.7151402981
 10
603.2331274578
 20
432.5786161868
 10
603.4486865026
 20
431.6458949534
 10
603.6946160428
 20
430.9528205519
 10
603.961465144
 20
430.5260274427
 10
604.238978945
 20
430.3819170457
  0
ARC
  5
160
330
1F
100
AcDbEntity
  8
0
  6
Continuous
 62
     7
370
    15
100
AcDbCircle
 10
607.1975736673
 20
443.1049373867
 30
0.0
 40
4.44034360980688
100
AcDbArc
 50
149.1499120432
 51
189.3711873073
  0
LINE
  5
161
330
1F
100
AcDbEntity
  8
0
  6
Continuous
 62
     7
370
    15
100
AcDbLine
 10
603.3854856561
 20
445.3819170457
 30
0.0
 11
984.2331576818
 21
445.3819170457
 31
0.0
  0
ARC
  5
162
330
1F
100
AcDbEntity
  8
0
  6
Continuous
 62
     7
370
    15
100
AcDbCircle
 10
980.4210696705
 20
443.1049373867
 30
0.0
 40
4.440343609808154
100
AcDbArc
 50
350.6288126927
 51
30.8500879568
  0
LINE
  5
163
330
1F
100
AcDbEntity
  8
0
  6
Continuous
 62
     7
370
    15
100
AcDbLine
 10
984.2331576818
 20
445.3819170457
 30
0.0
 11
1001.6553564126
 21
445.3819170457
 31
0.0
  0
LINE
  5
164
330
1F
100
AcDbEntity
  8
0
  6
Continuous
 62
     7
370
    15
100
AcDbLine
 10
997.1553564126
 20
430.3819170457
 30
0.0
 11
983.3796643929
 21
430.3819170457
 31
0.0
  0
LINE
  5
165
330
1F
100
AcDbEntity
  8
0
  6
Continuous
 62
     7
370
    15
100
AcDbLine
 10
585.9632869253
 20
445.3819170457
 30
0.0
 11
603.3854856561
 21
445.3819170457
 31
0.0
  0
LINE
  5
166
330
1F
100
AcDbEntity
  8
0
  6
Continuous
 62
     7
370
    15
100
AcDbLine
 10
604.238978945
 20
430.3819170457
 30
0.0
 11
590.4632869253
 21
430.3819170457
 31
0.0
  0
LINE
  5
167
330
1F
100
AcDbEntity
  8
0
  6
Continuous
 62
     8
370
    15
100
AcDbLine
 10
604.1441463573
 20
1070.3819170457
 30
0.0
 11
604.1441463573
 21
445.3819170457
 31
0.0
  0
LINE
  5
168
330
1F
100
AcDbEntity
  8
0
  6
Continuous
 62
     8
370
    15
100
AcDbLine
 10
983.4744969805
 20
1070.3819170457
 30
0.0
 11
983.4744969805
 21
445.3819170457
 31
0.0
  0
LINE
  5
169
330
1F
100
AcDbEntity
  8
0
  6
Continuous
 62
     8
370
    15
100
AcDbLine
 10
595.0924357049
 20
427.9568377689
 30
0.0
 11
611.1312555059
 21
427.9568377689
 31
0.0
  0
LINE
  5
16A
330
1F
100
AcDbEntity
  8
0
  6
Continuous
 62
     8
370
    15
100
AcDbLine
 10
675.5799016149
 20
427.9568377689
 30
0.0
 11
691.6187214158
 21
427.9568377689
 31
0.0
  0
LINE
  5
16B
330
1F
100
AcDbEntity
  8
0
  6
Continuous
 62
     8
370
    15
100
AcDbLine
 10
915.4906583127
 20
427.9568377687
 30
0.0
 11
931.5294781137
 21
427.9568377687
 31
0.0
  0
LINE
  5
16C
330
1F
100
AcDbEntity
  8
0
  6
Continuous
 62
     8
370
    15
100
AcDbLine
 10
976.4873878319
 20
427.956837769
 30
0.0
 11
992.5262076329
 21
427.956837769
 31
0.0
  0
LINE
  5
16D
330
1F
100
AcDbEntity
  8
0
  6
Continuous
 62
     8
370
    15
100
AcDbLine
 10
588.2052711708
 20
1070.3819170457
 30
0.0
 11
589.9632869253
 21
1067.4518907883
 31
0.0
  0
LINE
  5
16E
330
1F
100
AcDbEntity
  8
0
  6
Continuous
 62
     8
370
    15
100
AcDbLine
 10
586.2052711708
 20
1068.3819170457
 30
0.0
 11
589.9632869253
 21
1066.127107593
 31
0.0
  0
LINE
  5
16F
330
1F
100
AcDbEntity
  8
0
  6
Continuous
 62
     8
370
    15
100
AcDbLine
 10
586.2052711708
 20
447.3819170457
 30
0.0
 11
589.9632869253
 21
449.6367264984
 31
0.0
  0
LINE
  5
170
330
1F
100
AcDbEntity
  8
0
  6
Continuous
 62
     8
370
    15
100
AcDbLine
 10
588.2052711708
 20
445.3819170457
 30
0.0
 11
589.9632869253
 21
448.3119433032
 31
0.0
  0
LINE
  5
171
330
1F
100
AcDbEntity
  8
0
  6
Continuous
 62
     8
370
    15
100
AcDbLine
 10
997.6553564126
 20
449.6367264984
 30
0.0
 11
1001.4133721671
 21
447.3819170457
 31
0.0
  0
LINE
  5
172
330
1F
100
AcDbEntity
  8
0
  6
Continuous
 62
     8
370
    15
100
AcDbLine
 10
997.6553564126
 20
448.3119433032
 30
0.0
 11
999.4133721671
 21
445.3819170457
 31
0.0
  0
LINE
  5
173
330
1F
100
AcDbEntity
  8
0
  6
Continuous
 62
     8
370
    15
100
AcDbLine
 10
997.6553564126
 20
1066.127107593
 30
0.0
 11
1001.4133721671
 21
1068.3819170457
 31
0.0
  0
LINE
  5
174
330
1F
100
AcDbEntity
  8
0
  6
Continuous
 62
     8
370
    15
100
AcDbLine
 10
997.6553564126
 20
1067.4518907883
 30
0.0
 11
999.4133721671
 21
1070.3819170457
 31
0.0
  0
LINE
  5
175
330
1F
100
AcDbEntity
  8
0
  6
Continuous
 62
     8
370
    15
100
AcDbLine
 10
582.9632869253
 20
1072.3819170457
 30
0.0
 11
602.8164901301
 21
1072.3819170457
 31
0.0
  0
LINE
  5
176
330
1F
100
AcDbEntity
  8
0
  6
Continuous
 62
     8
370
    15
100
AcDbLine
 10
1004.6553564126
 20
1077.5819170457
 30
0.0
 11
984.8021532077
 21
1077.5819170457
 31
0.0
  0
LINE
  5
177
330
1F
100
AcDbEntity
  8
0
  6
Continuous
 62
     8
370
    15
100
AcDbLine
 10
984.8021532077
 20
1072.3819170457
 30
0.0
 11
1004.6553564126
 21
1072.3819170457
 31
0.0
  0
LINE
  5
178
330
1F
100
AcDbEntity
  8
0
  6
Continuous
 62
     8
370
    15
100
AcDbLine
 10
602.8164901301
 20
1077.5819170457
 30
0.0
 11
582.9632869253
 21
1077.5819170457
 31
0.0
  0
LINE
  5
179
330
1F
100
AcDbEntity
  8
0
  6
Continuous
 62
     8
370
    15
100
AcDbLine
 10
1004.6553564126
 20
442.3819170457
 30
0.0
 11
984.8021532077
 21
442.3819170457
 31
0.0
  0
LINE
  5
17A
330
1F
100
AcDbEntity
  8
0
  6
Continuous
 62
     8
370
    15
100
AcDbLine
 10
984.8021532077
 20
437.8819170457
 30
0.0
 11
1004.6553564126
 21
437.8819170457
 31
0.0
  0
LINE
  5
17B
330
1F
100
AcDbEntity
  8
0
  6
Continuous
 62
     8
370
    15
100
AcDbLine
 10
582.9632869253
 20
437.8819170457
 30
0.0
 11
602.8164901301
 21
437.8819170457
 31
0.0
  0
LINE
  5
17C
330
1F
100
AcDbEntity
  8
0
  6
Continuous
 62
     8
370
    15
100
AcDbLine
 10
602.8164901301
 20
442.3819170457
 30
0.0
 11
582.9632869253
 21
442.3819170457
 31
0.0
  0
DIMENSION
  5
17D
330
1F
100
AcDbEntity
  8
MEDIÇÕES
100
AcDbDimension
  2
_D
 10
1004.6553564126
 20
327.8819170456
 30
0.0
 11
793.8093216689
 21
327.8819170456
 31
0.0
 70
   160
  1
<>
 71
     2
 42
-1.0
  3
SLDDIMSTYLE0
100
AcDbAlignedDimension
 13
582.9632869253
 23
437.8819170457
 33
0.0
 14
1004.6553564126
 24
437.8819170457
 34
0.0
100
AcDbRotatedDimension
  0
LINE
  5
188
330
1F
100
AcDbEntity
  8
0
  6
Continuous
 62
     7
370
    15
100
AcDbLine
 10
1475.7369522162
 20
1070.3819170457
 30
0.0
 11
1475.7369522162
 21
445.3819170457
 31
0.0
  0
LINE
  5
189
330
1F
100
AcDbEntity
  8
0
  6
Continuous
 62
     7
370
    15
100
AcDbLine
 10
1800.0892709183
 20
430.3819170457
 30
0.0
 11
1800.7175423157
 21
427.9568377689
 31
0.0
  0
LINE
  5
18A
330
1F
100
AcDbEntity
  8
0
  6
Continuous
 62
     7
370
    15
100
AcDbLine
 10
1816.7563621167
 20
427.9568377689
 30
0.0
 11
1817.3846335141
 21
430.3819170457
 31
0.0
  0
ARC
  5
18B
330
1F
100
AcDbEntity
  8
0
  6
Continuous
 62
     7
370
    15
100
AcDbCircle
 10
1816.6595580368
 20
427.9819170457
 30
0.0
 40
0.1000000000001393
100
AcDbArc
 50
270.0
 51
345.4755709219
  0
ARC
  5
18C
330
1F
100
AcDbEntity
  8
0
  6
Continuous
 62
     7
370
    15
100
AcDbCircle
 10
1800.8143463955
 20
427.9819170457
 30
0.0
 40
0.1000000000000796
100
AcDbArc
 50
194.5244290781
 51
270.0
  0
LINE
  5
18D
330
1F
100
AcDbEntity
  8
0
  6
Continuous
 62
     7
370
    15
100
AcDbLine
 10
1676.0892709182
 20
430.3819170457
 30
0.0
 11
1676.7175423157
 21
427.9568377687
 31
0.0
  0
LINE
  5
18E
330
1F
100
AcDbEntity
  8
0
  6
Continuous
 62
     7
370
    15
100
AcDbLine
 10
1692.7563621167
 20
427.9568377687
 30
0.0
 11
1693.3846335142
 21
430.3819170457
 31
0.0
  0
ARC
  5
18F
330
1F
100
AcDbEntity
  8
0
  6
Continuous
 62
     7
370
    15
100
AcDbCircle
 10
1692.6595580368
 20
427.9819170456
 30
0.0
 40
0.1000000000001393
100
AcDbArc
 50
270.0
 51
345.4755709219
  0
ARC
  5
190
330
1F
100
AcDbEntity
  8
0
  6
Continuous
 62
     7
370
    15
100
AcDbCircle
 10
1676.8143463955
 20
427.9819170456
 30
0.0
 40
0.1000000000000227
100
AcDbArc
 50
194.5244290781
 51
270.0
  0
LINE
  5
191
330
1F
100
AcDbEntity
  8
0
  6
Continuous
 62
     7
370
    15
100
AcDbLine
 10
1698.737012822
 20
1030.9542591181
 30
0.0
 11
1700.5350209637
 21
1031.6363068608
 31
0.0
  0
LINE
  5
192
330
1F
100
AcDbEntity
  8
0
  6
Continuous
 62
     7
370
    15
100
AcDbLine
 10
1700.5350209637
 20
1047.1275272306
 30
0.0
 11
1698.737012822
 21
1047.8095749734
 31
0.0
  0
LINE
  5
193
330
1F
100
AcDbEntity
  8
0
  6
Continuous
 62
     7
370
    15
100
AcDbLine
 10
1696.2904795721
 20
1029.8819170457
 30
0.0
 11
1696.7147436408
 21
1029.8819170457
 31
0.0
  0
LINE
  5
194
330
1F
100
AcDbEntity
  8
0
  6
Continuous
 62
     7
370
    15
100
AcDbLine
 10
1696.7147436408
 20
1048.8819170457
 30
0.0
 11
1696.2904795721
 21
1048.8819170457
 31
0.0
  0
LINE
  5
195
330
1F
100
AcDbEntity
  8
0
  6
Continuous
 62
     7
370
    15
100
AcDbLine
 10
1809.2025150776
 20
1032.9542591181
 30
0.0
 11
1811.0005232192
 21
1033.6363068608
 31
0.0
  0
LINE
  5
196
330
1F
100
AcDbEntity
  8
0
  6
Continuous
 62
     7
370
    15
100
AcDbLine
 10
1811.0005232192
 20
1049.1275272306
 30
0.0
 11
1809.2025150776
 21
1049.8095749734
 31
0.0
  0
LINE
  5
197
330
1F
100
AcDbEntity
  8
0
  6
Continuous
 62
     7
370
    15
100
AcDbLine
 10
1806.7559818276
 20
1031.8819170457
 30
0.0
 11
1807.1802458963
 21
1031.8819170457
 31
0.0
  0
LINE
  5
198
330
1F
100
AcDbEntity
  8
0
  6
Continuous
 62
     7
370
    15
100
AcDbLine
 10
1807.1802458963
 20
1050.8819170457
 30
0.0
 11
1806.7559818276
 21
1050.8819170457
 31
0.0
  0
LINE
  5
199
330
1F
100
AcDbEntity
  8
0
  6
Continuous
 62
     7
370
    15
100
AcDbLine
 10
1810.61672864
 20
467.9542591181
 30
0.0
 11
1812.4147367816
 21
468.6363068608
 31
0.0
  0
LINE
  5
19A
330
1F
100
AcDbEntity
  8
0
  6
Continuous
 62
     7
370
    15
100
AcDbLine
 10
1812.4147367816
 20
484.1275272306
 30
0.0
 11
1810.61672864
 21
484.8095749734
 31
0.0
  0
LINE
  5
19B
330
1F
100
AcDbEntity
  8
0
  6
Continuous
 62
     7
370
    15
100
AcDbLine
 10
1808.17019539
 20
466.8819170457
 30
0.0
 11
1808.5944594587
 21
466.8819170457
 31
0.0
  0
LINE
  5
19C
330
1F
100
AcDbEntity
  8
0
  6
Continuous
 62
     7
370
    15
100
AcDbLine
 10
1808.5944594587
 20
485.8819170457
 30
0.0
 11
1808.17019539
 21
485.8819170457
 31
0.0
  0
LINE
  5
19D
330
1F
100
AcDbEntity
  8
0
  6
Continuous
 62
     7
370
    15
100
AcDbLine
 10
1698.737012822
 20
467.9542591181
 30
0.0
 11
1700.5350209636
 21
468.6363068608
 31
0.0
  0
LINE
  5
19E
330
1F
100
AcDbEntity
  8
0
  6
Continuous
 62
     7
370
    15
100
AcDbLine
 10
1700.5350209636
 20
484.1275272306
 30
0.0
 11
1698.737012822
 21
484.8095749734
 31
0.0
  0
LINE
  5
19F
330
1F
100
AcDbEntity
  8
0
  6
Continuous
 62
     7
370
    15
100
AcDbLine
 10
1696.290479572
 20
466.8819170457
 30
0.0
 11
1696.7147436407
 21
466.8819170457
 31
0.0
  0
LINE
  5
1A0
330
1F
100
AcDbEntity
  8
0
  6
Continuous
 62
     7
370
    15
100
AcDbLine
 10
1696.7147436407
 20
485.8819170457
 30
0.0
 11
1696.290479572
 21
485.8819170457
 31
0.0
  0
LINE
  5
1A1
330
1F
100
AcDbEntity
  8
0
  6
Continuous
 62
     7
370
    15
100
AcDbLine
 10
1499.70595877
 20
430.3819170457
 30
0.0
 11
1500.3342301674
 21
427.956837769
 31
0.0
  0
LINE
  5
1A2
330
1F
100
AcDbEntity
  8
0
  6
Continuous
 62
     7
370
    15
100
AcDbLine
 10
1516.3730499684
 20
427.956837769
 30
0.0
 11
1517.0013213658
 21
430.3819170457
 31
0.0
  0
ARC
  5
1A3
330
1F
100
AcDbEntity
  8
0
  6
Continuous
 62
     7
370
    15
100
AcDbCircle
 10
1516.2762458885
 20
427.9819170458
 30
0.0
 40
0.1000000000001393
100
AcDbArc
 50
270.0
 51
345.4755709219
  0
ARC
  5
1A4
330
1F
100
AcDbEntity
  8
0
  6
Continuous
 62
     7
370
    15
100
AcDbCircle
 10
1500.4310342472
 20
427.9819170458
 30
0.0
 40
0.1000000000000796
100
AcDbArc
 50
194.5244290781
 51
270.0
  0
SPLINE
  5
1A5
330
1F
100
AcDbEntity
  8
0
  6
Continuous
 62
     7
370
    15
100
AcDbSpline
210
0.0
220
0.0
230
1.0
 70
     8
 71
     3
 72
    23
 73
    19
 74
     0
 42
0.00000001
 43
0.00000001
 12
1.0
 22
0.0
 32
0.0
 13
1.0
 23
0.0
 33
0.0
 40
0.0
 40
0.0
 40
0.0
 40
0.0
 40
0.0266196465295421
 40
0.0938808354338499
 40
0.1605936220394782
 40
0.2265744569674705
 40
0.2919572641664404
 40
0.3569026299080376
 40
0.4215741124937589
 40
0.4861324650641344
 40
0.5506971888492731
 40
0.6154215220798617
 40
0.680476359492766
 40
0.7460352591856769
 40
0.8122589225065662
 40
0.8792626601476611
 40
0.9470667406115916
 40
1.0
 40
1.0
 40
1.0
 40
1.0
 10
1563.634212158368
 20
755.8630132152448
 30
0.0
 10
1563.444110626751
 20
755.97709493992
 30
0.0
 10
1562.773670071287
 20
756.3794326497147
 30
0.0
 10
1561.715585939926
 20
757.2444868939282
 30
0.0
 10
1560.581601191114
 20
758.5516744467421
 30
0.0
 10
1559.685030150999
 20
760.050976391171
 30
0.0
 10
1559.05171696241
 20
761.6883573419306
 30
0.0
 10
1558.699311325118
 20
763.4134131821849
 30
0.0
 10
1558.636264372559
 20
765.1725697236417
 30
0.0
 10
1558.862313065542
 20
766.9119245970521
 30
0.0
 10
1559.368254628786
 20
768.578774857993
 30
0.0
 10
1560.136589895777
 20
770.123529525254
 30
0.0
 10
1561.142889012512
 20
771.5017469806636
 30
0.0
 10
1562.357141438436
 20
772.6733654592642
 30
0.0
 10
1563.74492047595
 20
773.6080324837968
 30
0.0
 10
1565.268193431878
 20
774.2655548250215
 30
0.0
 10
1566.761242494309
 20
774.6386020809101
 30
0.0
 10
1567.738641409669
 20
774.6446184516881
 30
0.0
 10
1568.167149362354
 20
774.6472561287758
 30
0.0
  0
SPLINE
  5
1A6
330
1F
100
AcDbEntity
  8
0
  6
Continuous
 62
     7
370
    15
100
AcDbSpline
210
0.0
220
0.0
230
1.0
 70
     8
 71
     3
 72
    14
 73
    10
 74
     0
 42
0.00000001
 43
0.00000001
 12
1.0
 22
0.0
 32
0.0
 13
1.0
 23
0.0
 33
0.0
 40
0.0
 40
0.0
 40
0.0
 40
0.0
 40
0.0136480031524286
 40
0.1858899434053987
 40
0.3581146362901323
 40
0.5303161030605735
 40
0.7024889340245654
 40
0.8746283917235593
 40
1.0
 40
1.0
 40
1.0
 40
1.0
 10
1592.133251466627
 20
745.6358073319587
 30
0.0
 10
1591.996766059538
 20
745.6553860487436
 30
0.0
 10
1590.137793408657
 20
745.9220541110566
 30
0.0
 10
1586.600420257944
 20
746.7279734456449
 30
0.0
 10
1581.547090929009
 20
748.0732820764756
 30
0.0
 10
1576.583586083198
 20
749.7543867326614
 30
0.0
 10
1571.723844834526
 20
751.7285291360442
 30
0.0
 10
1567.404329997752
 20
753.7753520982242
 30
0.0
 10
1564.751935266205
 20
755.2440863882233
 30
0.0
 10
1563.634212158368
 20
755.8630132152448
 30
0.0
  0
LINE
  5
1A7
330
1F
100
AcDbEntity
  8
0
  6
Continuous
 62
     7
370
    15
100
AcDbLine
 10
1605.160727671
 20
772.3819170457
 30
0.0
 11
1606.7136419416
 21
772.3819170457
 31
0.0
  0
SPLINE
  5
1A8
330
1F
100
AcDbEntity
  8
0
  6
Continuous
 62
     7
370
    15
100
AcDbSpline
210
0.0
220
0.0
230
1.0
 70
     8
 71
     3
 72
     9
 73
     5
 74
     0
 42
0.00000001
 43
0.00000001
 12
1.0
 22
0.0
 32
0.0
 13
1.0
 23
0.0
 33
0.0
 40
0.0
 40
0.0
 40
0.0
 40
0.0
 40
0.6371929328896506
 40
1.0
 40
1.0
 40
1.0
 40
1.0
 10
1644.305787144452
 20
774.6131143408775
 30
0.0
 10
1644.519953759464
 20
774.6397053518294
 30
0.0
 10
1644.856063286041
 20
774.6814368425278
 30
0.0
 10
1645.193038137754
 20
774.6569087210671
 30
0.0
 10
1645.315294995393
 20
774.648009745258
 30
0.0
  0
ARC
  5
1A9
330
1F
100
AcDbEntity
  8
0
  6
Continuous
 62
     7
370
    15
100
AcDbCircle
 10
1476.5369522162
 20
1077.5819170457
 30
0.0
 40
7.800000000000182
100
AcDbArc
 50
90.0
 51
180.0
  0
LINE
  5
1AA
330
1F
100
AcDbEntity
  8
0
  6
Continuous
 62
     7
370
    15
100
AcDbLine
 10
1468.7369522162
 20
1077.5819170457
 30
0.0
 11
1468.7369522162
 21
1072.3819170457
 31
0.0
  0
ARC
  5
1AB
330
1F
100
AcDbEntity
  8
0
  6
Continuous
 62
     7
370
    15
100
AcDbCircle
 10
1470.7369522162
 20
1072.3819170457
 30
0.0
 40
2.0
100
AcDbArc
 50
180.0
 51
270.0
  0
ARC
  5
1AC
330
1F
100
AcDbEntity
  8
0
  6
Continuous
 62
     7
370
    15
100
AcDbCircle
 10
1476.2369522162
 20
437.8819170457
 30
0.0
 40
7.5
100
AcDbArc
 50
180.0
 51
270.0
  0
ARC
  5
1AD
330
1F
100
AcDbEntity
  8
0
  6
Continuous
 62
     7
370
    15
100
AcDbCircle
 10
1471.7369522162
 20
442.3819170457
 30
0.0
 40
3.0
100
AcDbArc
 50
90.0
 51
180.0
  0
LINE
  5
1AE
330
1F
100
AcDbEntity
  8
0
  6
Continuous
 62
     7
370
    15
100
AcDbLine
 10
1468.7369522162
 20
442.3819170457
 30
0.0
 11
1468.7369522162
 21
437.8819170457
 31
0.0
  0
LINE
  5
1AF
330
1F
100
AcDbEntity
  8
0
  6
Continuous
 62
     7
370
    15
100
AcDbLine
 10
1519.7369522162
 20
1070.3819170457
 30
0.0
 11
1519.7369522162
 21
445.3819170457
 31
0.0
  0
LINE
  5
1B0
330
1F
100
AcDbEntity
  8
0
  6
Continuous
 62
     7
370
    15
100
AcDbLine
 10
1804.1978854312
 20
427.8819170457
 30
0.0
 11
1800.8143463955
 21
427.8819170457
 31
0.0
  0
LINE
  5
1B1
330
1F
100
AcDbEntity
  8
0
  6
Continuous
 62
     7
370
    15
100
AcDbLine
 10
1816.6595580368
 20
427.8819170457
 30
0.0
 11
1804.1978854312
 21
427.8819170457
 31
0.0
  0
LINE
  5
1B2
330
1F
100
AcDbEntity
  8
0
  6
Continuous
 62
     7
370
    15
100
AcDbLine
 10
1680.1978854312
 20
427.8819170456
 30
0.0
 11
1676.8143463955
 21
427.8819170456
 31
0.0
  0
LINE
  5
1B3
330
1F
100
AcDbEntity
  8
0
  6
Continuous
 62
     7
370
    15
100
AcDbLine
 10
1692.6595580368
 20
427.8819170456
 30
0.0
 11
1680.1978854312
 21
427.8819170456
 31
0.0
  0
LINE
  5
1B4
330
1F
100
AcDbEntity
  8
0
  6
Continuous
 62
     7
370
    15
100
AcDbLine
 10
1702.0503978668
 20
1046.2007758371
 30
0.0
 11
1702.8636885548
 21
1045.337166092
 31
0.0
  0
LWPOLYLINE
  5
1B5
330
1F
100
AcDbEntity
  8
0
  6
Continuous
 62
     7
370
    15
100
AcDbPolyline
 90
       21
 70
   128
 43
0.0
 10
1700.5350209637
 20
1031.6363068608
 10
1699.4855457146
 20
1031.3844937089
 10
1698.3006287773
 20
1031.43587627
 10
1697.1491591646
 20
1031.8345389425
 10
1696.081461624
 20
1032.5630582543
 10
1695.1441996614
 20
1033.5895944159
 10
1694.3783361219
 20
1034.869282871
 10
1693.8173429174
 20
1036.3461950936
 10
1693.4857381428
 20
1037.9557829325
 10
1693.398014518
 20
1039.6276996755
 10
1693.5580059862
 20
1041.2888745382
 10
1693.9587201527
 20
1042.8667062079
 10
1694.5826438855
 20
1044.2922358693
 10
1695.4025087236
 20
1045.5031610358
 10
1696.3824826393
 20
1046.4465584669
 10
1697.4797360702
 20
1047.081197168
 10
1698.6463137762
 20
1047.3793403826
 10
1699.8312307135
 20
1047.3279578214
 10
1700.9827003262
 20
1046.929295149
 10
1702.0503978668
 20
1046.2007758371
 10
1702.0503978668
 20
1046.2007758371
  0
LWPOLYLINE
  5
1B6
330
1F
100
AcDbEntity
  8
0
  6
Continuous
 62
     7
370
    15
100
AcDbPolyline
 90
       30
 70
   128
 43
0.0
 10
1696.1704647536
 20
1032.6453702148
 10
1697.2634003394
 20
1031.9064989768
 10
1698.4430973401
 20
1031.5171699795
 10
1699.6543944353
 20
1031.4955878139
 10
1700.8406527189
 20
1031.8427616381
 10
1701.9464040721
 20
1032.54245799
 10
1702.9199447907
 20
1033.5619598459
 10
1703.7157531925
 20
1034.853596432
 10
1704.2966181611
 20
1036.3569722572
 10
1704.6353790964
 20
1038.0017911386
 10
1704.7161959133
 20
1039.7111431736
 10
1704.5352897074
 20
1041.4051009608
 10
1704.1011194518
 20
1043.0044569167
 10
1703.4339864652
 20
1044.4344269344
 10
1702.5650851444
 20
1045.6281472051
 10
1701.5350443496
 20
1046.5298006958
 10
1700.3920276434
 20
1047.0972270913
 10
1699.1894812168
 20
1047.3038941641
 10
1697.9836348041
 20
1047.1401383914
 10
1696.8308724433
 20
1046.6136168112
 10
1695.7850960212
 20
1045.7489489875
 10
1694.895204881
 20
1044.5865658266
 10
1694.2028093435
 20
1043.1808190733
 10
1693.7402850543
 20
1041.5974398833
 10
1693.5292591353
 20
1039.9104653079
 10
1693.5795989238
 20
1038.1987764031
 10
1693.8889505872
 20
1036.5424098398
 10
1694.4428491856
 20
1035.0188154776
 10
1695.2153950362
 20
1033.6992348954
 10
1696.1704647536
 20
1032.6453702148
  0
LINE
  5
1B7
330
1F
100
AcDbEntity
  8
0
  6
Continuous
 62
     7
370
    15
100
AcDbLine
 10
1700.2502216254
 20
1047.459713208
 30
0.0
 11
1700.6484196025
 21
1047.082721345
 31
0.0
  0
ARC
  5
1B8
330
1F
100
AcDbEntity
  8
0
  6
Continuous
 62
     7
370
    15
100
AcDbCircle
 10
1696.7347036297
 20
1035.179802064
 30
0.0
 40
5.258766653089668
100
AcDbArc
 50
227.8073262841
 51
320.1945874442
  0
ARC
  5
1B9
330
1F
100
AcDbEntity
  8
0
  6
Continuous
 62
     7
370
    15
100
AcDbCircle
 10
1696.7154159603
 20
1043.6571901265
 30
0.0
 40
5.19172734990955
100
AcDbArc
 50
47.089626488
 51
132.5772232133
  0
LWPOLYLINE
  5
1BA
330
1F
100
AcDbEntity
  8
0
  6
Continuous
 62
     7
370
    15
100
AcDbPolyline
 90
        3
 70
   128
 43
0.0
 10
1694.5227126199
 20
1030.2167656555
 10
1695.2099597148
 20
1030.0056196061
 10
1696.2904795721
 20
1029.8819170457
  0
ARC
  5
1BB
330
1F
100
AcDbEntity
  8
0
  6
Continuous
 62
     7
370
    15
100
AcDbCircle
 10
1696.3043002389
 20
1043.9752414185
 30
0.0
 40
4.906695091607406
100
AcDbArc
 50
90.1613849878
 51
111.2902819537
  0
LINE
  5
1BC
330
1F
100
AcDbEntity
  8
0
  6
Continuous
 62
     7
370
    15
100
AcDbLine
 10
1812.5159001223
 20
1048.2007758371
 30
0.0
 11
1813.3291908104
 21
1047.337166092
 31
0.0
  0
LWPOLYLINE
  5
1BD
330
1F
100
AcDbEntity
  8
0
  6
Continuous
 62
     7
370
    15
100
AcDbPolyline
 90
       21
 70
   128
 43
0.0
 10
1811.0005232192
 20
1033.6363068608
 10
1809.9510479702
 20
1033.3844937089
 10
1808.7661310329
 20
1033.43587627
 10
1807.6146614202
 20
1033.8345389425
 10
1806.5469638796
 20
1034.5630582543
 10
1805.6097019169
 20
1035.5895944159
 10
1804.8438383775
 20
1036.869282871
 10
1804.282845173
 20
1038.3461950936
 10
1803.9512403984
 20
1039.9557829325
 10
1803.8635167735
 20
1041.6276996755
 10
1804.0235082418
 20
1043.2888745382
 10
1804.4242224083
 20
1044.8667062079
 10
1805.0481461411
 20
1046.2922358693
 10
1805.8680109791
 20
1047.5031610358
 10
1806.8479848949
 20
1048.4465584669
 10
1807.9452383258
 20
1049.081197168
 10
1809.1118160317
 20
1049.3793403826
 10
1810.296732969
 20
1049.3279578214
 10
1811.4482025817
 20
1048.929295149
 10
1812.5159001223
 20
1048.2007758371
 10
1812.5159001223
 20
1048.2007758371
  0
LWPOLYLINE
  5
1BE
330
1F
100
AcDbEntity
  8
0
  6
Continuous
 62
     7
370
    15
100
AcDbPolyline
 90
       30
 70
   128
 43
0.0
 10
1806.6359670092
 20
1034.6453702148
 10
1807.7289025949
 20
1033.9064989768
 10
1808.9085995957
 20
1033.5171699795
 10
1810.1198966908
 20
1033.4955878139
 10
1811.3061549745
 20
1033.8427616381
 10
1812.4119063277
 20
1034.54245799
 10
1813.3854470462
 20
1035.5619598459
 10
1814.181255448
 20
1036.853596432
 10
1814.7621204167
 20
1038.3569722572
 10
1815.1008813519
 20
1040.0017911386
 10
1815.1816981689
 20
1041.7111431736
 10
1815.000791963
 20
1043.4051009608
 10
1814.5666217074
 20
1045.0044569167
 10
1813.8994887207
 20
1046.4344269344
 10
1813.0305873999
 20
1047.6281472051
 10
1812.0005466051
 20
1048.5298006958
 10
1810.857529899
 20
1049.0972270913
 10
1809.6549834724
 20
1049.3038941641
 10
1808.4491370596
 20
1049.1401383914
 10
1807.2963746988
 20
1048.6136168112
 10
1806.2505982768
 20
1047.7489489875
 10
1805.3607071366
 20
1046.5865658266
 10
1804.6683115991
 20
1045.1808190733
 10
1804.2057873099
 20
1043.5974398833
 10
1803.9947613909
 20
1041.9104653079
 10
1804.0451011793
 20
1040.1987764031
 10
1804.3544528428
 20
1038.5424098398
 10
1804.9083514412
 20
1037.0188154776
 10
1805.6808972918
 20
1035.6992348954
 10
1806.6359670092
 20
1034.6453702148
  0
LINE
  5
1BF
330
1F
100
AcDbEntity
  8
0
  6
Continuous
 62
     7
370
    15
100
AcDbLine
 10
1810.715723881
 20
1049.459713208
 30
0.0
 11
1811.0369522162
 21
1049.1601965936
 31
0.0
  0
ARC
  5
1C0
330
1F
100
AcDbEntity
  8
0
  6
Continuous
 62
     7
370
    15
100
AcDbCircle
 10
1807.2002058881
 20
1037.1798020566
 30
0.0
 40
5.258766646568974
100
AcDbArc
 50
227.8073276358
 51
320.1945875575
  0
ARC
  5
1C1
330
1F
100
AcDbEntity
  8
0
  6
Continuous
 62
     7
370
    15
100
AcDbCircle
 10
1807.180918219
 20
1045.6571901392
 30
0.0
 40
5.191727338463267
100
AcDbArc
 50
47.0896264179
 51
132.577221712
  0
LWPOLYLINE
  5
1C2
330
1F
100
AcDbEntity
  8
0
  6
Continuous
 62
     7
370
    15
100
AcDbPolyline
 90
        3
 70
   128
 43
0.0
 10
1804.9882148819
 20
1032.216765653
 10
1805.6754619704
 20
1032.0056196061
 10
1806.7559818276
 20
1031.8819170457
  0
ARC
  5
1C3
330
1F
100
AcDbEntity
  8
0
  6
Continuous
 62
     7
370
    15
100
AcDbCircle
 10
1806.7698024944
 20
1045.9752414193
 30
0.0
 40
4.906695090719503
100
AcDbArc
 50
90.1613849867
 51
111.2902818643
  0
LINE
  5
1C4
330
1F
100
AcDbEntity
  8
0
  6
Continuous
 62
     7
370
    15
100
AcDbLine
 10
1813.9301136847
 20
483.2007758371
 30
0.0
 11
1814.7434043727
 21
482.337166092
 31
0.0
  0
LWPOLYLINE
  5
1C5
330
1F
100
AcDbEntity
  8
0
  6
Continuous
 62
     7
370
    15
100
AcDbPolyline
 90
       21
 70
   128
 43
0.0
 10
1812.4147367816
 20
468.6363068608
 10
1811.3652615326
 20
468.3844937089
 10
1810.1803445953
 20
468.43587627
 10
1809.0288749826
 20
468.8345389425
 10
1807.961177442
 20
469.5630582543
 10
1807.0239154793
 20
470.5895944159
 10
1806.2580519399
 20
471.869282871
 10
1805.6970587354
 20
473.3461950936
 10
1805.3654539608
 20
474.9557829325
 10
1805.2777303359
 20
476.6276996755
 10
1805.4377218042
 20
478.2888745382
 10
1805.8384359706
 20
479.8667062079
 10
1806.4623597034
 20
481.2922358693
 10
1807.2822245415
 20
482.5031610358
 10
1808.2621984573
 20
483.4465584669
 10
1809.3594518882
 20
484.081197168
 10
1810.5260295941
 20
484.3793403826
 10
1811.7109465314
 20
484.3279578214
 10
1812.8624161441
 20
483.929295149
 10
1813.9301136847
 20
483.2007758371
 10
1813.9301136847
 20
483.2007758371
  0
LWPOLYLINE
  5
1C6
330
1F
100
AcDbEntity
  8
0
  6
Continuous
 62
     7
370
    15
100
AcDbPolyline
 90
       30
 70
   128
 43
0.0
 10
1808.0501805716
 20
469.6453702148
 10
1809.1431161573
 20
468.9064989768
 10
1810.322813158
 20
468.5171699795
 10
1811.5341102532
 20
468.4955878139
 10
1812.7203685368
 20
468.8427616381
 10
1813.8261198901
 20
469.54245799
 10
1814.7996606086
 20
470.5619598459
 10
1815.5954690104
 20
471.853596432
 10
1816.1763339791
 20
473.3569722572
 10
1816.5150949143
 20
475.0017911386
 10
1816.5959117312
 20
476.7111431736
 10
1816.4150055254
 20
478.4051009608
 10
1815.9808352698
 20
480.0044569167
 10
1815.3137022831
 20
481.4344269344
 10
1814.4448009623
 20
482.6281472051
 10
1813.4147601675
 20
483.5298006958
 10
1812.2717434614
 20
484.0972270913
 10
1811.0691970347
 20
484.3038941641
 10
1809.863350622
 20
484.1401383914
 10
1808.7105882612
 20
483.6136168112
 10
1807.6648118391
 20
482.7489489875
 10
1806.774920699
 20
481.5865658266
 10
1806.0825251614
 20
480.1808190733
 10
1805.6200008723
 20
478.5974398833
 10
1805.4089749532
 20
476.9104653079
 10
1805.4593147417
 20
475.1987764031
 10
1805.7686664051
 20
473.5424098398
 10
1806.3225650036
 20
472.0188154776
 10
1807.0951108542
 20
470.6992348954
 10
1808.0501805716
 20
469.6453702148
  0
LINE
  5
1C7
330
1F
100
AcDbEntity
  8
0
  6
Continuous
 62
     7
370
    15
100
AcDbLine
 10
1812.1299374434
 20
484.459713208
 30
0.0
 11
1812.5369522162
 21
484.0736984853
 31
0.0
  0
ARC
  5
1C8
330
1F
100
AcDbEntity
  8
0
  6
Continuous
 62
     7
370
    15
100
AcDbCircle
 10
1808.6144194479
 20
472.1798020621
 30
0.0
 40
5.25876665135677
100
AcDbArc
 50
227.8073264971
 51
320.1945873971
  0
ARC
  5
1C9
330
1F
100
AcDbEntity
  8
0
  6
Continuous
 62
     7
370
    15
100
AcDbCircle
 10
1808.5951317786
 20
480.6571901282
 30
0.0
 40
5.191727348432228
100
AcDbArc
 50
47.0896264789
 51
132.5772230197
  0
LWPOLYLINE
  5
1CA
330
1F
100
AcDbEntity
  8
0
  6
Continuous
 62
     7
370
    15
100
AcDbPolyline
 90
        3
 70
   128
 43
0.0
 10
1806.4024284033
 20
467.2167656688
 10
1807.0896755327
 20
467.0056196061
 10
1808.17019539
 20
466.8819170457
  0
ARC
  5
1CB
330
1F
100
AcDbEntity
  8
0
  6
Continuous
 62
     7
370
    15
100
AcDbCircle
 10
1808.1840160572
 20
480.9752414148
 30
0.0
 40
4.906695095234553
100
AcDbArc
 50
90.1613849921
 51
111.2902823241
  0
LINE
  5
1CC
330
1F
100
AcDbEntity
  8
0
  6
Continuous
 62
     7
370
    15
100
AcDbLine
 10
1702.0503978668
 20
483.2007758371
 30
0.0
 11
1702.8636885548
 21
482.337166092
 31
0.0
  0
LWPOLYLINE
  5
1CD
330
1F
100
AcDbEntity
  8
0
  6
Continuous
 62
     7
370
    15
100
AcDbPolyline
 90
       21
 70
   128
 43
0.0
 10
1700.5350209636
 20
468.6363068608
 10
1699.4855457146
 20
468.3844937089
 10
1698.3006287773
 20
468.43587627
 10
1697.1491591646
 20
468.8345389425
 10
1696.081461624
 20
469.5630582543
 10
1695.1441996613
 20
470.5895944159
 10
1694.3783361219
 20
471.869282871
 10
1693.8173429174
 20
473.3461950936
 10
1693.4857381428
 20
474.9557829325
 10
1693.3980145179
 20
476.6276996755
 10
1693.5580059862
 20
478.2888745382
 10
1693.9587201527
 20
479.8667062079
 10
1694.5826438855
 20
481.2922358693
 10
1695.4025087235
 20
482.5031610358
 10
1696.3824826393
 20
483.4465584669
 10
1697.4797360702
 20
484.081197168
 10
1698.6463137761
 20
484.3793403826
 10
1699.8312307134
 20
484.3279578214
 10
1700.9827003261
 20
483.929295149
 10
1702.0503978668
 20
483.2007758371
 10
1702.0503978668
 20
483.2007758371
  0
LWPOLYLINE
  5
1CE
330
1F
100
AcDbEntity
  8
0
  6
Continuous
 62
     7
370
    15
100
AcDbPolyline
 90
       30
 70
   128
 43
0.0
 10
1696.1704647536
 20
469.6453702148
 10
1697.2634003393
 20
468.9064989768
 10
1698.4430973401
 20
468.5171699795
 10
1699.6543944352
 20
468.4955878139
 10
1700.8406527189
 20
468.8427616381
 10
1701.9464040721
 20
469.54245799
 10
1702.9199447906
 20
470.5619598459
 10
1703.7157531924
 20
471.853596432
 10
1704.2966181611
 20
473.3569722572
 10
1704.6353790963
 20
475.0017911386
 10
1704.7161959133
 20
476.7111431736
 10
1704.5352897074
 20
478.4051009608
 10
1704.1011194518
 20
480.0044569167
 10
1703.4339864651
 20
481.4344269344
 10
1702.5650851444
 20
482.6281472051
 10
1701.5350443495
 20
483.5298006958
 10
1700.3920276434
 20
484.0972270913
 10
1699.1894812168
 20
484.3038941641
 10
1697.983634804
 20
484.1401383914
 10
1696.8308724432
 20
483.6136168112
 10
1695.7850960212
 20
482.7489489875
 10
1694.895204881
 20
481.5865658266
 10
1694.2028093435
 20
480.1808190733
 10
1693.7402850543
 20
478.5974398833
 10
1693.5292591353
 20
476.9104653079
 10
1693.5795989237
 20
475.1987764031
 10
1693.8889505872
 20
473.5424098398
 10
1694.4428491856
 20
472.0188154776
 10
1695.2153950362
 20
470.6992348954
 10
1696.1704647536
 20
469.6453702148
  0
LINE
  5
1CF
330
1F
100
AcDbEntity
  8
0
  6
Continuous
 62
     7
370
    15
100
AcDbLine
 10
1700.2502216254
 20
484.459713208
 30
0.0
 11
1700.6484196025
 21
484.082721345
 31
0.0
  0
ARC
  5
1D0
330
1F
100
AcDbEntity
  8
0
  6
Continuous
 62
     7
370
    15
100
AcDbCircle
 10
1696.7347036299
 20
472.1798020634
 30
0.0
 40
5.258766652549899
100
AcDbArc
 50
227.8073263913
 51
320.1945874511
  0
ARC
  5
1D1
330
1F
100
AcDbEntity
  8
0
  6
Continuous
 62
     7
370
    15
100
AcDbCircle
 10
1696.7154159605
 20
480.6571901273
 30
0.0
 40
5.191727349169647
100
AcDbArc
 50
47.0896264835
 51
132.5772231163
  0
LWPOLYLINE
  5
1D2
330
1F
100
AcDbEntity
  8
0
  6
Continuous
 62
     7
370
    15
100
AcDbPolyline
 90
        3
 70
   128
 43
0.0
 10
1694.5227126184
 20
467.2167656561
 10
1695.2099597148
 20
467.0056196061
 10
1696.290479572
 20
466.8819170457
  0
ARC
  5
1D3
330
1F
100
AcDbEntity
  8
0
  6
Continuous
 62
     7
370
    15
100
AcDbCircle
 10
1696.3043002389
 20
480.9752414183
 30
0.0
 40
4.906695091766386
100
AcDbArc
 50
90.161384988
 51
111.2902819714
  0
LINE
  5
1D4
330
1F
100
AcDbEntity
  8
0
  6
Continuous
 62
     7
370
    15
100
AcDbLine
 10
1503.8145732829
 20
427.8819170458
 30
0.0
 11
1500.4310342472
 21
427.8819170458
 31
0.0
  0
LINE
  5
1D5
330
1F
100
AcDbEntity
  8
0
  6
Continuous
 62
     7
370
    15
100
AcDbLine
 10
1516.2762458885
 20
427.8819170458
 30
0.0
 11
1503.8145732829
 21
427.8819170458
 31
0.0
  0
LWPOLYLINE
  5
1D6
330
1F
100
AcDbEntity
  8
0
  6
Continuous
 62
     7
370
    15
100
AcDbPolyline
 90
       24
 70
   128
 43
0.0
 10
1606.8333359068
 20
1051.8517988193
 10
1606.6425277354
 20
1050.4124941203
 10
1606.8180473695
 20
1048.9711056442
 10
1607.3479334361
 20
1047.6258616336
 10
1608.1960750756
 20
1046.4684382447
 10
1609.3046728366
 20
1045.5777119688
 10
1610.598177614
 20
1045.0143843296
 10
1611.9884391947
 20
1044.8168451747
 10
1613.3807135495
 20
1044.9985564711
 10
1614.680119482
 20
1045.5471348943
 10
1615.7981046252
 20
1046.4251957312
 10
1616.6584801393
 20
1047.5729005869
 10
1617.2026128547
 20
1048.9120352721
 10
1617.3934210261
 20
1050.3513399711
 10
1617.2179013919
 20
1051.7927284473
 10
1616.6880153253
 20
1053.1379724579
 10
1615.8398736859
 20
1054.2953958467
 10
1614.7312759248
 20
1055.1861221226
 10
1613.4377711474
 20
1055.7494497618
 10
1612.0475095667
 20
1055.9469889167
 10
1610.6552352119
 20
1055.7652776203
 10
1609.3558292794
 20
1055.2166991972
 10
1608.2378441362
 20
1054.3386383603
 10
1607.4085369702
 20
1053.2452345112
  0
LINE
  5
1D7
330
1F
100
AcDbEntity
  8
0
  6
Continuous
 62
     7
370
    15
100
AcDbLine
 10
1609.3162618108
 20
1051.1478717181
 30
0.0
 11
1610.0263845244
 21
1048.3426051589
 31
0.0
  0
LINE
  5
1D8
330
1F
100
AcDbEntity
  8
0
  6
Continuous
 62
     7
370
    15
100
AcDbLine
 10
1610.0263845244
 20
1048.3426051589
 30
0.0
 11
1612.7280970942
 21
1047.5766504865
 31
0.0
  0
LINE
  5
1D9
330
1F
100
AcDbEntity
  8
0
  6
Continuous
 62
     7
370
    15
100
AcDbLine
 10
1614.7196869506
 20
1049.6159623733
 30
0.0
 11
1612.7280970942
 21
1047.5766504865
 31
0.0
  0
LINE
  5
1DA
330
1F
100
AcDbEntity
  8
0
  6
Continuous
 62
     7
370
    15
100
AcDbLine
 10
1614.0095642371
 20
1052.4212289325
 30
0.0
 11
1614.7196869506
 21
1049.6159623733
 31
0.0
  0
LINE
  5
1DB
330
1F
100
AcDbEntity
  8
0
  6
Continuous
 62
     7
370
    15
100
AcDbLine
 10
1611.3078516672
 20
1053.1871836049
 30
0.0
 11
1614.0095642371
 21
1052.4212289325
 31
0.0
  0
LINE
  5
1DC
330
1F
100
AcDbEntity
  8
0
  6
Continuous
 62
     7
370
    15
100
AcDbLine
 10
1611.3078516672
 20
1053.1871836049
 30
0.0
 11
1609.3162618108
 21
1051.1478717181
 31
0.0
  0
LINE
  5
1DD
330
1F
100
AcDbEntity
  8
0
  6
Continuous
 62
     7
370
    15
100
AcDbLine
 10
1613.2331071018
 20
1052.4212289325
 30
0.0
 11
1614.0095642371
 21
1052.4212289325
 31
0.0
  0
LINE
  5
1DE
330
1F
100
AcDbEntity
  8
0
  6
Continuous
 62
     7
370
    15
100
AcDbLine
 10
1611.1394873493
 20
1053.014784979
 30
0.0
 11
1613.2331071018
 21
1052.4212289325
 31
0.0
  0
LINE
  5
1DF
330
1F
100
AcDbEntity
  8
0
  6
Continuous
 62
     7
370
    15
100
AcDbLine
 10
1613.9432298153
 20
1049.6159623733
 30
0.0
 11
1612.1200042768
 21
1047.7490491125
 31
0.0
  0
LINE
  5
1E0
330
1F
100
AcDbEntity
  8
0
  6
Continuous
 62
     7
370
    15
100
AcDbLine
 10
1613.9432298153
 20
1049.6159623733
 30
0.0
 11
1614.7196869506
 21
1049.6159623733
 31
0.0
  0
LINE
  5
1E1
330
1F
100
AcDbEntity
  8
0
  6
Continuous
 62
     7
370
    15
100
AcDbLine
 10
1613.2331071018
 20
1052.4212289325
 30
0.0
 11
1613.9432298153
 21
1049.6159623733
 31
0.0
  0
LWPOLYLINE
  5
1E2
330
1F
100
AcDbEntity
  8
0
  6
Continuous
 62
     7
370
    15
100
AcDbPolyline
 90
       17
 70
   128
 43
0.0
 10
1611.5779202349
 20
1050.2498558953
 10
1611.4936467819
 20
1050.0753614337
 10
1611.3512874657
 20
1049.9475372851
 10
1611.1725152019
 20
1049.8858435174
 10
1610.984546447
 20
1049.8996724475
 10
1610.81599774
 20
1049.986918746
 10
1610.6925290937
 20
1050.1342999551
 10
1610.6329374901
 20
1050.3193786215
 10
1610.6462952108
 20
1050.5139781961
 10
1610.7305686639
 20
1050.6884726577
 10
1610.87292798
 20
1050.8162968063
 10
1611.0517002438
 20
1050.877990574
 10
1611.2396689987
 20
1050.864161644
 10
1611.4082177057
 20
1050.7769153454
 10
1611.5316863521
 20
1050.6295341363
 10
1611.5912779556
 20
1050.4444554699
 10
1611.5779202349
 20
1050.2498558953
  0
LWPOLYLINE
  5
1E3
330
1F
100
AcDbEntity
  8
0
  6
Continuous
 62
     7
370
    15
100
AcDbPolyline
 90
       24
 70
   128
 43
0.0
 10
1606.7196870814
 20
481.3219402113
 10
1606.6652160518
 20
479.8702378955
 10
1606.9755266565
 20
478.4534056683
 10
1607.6294717405
 20
477.1679983043
 10
1608.5824860271
 20
476.1016141914
 10
1609.7696231677
 20
475.3269256445
 10
1611.1099817278
 20
474.8967264077
 10
1612.5122184867
 20
474.8403338483
 10
1613.8807733265
 20
475.1615910258
 10
1615.1223814966
 20
475.8386047946
 10
1616.152429452
 20
476.8252377852
 10
1616.9007211269
 20
478.0542525896
 10
1617.3162616801
 20
479.4418938801
 10
1617.3707327097
 20
480.8935961959
 10
1617.060422105
 20
482.3104284232
 10
1616.4064770209
 20
483.5958357871
 10
1615.4534627343
 20
484.6622199
 10
1614.2663255938
 20
485.436908447
 10
1612.9259670337
 20
485.8671076837
 10
1611.5237302748
 20
485.9235002432
 10
1610.1551754349
 20
485.6022430656
 10
1608.9135672648
 20
484.9252292968
 10
1607.8835193094
 20
483.9385963062
 10
1607.161038834
 20
482.7667574804
  0
LINE
  5
1E4
330
1F
100
AcDbEntity
  8
0
  6
Continuous
 62
     7
370
    15
100
AcDbLine
 10
1609.2570394636
 20
480.871762657
 30
0.0
 11
1610.227743082
 21
478.1514533244
 31
0.0
  0
LINE
  5
1E5
330
1F
100
AcDbEntity
  8
0
  6
Continuous
 62
     7
370
    15
100
AcDbLine
 10
1610.227743082
 20
478.1514533244
 30
0.0
 11
1612.9886779992
 21
477.6616077131
 31
0.0
  0
LINE
  5
1E6
330
1F
100
AcDbEntity
  8
0
  6
Continuous
 62
     7
370
    15
100
AcDbLine
 10
1614.7789092979
 20
479.8920714345
 30
0.0
 11
1612.9886779992
 21
477.6616077131
 31
0.0
  0
LINE
  5
1E7
330
1F
100
AcDbEntity
  8
0
  6
Continuous
 62
     7
370
    15
100
AcDbLine
 10
1613.8082056794
 20
482.612380767
 30
0.0
 11
1614.7789092979
 21
479.8920714345
 31
0.0
  0
LINE
  5
1E8
330
1F
100
AcDbEntity
  8
0
  6
Continuous
 62
     7
370
    15
100
AcDbLine
 10
1611.0472707623
 20
483.1022263783
 30
0.0
 11
1613.8082056794
 21
482.612380767
 31
0.0
  0
LINE
  5
1E9
330
1F
100
AcDbEntity
  8
0
  6
Continuous
 62
     7
370
    15
100
AcDbLine
 10
1611.0472707623
 20
483.1022263783
 30
0.0
 11
1609.2570394636
 21
480.871762657
 31
0.0
  0
LINE
  5
1EA
330
1F
100
AcDbEntity
  8
0
  6
Continuous
 62
     7
370
    15
100
AcDbLine
 10
1613.0317485441
 20
482.612380767
 30
0.0
 11
1613.8082056794
 21
482.612380767
 31
0.0
  0
LINE
  5
1EB
330
1F
100
AcDbEntity
  8
0
  6
Continuous
 62
     7
370
    15
100
AcDbLine
 10
1610.9504841148
 20
482.9816391078
 30
0.0
 11
1613.0317485441
 21
482.612380767
 31
0.0
  0
LINE
  5
1EC
330
1F
100
AcDbEntity
  8
0
  6
Continuous
 62
     7
370
    15
100
AcDbLine
 10
1614.0024521625
 20
479.8920714345
 30
0.0
 11
1612.3090075113
 21
477.7821949836
 31
0.0
  0
LINE
  5
1ED
330
1F
100
AcDbEntity
  8
0
  6
Continuous
 62
     7
370
    15
100
AcDbLine
 10
1614.0024521625
 20
479.8920714345
 30
0.0
 11
1614.7789092979
 21
479.8920714345
 31
0.0
  0
LINE
  5
1EE
330
1F
100
AcDbEntity
  8
0
  6
Continuous
 62
     7
370
    15
100
AcDbLine
 10
1613.0317485441
 20
482.612380767
 30
0.0
 11
1614.0024521625
 21
479.8920714345
 31
0.0
  0
LWPOLYLINE
  5
1EF
330
1F
100
AcDbEntity
  8
0
  6
Continuous
 62
     7
370
    15
100
AcDbPolyline
 90
       17
 70
   128
 43
0.0
 10
1611.5881309844
 20
480.2974609058
 10
1611.5206771819
 20
480.1152974028
 10
1611.3910223828
 20
479.9737243234
 10
1611.2189053552
 20
479.8942948858
 10
1611.0305293562
 20
479.8891015017
 10
1610.854572924
 20
479.9589348168
 10
1610.7178238303
 20
480.0931633419
 10
1610.6411008851
 20
480.2713520008
 10
1610.6360844613
 20
480.4663731856
 10
1610.7035382639
 20
480.6485366886
 10
1610.8331930629
 20
480.790109768
 10
1611.0053100905
 20
480.8695392056
 10
1611.1936860895
 20
480.8747325897
 10
1611.3696425218
 20
480.8048992747
 10
1611.5063916154
 20
480.6706707496
 10
1611.5831145606
 20
480.4924820906
 10
1611.5881309844
 20
480.2974609058
  0
LINE
  5
1F0
330
1F
100
AcDbEntity
  8
0
  6
Continuous
 62
     7
370
    15
100
AcDbLine
 10
1642.7476129833
 20
752.9276042223
 30
0.0
 11
1643.3885351416
 21
753.2899115942
 31
0.0
  0
LINE
  5
1F1
330
1F
100
AcDbEntity
  8
0
  6
Continuous
 62
     7
370
    15
100
AcDbLine
 10
1649.8843203368
 20
764.6751440314
 30
0.0
 11
1649.8843203368
 21
772.4400647653
 31
0.0
  0
ARC
  5
1F2
330
1F
100
AcDbEntity
  8
0
  6
Continuous
 62
     7
370
    15
100
AcDbCircle
 10
1636.8101715138
 20
764.5888472327
 30
0.0
 40
13.07443362379227
100
AcDbArc
 50
300.2084311479
 51
0.3781791546
  0
LINE
  5
1F3
330
1F
100
AcDbEntity
  8
0
  6
Continuous
 62
     7
370
    15
100
AcDbLine
 10
1829.1279884763
 20
447.3819170457
 30
0.0
 11
1829.7369522162
 21
447.3819170457
 31
0.0
  0
ARC
  5
1F4
330
1F
100
AcDbEntity
  8
0
  6
Continuous
 62
     7
370
    15
100
AcDbCircle
 10
1827.7369522162
 20
447.3819170457
 30
0.0
 40
2.000000000000057
100
AcDbArc
 50
270.0
 51
0.0
  0
LINE
  5
1F5
330
1F
100
AcDbEntity
  8
0
  6
Continuous
 62
     7
370
    15
100
AcDbLine
 10
1827.7369522162
 20
445.3819170457
 30
0.0
 11
1827.2802294113
 21
445.3819170457
 31
0.0
  0
ARC
  5
1F6
330
1F
100
AcDbEntity
  8
0
  6
Continuous
 62
     7
370
    15
100
AcDbCircle
 10
1827.2009730774
 20
447.308693741
 30
0.0
 40
1.928406077568021
100
AcDbArc
 50
272.3554856445
 51
2.1760951537
  0
LINE
  5
1F7
330
1F
100
AcDbEntity
  8
0
  6
Continuous
 62
     7
370
    15
100
AcDbLine
 10
1829.7369522162
 20
1068.3819170457
 30
0.0
 11
1829.1279884763
 21
1068.3819170457
 31
0.0
  0
ARC
  5
1F8
330
1F
100
AcDbEntity
  8
0
  6
Continuous
 62
     7
370
    15
100
AcDbCircle
 10
1827.2009730774
 20
1068.4551403504
 30
0.0
 40
1.928406077568015
100
AcDbArc
 50
357.8239048463
 51
87.6445143555
  0
LINE
  5
1F9
330
1F
100
AcDbEntity
  8
0
  6
Continuous
 62
     7
370
    15
100
AcDbLine
 10
1827.2802294113
 20
1070.3819170457
 30
0.0
 11
1827.7369522162
 21
1070.3819170457
 31
0.0
  0
ARC
  5
1FA
330
1F
100
AcDbEntity
  8
0
  6
Continuous
 62
     7
370
    15
100
AcDbCircle
 10
1827.7369522162
 20
1068.3819170457
 30
0.0
 40
2.000000000000227
100
AcDbArc
 50
0.0
 51
90.0
  0
LINE
  5
1FB
330
1F
100
AcDbEntity
  8
0
  6
Continuous
 62
     7
370
    15
100
AcDbLine
 10
1829.1279884763
 20
447.3819170457
 30
0.0
 11
1829.1279884763
 21
1068.3819170457
 31
0.0
  0
LINE
  5
1FC
330
1F
100
AcDbEntity
  8
0
  6
Continuous
 62
     7
370
    15
100
AcDbLine
 10
1829.7369522162
 20
1068.3819170457
 30
0.0
 11
1829.7369522162
 21
447.3819170457
 31
0.0
  0
LWPOLYLINE
  5
1FD
330
1F
100
AcDbEntity
  8
0
  6
Continuous
 62
     7
370
    15
100
AcDbPolyline
 90
        9
 70
   128
 43
0.0
 10
1676.7039383678
 20
1068.3819170457
 10
1676.6847236482
 20
1068.7720976897
 10
1676.6278179003
 20
1069.1472839104
 10
1676.5354079801
 20
1069.4930575118
 10
1676.411045149
 20
1069.7961306081
 10
1676.2595086008
 20
1070.0448562703
 10
1676.0866218002
 20
1070.2296761107
 10
1675.8990286898
 20
1070.3434876065
 10
1675.7039383678
 20
1070.3819170457
  0
LINE
  5
1FE
330
1F
100
AcDbEntity
  8
0
  6
Continuous
 62
     7
370
    15
100
AcDbLine
 10
1676.7039383678
 20
447.3819170457
 30
0.0
 11
1676.7039383678
 21
1068.3819170457
 31
0.0
  0
LWPOLYLINE
  5
1FF
330
1F
100
AcDbEntity
  8
0
  6
Continuous
 62
     7
370
    15
100
AcDbPolyline
 90
        9
 70
   128
 43
0.0
 10
1675.7039383678
 20
445.3819170457
 10
1675.8990286898
 20
445.4203464849
 10
1676.0866218002
 20
445.5341579807
 10
1676.2595086008
 20
445.7189778211
 10
1676.411045149
 20
445.9677034833
 10
1676.5354079801
 20
446.2707765797
 10
1676.6278179003
 20
446.616550181
 10
1676.6847236482
 20
446.9917364017
 10
1676.7039383678
 20
447.3819170457
  0
LINE
  5
200
330
1F
100
AcDbEntity
  8
0
  6
Continuous
 62
     7
370
    15
100
AcDbLine
 10
1678.3607926173
 20
1068.3819170457
 30
0.0
 11
1676.7039383678
 21
1068.3819170457
 31
0.0
  0
LINE
  5
201
330
1F
100
AcDbEntity
  8
0
  6
Continuous
 62
     7
370
    15
100
AcDbLine
 10
1675.7039383678
 20
1070.3819170457
 30
0.0
 11
1676.9465790549
 21
1070.3819170457
 31
0.0
  0
ARC
  5
202
330
1F
100
AcDbEntity
  8
0
  6
Continuous
 62
     7
370
    15
100
AcDbCircle
 10
1676.5930256644
 20
1068.6319170457
 30
0.0
 40
1.785357107136845
100
AcDbArc
 50
351.9505330245
 51
78.578246341
  0
LINE
  5
203
330
1F
100
AcDbEntity
  8
0
  6
Continuous
 62
     7
370
    15
100
AcDbLine
 10
1676.7039383678
 20
447.3819170457
 30
0.0
 11
1678.3607926173
 21
447.3819170457
 31
0.0
  0
ARC
  5
204
330
1F
100
AcDbEntity
  8
0
  6
Continuous
 62
     7
370
    15
100
AcDbCircle
 10
1676.5930256644
 20
447.1319170457
 30
0.0
 40
1.785357107135984
100
AcDbArc
 50
281.421753659
 51
8.0494669755
  0
LINE
  5
205
330
1F
100
AcDbEntity
  8
0
  6
Continuous
 62
     7
370
    15
100
AcDbLine
 10
1676.9465790549
 20
445.3819170457
 30
0.0
 11
1675.7039383678
 21
445.3819170457
 31
0.0
  0
LINE
  5
206
330
1F
100
AcDbEntity
  8
0
  6
Continuous
 62
     7
370
    15
100
AcDbLine
 10
1678.3607926173
 20
1068.3819170457
 30
0.0
 11
1678.3607926173
 21
447.3819170457
 31
0.0
  0
LINE
  5
207
330
1F
100
AcDbEntity
  8
0
  6
Continuous
 62
     7
370
    15
100
AcDbLine
 10
1827.3938064657
 20
1068.3819170457
 30
0.0
 11
1678.3607926173
 21
1068.3819170457
 31
0.0
  0
LINE
  5
208
330
1F
100
AcDbEntity
  8
0
  6
Continuous
 62
     7
370
    15
100
AcDbLine
 10
1676.9465790549
 20
1070.3819170457
 30
0.0
 11
1825.9795929033
 21
1070.3819170457
 31
0.0
  0
ARC
  5
209
330
1F
100
AcDbEntity
  8
0
  6
Continuous
 62
     7
370
    15
100
AcDbCircle
 10
1825.6260395127
 20
1068.6319170457
 30
0.0
 40
1.785357107135366
100
AcDbArc
 50
351.9505330245
 51
78.5782463411
  0
LINE
  5
20A
330
1F
100
AcDbEntity
  8
0
  6
Continuous
 62
     7
370
    15
100
AcDbLine
 10
1827.3938064657
 20
1068.3819170457
 30
0.0
 11
1827.3938064657
 21
447.3819170457
 31
0.0
  0
LINE
  5
20B
330
1F
100
AcDbEntity
  8
0
  6
Continuous
 62
     7
370
    15
100
AcDbLine
 10
1678.3607926173
 20
447.3819170457
 30
0.0
 11
1827.3938064657
 21
447.3819170457
 31
0.0
  0
LWPOLYLINE
  5
20C
330
1F
100
AcDbEntity
  8
0
  6
Continuous
 62
     7
370
    15
100
AcDbPolyline
 90
       30
 70
   128
 43
0.0
 10
1815.3801838095
 20
481.3186694401
 10
1815.1794163394
 20
481.7883252203
 10
1814.348428023
 20
483.2827071605
 10
1813.3324773041
 20
484.5276765662
 10
1812.1682832888
 20
485.4782369993
 10
1810.897922982
 20
486.100032729
 10
1809.5673105152
 20
486.3705904375
 10
1808.2245376897
 20
486.2801314645
 10
1806.9181358141
 20
485.8319252329
 10
1805.6953216558
 20
485.0421710836
 10
1804.6002909047
 20
483.9394127893
 10
1803.6726208251
 20
482.5635069079
 10
1802.9458398307
 20
480.964182263
 10
1802.4462156803
 20
479.1992426141
 10
1802.1918060925
 20
477.3324774788
 10
1802.1918060925
 20
475.4313566127
 10
1802.4462156803
 20
473.5645914773
 10
1802.9458398307
 20
471.7996518284
 10
1803.6726208251
 20
470.2003271835
 10
1804.6002909047
 20
468.8244213022
 10
1805.6953216558
 20
467.7216630079
 10
1806.9181358141
 20
466.9319088586
 10
1808.2245376897
 20
466.4837026269
 10
1809.5673105152
 20
466.3932436539
 10
1810.897922982
 20
466.6638013625
 10
1812.1682832888
 20
467.2855970922
 10
1813.3324773041
 20
468.2361575252
 10
1814.348428023
 20
469.4811269309
 10
1815.1794163394
 20
470.9755088712
 10
1815.3801838098
 20
471.445164652
  0
LWPOLYLINE
  5
20D
330
1F
100
AcDbEntity
  8
0
  6
Continuous
 62
     7
370
    15
100
AcDbPolyline
 90
       30
 70
   128
 43
0.0
 10
1813.9659702423
 20
1046.3186694521
 10
1813.765202777
 20
1046.7883252203
 10
1812.9342144606
 20
1048.2827071605
 10
1811.9182637417
 20
1049.5276765662
 10
1810.7540697264
 20
1050.4782369993
 10
1809.4837094196
 20
1051.100032729
 10
1808.1530969528
 20
1051.3705904375
 10
1806.8103241273
 20
1051.2801314645
 10
1805.5039222517
 20
1050.8319252329
 10
1804.2811080935
 20
1050.0421710836
 10
1803.1860773423
 20
1048.9394127893
 10
1802.2584072628
 20
1047.5635069079
 10
1801.5316262684
 20
1045.964182263
 10
1801.032002118
 20
1044.1992426141
 10
1800.7775925301
 20
1042.3324774788
 10
1800.7775925301
 20
1040.4313566127
 10
1801.032002118
 20
1038.5645914773
 10
1801.5316262684
 20
1036.7996518284
 10
1802.2584072628
 20
1035.2003271835
 10
1803.1860773423
 20
1033.8244213022
 10
1804.2811080935
 20
1032.7216630079
 10
1805.5039222517
 20
1031.9319088586
 10
1806.8103241273
 20
1031.4837026269
 10
1808.1530969528
 20
1031.3932436539
 10
1809.4837094196
 20
1031.6638013625
 10
1810.7540697264
 20
1032.2855970922
 10
1811.9182637417
 20
1033.2361575252
 10
1812.9342144606
 20
1034.4811269309
 10
1813.765202777
 20
1035.9755088712
 10
1813.9659702424
 20
1036.4451646395
  0
LWPOLYLINE
  5
20E
330
1F
100
AcDbEntity
  8
0
  6
Continuous
 62
     7
370
    15
100
AcDbPolyline
 90
       30
 70
   128
 43
0.0
 10
1703.5004679876
 20
481.3186694498
 10
1703.2997005214
 20
481.7883252203
 10
1702.468712205
 20
483.2827071605
 10
1701.4527614861
 20
484.5276765662
 10
1700.2885674708
 20
485.4782369993
 10
1699.0182071641
 20
486.100032729
 10
1697.6875946972
 20
486.3705904375
 10
1696.3448218717
 20
486.2801314645
 10
1695.0384199961
 20
485.8319252329
 10
1693.8156058379
 20
485.0421710836
 10
1692.7205750868
 20
483.9394127893
 10
1691.7929050072
 20
482.5635069079
 10
1691.0661240128
 20
480.964182263
 10
1690.5664998624
 20
479.1992426141
 10
1690.3120902745
 20
477.3324774788
 10
1690.3120902745
 20
475.4313566127
 10
1690.5664998624
 20
473.5645914773
 10
1691.0661240128
 20
471.7996518284
 10
1691.7929050072
 20
470.2003271835
 10
1692.7205750868
 20
468.8244213022
 10
1693.8156058379
 20
467.7216630079
 10
1695.0384199961
 20
466.9319088586
 10
1696.3448218717
 20
466.4837026269
 10
1697.6875946972
 20
466.3932436539
 10
1699.0182071641
 20
466.6638013625
 10
1700.2885674708
 20
467.2855970922
 10
1701.4527614861
 20
468.2361575252
 10
1702.468712205
 20
469.4811269309
 10
1703.2997005214
 20
470.9755088712
 10
1703.5004679876
 20
471.4451646416
  0
LWPOLYLINE
  5
20F
330
1F
100
AcDbEntity
  8
0
  6
Continuous
 62
     7
370
    15
100
AcDbPolyline
 90
       30
 70
   128
 43
0.0
 10
1703.5004679876
 20
1044.3186694499
 10
1703.2997005215
 20
1044.7883252203
 10
1702.468712205
 20
1046.2827071605
 10
1701.4527614862
 20
1047.5276765662
 10
1700.2885674708
 20
1048.4782369993
 10
1699.0182071641
 20
1049.100032729
 10
1697.6875946972
 20
1049.3705904375
 10
1696.3448218718
 20
1049.2801314645
 10
1695.0384199961
 20
1048.8319252329
 10
1693.8156058379
 20
1048.0421710836
 10
1692.7205750868
 20
1046.9394127893
 10
1691.7929050072
 20
1045.5635069079
 10
1691.0661240128
 20
1043.964182263
 10
1690.5664998624
 20
1042.1992426141
 10
1690.3120902745
 20
1040.3324774788
 10
1690.3120902745
 20
1038.4313566127
 10
1690.5664998624
 20
1036.5645914773
 10
1691.0661240128
 20
1034.7996518284
 10
1691.7929050072
 20
1033.2003271835
 10
1692.7205750868
 20
1031.8244213022
 10
1693.8156058379
 20
1030.7216630079
 10
1695.0384199961
 20
1029.9319088586
 10
1696.3448218718
 20
1029.4837026269
 10
1697.6875946972
 20
1029.3932436539
 10
1699.0182071641
 20
1029.6638013625
 10
1700.2885674708
 20
1030.2855970922
 10
1701.4527614862
 20
1031.2361575252
 10
1702.468712205
 20
1032.4811269309
 10
1703.2997005215
 20
1033.9755088712
 10
1703.5004679876
 20
1034.4451646415
  0
LINE
  5
210
330
1F
100
AcDbEntity
  8
0
  6
Continuous
 62
     7
370
    15
100
AcDbLine
 10
1825.9795929033
 20
445.3819170457
 30
0.0
 11
1676.9465790549
 21
445.3819170457
 31
0.0
  0
ARC
  5
211
330
1F
100
AcDbEntity
  8
0
  6
Continuous
 62
     7
370
    15
100
AcDbCircle
 10
1825.6260395127
 20
447.1319170457
 30
0.0
 40
1.785357107135311
100
AcDbArc
 50
281.4217536589
 51
8.0494669755
  0
ARC
  5
212
330
1F
100
AcDbEntity
  8
0
  6
Continuous
 62
     7
370
    15
100
AcDbCircle
 10
1695.9171658073
 20
1043.134107631
 30
0.0
 40
6.284946543383573
100
AcDbArc
 50
37.6559889415
 51
81.7334150154
  0
ARC
  5
213
330
1F
100
AcDbEntity
  8
0
  6
Continuous
 62
     7
370
    15
100
AcDbCircle
 10
1695.9030125962
 20
1035.6679794808
 30
0.0
 40
6.324842763273359
100
AcDbArc
 50
278.3436411167
 51
323.6268271108
  0
ARC
  5
214
330
1F
100
AcDbEntity
  8
0
  6
Continuous
 62
     7
370
    15
100
AcDbCircle
 10
1695.9171658073
 20
480.134107631
 30
0.0
 40
6.284946543406488
100
AcDbArc
 50
37.6559889413
 51
81.7334150148
  0
ARC
  5
215
330
1F
100
AcDbEntity
  8
0
  6
Continuous
 62
     7
370
    15
100
AcDbCircle
 10
1695.9030125962
 20
472.6679794808
 30
0.0
 40
6.324842763305099
100
AcDbArc
 50
278.3436411183
 51
323.6268271106
  0
ARC
  5
216
330
1F
100
AcDbEntity
  8
0
  6
Continuous
 62
     7
370
    15
100
AcDbCircle
 10
1806.3826680638
 20
1045.1341076334
 30
0.0
 40
6.284946540882708
100
AcDbArc
 50
37.6559890202
 51
81.7334150234
  0
ARC
  5
217
330
1F
100
AcDbEntity
  8
0
  6
Continuous
 62
     7
370
    15
100
AcDbCircle
 10
1806.3685148517
 20
1037.6679794813
 30
0.0
 40
6.324842763760023
100
AcDbArc
 50
278.343641115
 51
323.6268271284
  0
ARC
  5
218
330
1F
100
AcDbEntity
  8
0
  6
Continuous
 62
     7
370
    15
100
AcDbCircle
 10
1807.7968816255
 20
480.1341076315
 30
0.0
 40
6.28494654293918
100
AcDbArc
 50
37.6559889534
 51
81.7334150194
  0
ARC
  5
219
330
1F
100
AcDbEntity
  8
0
  6
Continuous
 62
     7
370
    15
100
AcDbCircle
 10
1807.7827284137
 20
472.6679794823
 30
0.0
 40
6.324842764817213
100
AcDbArc
 50
278.3436411169
 51
323.6268271622
  0
LINE
  5
21A
330
1F
100
AcDbEntity
  8
0
  6
Continuous
 62
     7
370
    15
100
AcDbLine
 10
1827.3938064657
 20
447.3819170457
 30
0.0
 11
1829.1279884763
 21
447.3819170457
 31
0.0
  0
LINE
  5
21B
330
1F
100
AcDbEntity
  8
0
  6
Continuous
 62
     7
370
    15
100
AcDbLine
 10
1827.2802294113
 20
445.3819170457
 30
0.0
 11
1825.9795929033
 21
445.3819170457
 31
0.0
  0
LINE
  5
21C
330
1F
100
AcDbEntity
  8
0
  6
Continuous
 62
     7
370
    15
100
AcDbLine
 10
1829.1279884763
 20
1068.3819170457
 30
0.0
 11
1827.3938064657
 21
1068.3819170457
 31
0.0
  0
LINE
  5
21D
330
1F
100
AcDbEntity
  8
0
  6
Continuous
 62
     7
370
    15
100
AcDbLine
 10
1825.9795929033
 20
1070.3819170457
 30
0.0
 11
1827.2802294113
 21
1070.3819170457
 31
0.0
  0
LINE
  5
21E
330
1F
100
AcDbEntity
  8
0
  6
Continuous
 62
     7
370
    15
100
AcDbLine
 10
1525.7369522162
 20
447.3819170457
 30
0.0
 11
1527.0310474417
 21
447.3819170457
 31
0.0
  0
ELLIPSE
  5
21F
330
1F
100
AcDbEntity
  8
0
  6
Continuous
 62
     7
370
    15
100
AcDbEllipse
 10
1525.7369522162
 20
450.3819170457
 30
0.0
 11
5.0
 21
0.0
 31
0.0
210
0.0
220
0.0
230
1.0
 40
0.6
 41
3.141592653589793
 42
4.712388980384699
  0
LINE
  5
220
330
1F
100
AcDbEntity
  8
0
  6
Continuous
 62
     7
370
    15
100
AcDbLine
 10
1520.7369522162
 20
450.3819170457
 30
0.0
 11
1520.7369522162
 21
1065.3819170457
 31
0.0
  0
ELLIPSE
  5
221
330
1F
100
AcDbEntity
  8
0
  6
Continuous
 62
     7
370
    15
100
AcDbEllipse
 10
1525.7369522162
 20
1065.3819170457
 30
0.0
 11
5.0
 21
0.0
 31
0.0
210
0.0
220
0.0
230
1.0
 40
0.6
 41
1.570796326794897
 42
3.141592653589793
  0
LINE
  5
222
330
1F
100
AcDbEntity
  8
0
  6
Continuous
 62
     7
370
    15
100
AcDbLine
 10
1527.0310474417
 20
1068.3819170457
 30
0.0
 11
1525.7369522162
 21
1068.3819170457
 31
0.0
  0
LINE
  5
223
330
1F
100
AcDbEntity
  8
0
  6
Continuous
 62
     7
370
    15
100
AcDbLine
 10
1527.0310474417
 20
1068.3819170457
 30
0.0
 11
1527.0310474417
 21
447.3819170457
 31
0.0
  0
ARC
  5
224
330
1F
100
AcDbEntity
  8
0
  6
Continuous
 62
     7
370
    15
100
AcDbCircle
 10
1525.7369522162
 20
1065.3819170457
 30
0.0
 40
5.0
100
AcDbArc
 50
90.0
 51
180.0
  0
LINE
  5
225
330
1F
100
AcDbEntity
  8
0
  6
Continuous
 62
     7
370
    15
100
AcDbLine
 10
1525.7369522162
 20
1068.3819170457
 30
0.0
 11
1525.7369522162
 21
1070.3819170457
 31
0.0
  0
ARC
  5
226
330
1F
100
AcDbEntity
  8
0
  6
Continuous
 62
     7
370
    15
100
AcDbCircle
 10
1524.7109672215
 20
446.9154106948
 30
0.0
 40
2.366516512466981
100
AcDbArc
 50
319.6093080931
 51
11.3690545088
  0
LINE
  5
227
330
1F
100
AcDbEntity
  8
0
  6
Continuous
 62
     7
370
    15
100
AcDbLine
 10
1526.5134093515
 20
445.3819170457
 30
0.0
 11
1525.7369522162
 21
445.3819170457
 31
0.0
  0
LINE
  5
228
330
1F
100
AcDbEntity
  8
0
  6
Continuous
 62
     7
370
    15
100
AcDbLine
 10
1525.7369522162
 20
445.3819170457
 30
0.0
 11
1525.7369522162
 21
447.3819170457
 31
0.0
  0
ARC
  5
229
330
1F
100
AcDbEntity
  8
0
  6
Continuous
 62
     7
370
    15
100
AcDbCircle
 10
1525.7369522162
 20
450.3819170457
 30
0.0
 40
5.0
100
AcDbArc
 50
180.0
 51
270.0
  0
ARC
  5
22A
330
1F
100
AcDbEntity
  8
0
  6
Continuous
 62
     7
370
    15
100
AcDbCircle
 10
1524.7109672215
 20
1068.8484233967
 30
0.0
 40
2.36651651246782
100
AcDbArc
 50
348.6309454912
 51
40.3906919069
  0
ARC
  5
22B
330
1F
100
AcDbEntity
  8
0
  6
Continuous
 62
     7
370
    15
100
AcDbCircle
 10
1672.4544105084
 20
446.9154106948
 30
0.0
 40
2.366516512469578
100
AcDbArc
 50
319.6093080931
 51
11.3690545088
  0
LINE
  5
22C
330
1F
100
AcDbEntity
  8
0
  6
Continuous
 62
     7
370
    15
100
AcDbLine
 10
1674.2568526384
 20
445.3819170457
 30
0.0
 11
1526.5134093515
 21
445.3819170457
 31
0.0
  0
LINE
  5
22D
330
1F
100
AcDbEntity
  8
0
  6
Continuous
 62
     7
370
    15
100
AcDbLine
 10
1527.0310474417
 20
447.3819170457
 30
0.0
 11
1674.7744907286
 21
447.3819170457
 31
0.0
  0
LINE
  5
22E
330
1F
100
AcDbEntity
  8
0
  6
Continuous
 62
     7
370
    15
100
AcDbLine
 10
1674.7744907286
 20
1068.3819170457
 30
0.0
 11
1674.7744907286
 21
447.3819170457
 31
0.0
  0
LINE
  5
22F
330
1F
100
AcDbEntity
  8
0
  6
Continuous
 62
     7
370
    15
100
AcDbLine
 10
1674.7744907286
 20
1068.3819170457
 30
0.0
 11
1527.0310474417
 21
1068.3819170457
 31
0.0
  0
LWPOLYLINE
  5
230
330
1F
100
AcDbEntity
  8
0
  6
Continuous
 62
     7
370
    15
100
AcDbPolyline
 90
       24
 70
   128
 43
0.0
 10
1607.067604521
 20
480.3819170457
 10
1607.251177664
 20
481.7646254979
 10
1607.7882823129
 20
483.0447847896
 10
1608.6390838729
 20
484.1274513626
 10
1609.7404822844
 20
484.93232879
 10
1611.0107918659
 20
485.3997229951
 10
1612.355799567
 20
485.4949694878
 10
1613.6757523194
 20
485.2110042716
 10
1614.872755266
 20
484.5688877474
 10
1615.8580321741
 20
483.6162427604
 10
1616.5585095627
 20
482.4237226312
 10
1616.9222362284
 20
481.0797711223
 10
1616.9222362284
 20
479.6840629691
 10
1616.5585095627
 20
478.3401114603
 10
1615.8580321741
 20
477.147591331
 10
1614.872755266
 20
476.194946344
 10
1613.6757523194
 20
475.5528298199
 10
1612.355799567
 20
475.2688646036
 10
1611.0107918659
 20
475.3641110963
 10
1609.7404822844
 20
475.8315053014
 10
1608.6390838729
 20
476.6363827288
 10
1607.7882823129
 20
477.7190493018
 10
1607.251177664
 20
478.9992085935
 10
1607.067604521
 20
480.3819170457
  0
LWPOLYLINE
  5
231
330
1F
100
AcDbEntity
  8
0
  6
Continuous
 62
     7
370
    15
100
AcDbPolyline
 90
       24
 70
   128
 43
0.0
 10
1607.067604521
 20
1050.3819170457
 10
1607.251177664
 20
1051.7646254979
 10
1607.7882823129
 20
1053.0447847896
 10
1608.6390838729
 20
1054.1274513626
 10
1609.7404822844
 20
1054.93232879
 10
1611.0107918659
 20
1055.3997229951
 10
1612.355799567
 20
1055.4949694878
 10
1613.6757523194
 20
1055.2110042716
 10
1614.872755266
 20
1054.5688877474
 10
1615.8580321741
 20
1053.6162427604
 10
1616.5585095627
 20
1052.4237226312
 10
1616.9222362284
 20
1051.0797711223
 10
1616.9222362284
 20
1049.6840629691
 10
1616.5585095627
 20
1048.3401114603
 10
1615.8580321741
 20
1047.147591331
 10
1614.872755266
 20
1046.194946344
 10
1613.6757523194
 20
1045.5528298199
 10
1612.355799567
 20
1045.2688646036
 10
1611.0107918659
 20
1045.3641110963
 10
1609.7404822844
 20
1045.8315053014
 10
1608.6390838729
 20
1046.6363827288
 10
1607.7882823129
 20
1047.7190493018
 10
1607.251177664
 20
1048.9992085935
 10
1607.067604521
 20
1050.3819170457
  0
LWPOLYLINE
  5
232
330
1F
100
AcDbEntity
  8
0
  6
Continuous
 62
     7
370
    15
100
AcDbPolyline
 90
       20
 70
   128
 43
0.0
 10
1561.8583759925
 20
749.3488695967
 10
1559.8067748196
 20
750.7288137391
 10
1557.969079381
 20
752.4009140627
 10
1556.3837868346
 20
754.3301423964
 10
1555.0841068497
 20
756.4760840955
 10
1554.0972659106
 20
758.7937846725
 10
1553.4439369594
 20
761.2346915305
 10
1553.1378063271
 20
763.7476710732
 10
1553.1852870237
 20
766.2800798817
 10
1553.5853843948
 20
768.778867521
 10
1554.3297169582
 20
771.191687873
 10
1555.402691984
 20
773.4679957142
 10
1556.7818321411
 20
775.5601055682
 10
1558.4382463653
 20
777.4241906494
 10
1560.3372350873
 20
779.0212009735
 10
1562.4390171403
 20
780.3176814002
 10
1564.6995631198
 20
781.2864724716
 10
1567.071517738
 20
781.907279365
 10
1569.505191852
 20
782.1670970412
 10
1571.9496033809
 20
782.0604826822
  0
ARC
  5
233
330
1F
100
AcDbEntity
  8
0
  6
Continuous
 62
     7
370
    15
100
AcDbCircle
 10
1608.6547847799
 20
831.0234625457
 30
0.0
 40
94.1309885679681
100
AcDbArc
 50
240.1889457897
 51
299.8110542103
  0
LWPOLYLINE
  5
234
330
1F
100
AcDbEntity
  8
0
  6
Continuous
 62
     7
370
    15
100
AcDbPolyline
 90
       20
 70
   128
 43
0.0
 10
1645.3599661789
 20
782.0604826822
 10
1647.8043777078
 20
782.1670970412
 10
1650.2380518217
 20
781.907279365
 10
1652.61000644
 20
781.2864724716
 10
1654.8705524194
 20
780.3176814002
 10
1656.9723344724
 20
779.0212009735
 10
1658.8713231945
 20
777.4241906494
 10
1660.5277374187
 20
775.5601055682
 10
1661.9068775758
 20
773.4679957142
 10
1662.9798526016
 20
771.191687873
 10
1663.7241851649
 20
768.778867521
 10
1664.1242825361
 20
766.2800798817
 10
1664.1717632327
 20
763.7476710732
 10
1663.8656326003
 20
761.2346915305
 10
1663.2123036491
 20
758.7937846725
 10
1662.22546271
 20
756.4760840955
 10
1660.9257827252
 20
754.3301423964
 10
1659.3404901788
 20
752.4009140627
 10
1657.5027947401
 20
750.7288137391
 10
1655.4511935673
 20
749.3488695967
  0
ARC
  5
235
330
1F
100
AcDbEntity
  8
0
  6
Continuous
 62
     7
370
    15
100
AcDbCircle
 10
1608.6547847799
 20
1090.1937798665
 30
0.0
 40
310.3117773711202
100
AcDbArc
 50
263.2068733966
 51
276.7931266034
  0
ARC
  5
236
330
1F
100
AcDbEntity
  8
0
  6
Continuous
 62
     7
370
    15
100
AcDbCircle
 10
1672.4544105084
 20
1068.8484233967
 30
0.0
 40
2.366516512470116
100
AcDbArc
 50
348.6309454912
 51
40.3906919069
  0
LINE
  5
237
330
1F
100
AcDbEntity
  8
0
  6
Continuous
 62
     7
370
    15
100
AcDbLine
 10
1526.5134093515
 20
1070.3819170457
 30
0.0
 11
1674.2568526384
 21
1070.3819170457
 31
0.0
  0
LINE
  5
238
330
1F
100
AcDbEntity
  8
0
  6
Continuous
 62
     7
370
    15
100
AcDbLine
 10
1520.7369522162
 20
445.3819170457
 30
0.0
 11
1520.7369522162
 21
450.3819170457
 31
0.0
  0
LINE
  5
239
330
1F
100
AcDbEntity
  8
0
  6
Continuous
 62
     7
370
    15
100
AcDbLine
 10
1520.7369522162
 20
1070.3819170457
 30
0.0
 11
1520.7369522162
 21
1065.3819170457
 31
0.0
  0
LWPOLYLINE
  5
23A
330
1F
100
AcDbEntity
  8
0
  6
Continuous
 62
     7
370
    15
100
AcDbPolyline
 90
        9
 70
   128
 43
0.0
 10
1571.9496033809
 20
782.0604826822
 10
1571.7507824823
 20
780.6068921183
 10
1571.4850051286
 20
779.2091622246
 10
1571.1624849946
 20
777.921006977
 10
1570.7956163481
 20
776.7919294594
 10
1570.3984977454
 20
775.8653194874
 10
1569.9863902317
 20
775.1767861628
 10
1569.5751308677
 20
774.752789435
 10
1569.1805241201
 20
774.6096232604
  0
ARC
  5
23B
330
1F
100
AcDbEntity
  8
0
  6
Continuous
 62
     7
370
    15
100
AcDbCircle
 10
1606.7135964611
 20
831.0859668393
 30
0.0
 40
86.70381831327853
100
AcDbArc
 50
260.2623647693
 51
279.5250396545
  0
LWPOLYLINE
  5
23C
330
1F
100
AcDbEntity
  8
0
  6
Continuous
 62
     7
370
    15
100
AcDbPolyline
 90
        9
 70
   128
 43
0.0
 10
1650.0131754136
 20
755.9172729259
 10
1650.4590650737
 20
755.7910628977
 10
1651.0222024015
 20
755.4172829938
 10
1651.6809463453
 20
754.8102973663
 10
1652.4099817447
 20
753.9934321323
 10
1653.1812921784
 20
752.9980789649
 10
1653.9652366187
 20
751.8624887279
 10
1654.7316885206
 20
750.6303015173
 10
1655.4511935673
 20
749.3488695967
  0
LWPOLYLINE
  5
23D
330
1F
100
AcDbEntity
  8
0
  6
Continuous
 62
     7
370
    15
100
AcDbPolyline
 90
        9
 70
   128
 43
0.0
 10
1645.3599661789
 20
782.0604826822
 10
1645.4841900468
 20
780.6068921183
 10
1645.5290430305
 20
779.2091622246
 10
1645.4928014549
 20
777.921006977
 10
1645.3768580636
 20
776.7919294594
 10
1645.1856684958
 20
775.8653194874
 10
1644.9265800597
 20
775.1767861628
 10
1644.6095493783
 20
774.752789435
 10
1644.2467597631
 20
774.6096232604
  0
ARC
  5
23E
330
1F
100
AcDbEntity
  8
0
  6
Continuous
 62
     7
370
    15
100
AcDbCircle
 10
1606.7136419416
 20
1089.6932955693
 30
0.0
 40
317.3112911464476
100
AcDbArc
 50
263.2068733966
 51
276.7931266034
  0
LINE
  5
23F
330
1F
100
AcDbEntity
  8
0
  6
Continuous
 62
     7
370
    15
100
AcDbLine
 10
1567.6276098495
 20
774.6096232604
 30
0.0
 11
1569.1805241201
 21
774.6096232604
 31
0.0
  0
LINE
  5
240
330
1F
100
AcDbEntity
  8
0
  6
Continuous
 62
     7
370
    15
100
AcDbLine
 10
1648.460261143
 20
755.9172729259
 30
0.0
 11
1650.0131754136
 21
755.9172729259
 31
0.0
  0
ARC
  5
241
330
1F
100
AcDbEntity
  8
0
  6
Continuous
 62
     7
370
    15
100
AcDbCircle
 10
1605.0787674376
 20
831.7172905218
 30
0.0
 40
87.3361131701214
100
AcDbArc
 50
270.5631631917
 51
299.7831572579
  0
ARC
  5
242
330
1F
100
AcDbEntity
  8
0
  6
Continuous
 62
     7
370
    15
100
AcDbCircle
 10
1605.1642259498
 20
1089.7397898361
 30
0.0
 40
317.3578728096415
100
AcDbArc
 50
263.207239143
 51
269.9993684209
  0
ARC
  5
243
330
1F
100
AcDbEntity
  8
0
  6
Continuous
 62
     7
370
    15
100
AcDbCircle
 10
1643.4411452097
 20
764.6426539336
 30
0.0
 40
10.06597230685809
100
AcDbArc
 50
299.9088785828
 51
83.1748977586
  0
LINE
  5
244
330
1F
100
AcDbEntity
  8
0
  6
Continuous
 62
     7
370
    15
100
AcDbLine
 10
1676.7039383678
 20
1068.3819170457
 30
0.0
 11
1674.7744907286
 21
1068.3819170457
 31
0.0
  0
LWPOLYLINE
  5
245
330
1F
100
AcDbEntity
  8
0
  6
Continuous
 62
     7
370
    15
100
AcDbPolyline
 90
        9
 70
   128
 43
0.0
 10
1675.7039383678
 20
1070.3819170457
 10
1675.8990286898
 20
1070.3434876065
 10
1676.0866218002
 20
1070.2296761107
 10
1676.2595086008
 20
1070.0448562703
 10
1676.411045149
 20
1069.7961306081
 10
1676.5354079801
 20
1069.4930575118
 10
1676.6278179003
 20
1069.1472839104
 10
1676.6847236482
 20
1068.7720976897
 10
1676.7039383678
 20
1068.3819170457
  0
LINE
  5
246
330
1F
100
AcDbEntity
  8
0
  6
Continuous
 62
     7
370
    15
100
AcDbLine
 10
1674.2568526384
 20
1070.3819170457
 30
0.0
 11
1675.7039383678
 21
1070.3819170457
 31
0.0
  0
LINE
  5
247
330
1F
100
AcDbEntity
  8
0
  6
Continuous
 62
     7
370
    15
100
AcDbLine
 10
1674.7744907286
 20
447.3819170457
 30
0.0
 11
1676.7039383678
 21
447.3819170457
 31
0.0
  0
LWPOLYLINE
  5
248
330
1F
100
AcDbEntity
  8
0
  6
Continuous
 62
     7
370
    15
100
AcDbPolyline
 90
        9
 70
   128
 43
0.0
 10
1676.7039383678
 20
447.3819170457
 10
1676.6847236482
 20
446.9917364017
 10
1676.6278179003
 20
446.616550181
 10
1676.5354079801
 20
446.2707765797
 10
1676.411045149
 20
445.9677034833
 10
1676.2595086008
 20
445.7189778211
 10
1676.0866218002
 20
445.5341579807
 10
1675.8990286898
 20
445.4203464849
 10
1675.7039383678
 20
445.3819170457
  0
LINE
  5
249
330
1F
100
AcDbEntity
  8
0
  6
Continuous
 62
     7
370
    15
100
AcDbLine
 10
1675.7039383678
 20
445.3819170457
 30
0.0
 11
1674.2568526384
 21
445.3819170457
 31
0.0
  0
LINE
  5
24A
330
1F
100
AcDbEntity
  8
0
  6
Continuous
 62
     7
370
    15
100
AcDbLine
 10
1517.4115451966
 20
1077.5819170457
 30
0.0
 11
1487.0151823027
 21
1077.5819170457
 31
0.0
  0
ARC
  5
24B
330
1F
100
AcDbEntity
  8
0
  6
Continuous
 62
     7
370
    15
100
AcDbCircle
 10
1494.7450470662
 20
1077.6520641592
 30
0.0
 40
7.730183042990295
100
AcDbArc
 50
90.5295466397
 51
180.5199344813
  0
LINE
  5
24C
330
1F
100
AcDbEntity
  8
0
  6
Continuous
 62
     7
370
    15
100
AcDbLine
 10
1494.6736031621
 20
1085.3819170457
 30
0.0
 11
1515.3927566448
 21
1085.3819170457
 31
0.0
  0
LWPOLYLINE
  5
24D
330
1F
100
AcDbEntity
  8
0
  6
Continuous
 62
     7
370
    15
100
AcDbPolyline
 90
        9
 70
   128
 43
0.0
 10
1517.4115451966
 20
1077.5819170457
 10
1517.3727547407
 20
1079.1036215574
 10
1517.2578740683
 20
1080.5668478182
 10
1517.0713179793
 20
1081.9153648633
 10
1516.8202557196
 20
1083.097349939
 10
1516.514335471
 20
1084.0673800217
 10
1516.165313577
 20
1084.7881773993
 10
1515.7866027535
 20
1085.2320422329
 10
1515.3927566448
 20
1085.3819170457
  0
LINE
  5
24E
330
1F
100
AcDbEntity
  8
0
  6
Continuous
 62
     7
370
    15
100
AcDbLine
 10
1517.4115451966
 20
1077.5819170457
 30
0.0
 11
1517.4115451966
 21
1072.3819170457
 31
0.0
  0
LINE
  5
24F
330
1F
100
AcDbEntity
  8
0
  6
Continuous
 62
     7
370
    15
100
AcDbLine
 10
1487.0151823027
 20
1072.3819170457
 30
0.0
 11
1517.4115451966
 21
1072.3819170457
 31
0.0
  0
LINE
  5
250
330
1F
100
AcDbEntity
  8
0
  6
Continuous
 62
     7
370
    15
100
AcDbLine
 10
1487.0151823027
 20
1077.5819170457
 30
0.0
 11
1487.0151823027
 21
1072.3819170457
 31
0.0
  0
LINE
  5
251
330
1F
100
AcDbEntity
  8
0
  6
Continuous
 62
     7
370
    15
100
AcDbLine
 10
1516.8939071064
 20
1070.3819170457
 30
0.0
 11
1488.978879959
 21
1070.3819170457
 31
0.0
  0
ARC
  5
252
330
1F
100
AcDbEntity
  8
0
  6
Continuous
 62
     7
370
    15
100
AcDbCircle
 10
1488.9971989087
 20
1072.3639306064
 30
0.0
 40
1.982098216150852
100
AcDbArc
 50
179.4800655187
 51
269.4704533603
  0
ARC
  5
253
330
1F
100
AcDbEntity
  8
0
  6
Continuous
 62
     7
370
    15
100
AcDbCircle
 10
1515.0914649764
 20
1071.9154106948
 30
0.0
 40
2.366516512466358
100
AcDbArc
 50
319.609308093
 51
11.3690545088
  0
LINE
  5
254
330
1F
100
AcDbEntity
  8
0
  6
Continuous
 62
     7
370
    15
100
AcDbLine
 10
1674.7744907286
 20
1077.5819170457
 30
0.0
 11
1517.4115451966
 21
1077.5819170457
 31
0.0
  0
LINE
  5
255
330
1F
100
AcDbEntity
  8
0
  6
Continuous
 62
     7
370
    15
100
AcDbLine
 10
1515.3927566448
 20
1085.3819170457
 30
0.0
 11
1672.7557021768
 21
1085.3819170457
 31
0.0
  0
LWPOLYLINE
  5
256
330
1F
100
AcDbEntity
  8
0
  6
Continuous
 62
     7
370
    15
100
AcDbPolyline
 90
        9
 70
   128
 43
0.0
 10
1674.7744907286
 20
1077.5819170457
 10
1674.7357002727
 20
1079.1036215574
 10
1674.6208196003
 20
1080.5668478182
 10
1674.4342635113
 20
1081.9153648633
 10
1674.1832012516
 20
1083.097349939
 10
1673.877281003
 20
1084.0673800217
 10
1673.5282591091
 20
1084.7881773993
 10
1673.1495482855
 20
1085.2320422329
 10
1672.7557021768
 20
1085.3819170457
  0
LINE
  5
257
330
1F
100
AcDbEntity
  8
0
  6
Continuous
 62
     7
370
    15
100
AcDbLine
 10
1674.7744907286
 20
1077.5819170457
 30
0.0
 11
1674.7744907286
 21
1072.3819170457
 31
0.0
  0
LINE
  5
258
330
1F
100
AcDbEntity
  8
0
  6
Continuous
 62
     7
370
    15
100
AcDbLine
 10
1517.4115451966
 20
1072.3819170457
 30
0.0
 11
1674.7744907286
 21
1072.3819170457
 31
0.0
  0
LINE
  5
259
330
1F
100
AcDbEntity
  8
0
  6
Continuous
 62
     7
370
    15
100
AcDbLine
 10
1674.2568526384
 20
1070.3819170457
 30
0.0
 11
1516.8939071064
 21
1070.3819170457
 31
0.0
  0
ARC
  5
25A
330
1F
100
AcDbEntity
  8
0
  6
Continuous
 62
     7
370
    15
100
AcDbCircle
 10
1672.4544105084
 20
1071.9154106948
 30
0.0
 40
2.366516512467942
100
AcDbArc
 50
319.6093080931
 51
11.3690545088
  0
LINE
  5
25B
330
1F
100
AcDbEntity
  8
0
  6
Continuous
 62
     7
370
    15
100
AcDbLine
 10
1476.5369522162
 20
1085.3819170457
 30
0.0
 11
1494.6736031621
 21
1085.3819170457
 31
0.0
  0
LINE
  5
25C
330
1F
100
AcDbEntity
  8
0
  6
Continuous
 62
     7
370
    15
100
AcDbLine
 10
1488.978879959
 20
1070.3819170457
 30
0.0
 11
1470.7369522162
 21
1070.3819170457
 31
0.0
  0
LINE
  5
25D
330
1F
100
AcDbEntity
  8
0
  6
Continuous
 62
     7
370
    15
100
AcDbLine
 10
1674.7744907286
 20
1072.3819170457
 30
0.0
 11
1678.3607926173
 21
1072.3819170457
 31
0.0
  0
ARC
  5
25E
330
1F
100
AcDbEntity
  8
0
  6
Continuous
 62
     7
370
    15
100
AcDbCircle
 10
1676.5930256644
 20
1072.1319170457
 30
0.0
 40
1.785357107135558
100
AcDbArc
 50
281.4217536589
 51
8.0494669755
  0
LINE
  5
25F
330
1F
100
AcDbEntity
  8
0
  6
Continuous
 62
     7
370
    15
100
AcDbLine
 10
1676.9465790549
 20
1070.3819170457
 30
0.0
 11
1674.2568526384
 21
1070.3819170457
 31
0.0
  0
LWPOLYLINE
  5
260
330
1F
100
AcDbEntity
  8
0
  6
Continuous
 62
     7
370
    15
100
AcDbPolyline
 90
        9
 70
   128
 43
0.0
 10
1672.8453597241
 20
1085.3819170457
 10
1673.9213673033
 20
1085.2320422329
 10
1674.9560245146
 20
1084.7881773993
 10
1675.9095700618
 20
1084.0673800217
 10
1676.7453597241
 20
1083.097349939
 10
1677.4312745735
 20
1081.9153648633
 10
1677.9409552871
 20
1080.5668478182
 10
1678.2548151208
 20
1079.1036215574
 10
1678.3607926173
 20
1077.5819170457
  0
LINE
  5
261
330
1F
100
AcDbEntity
  8
0
  6
Continuous
 62
     7
370
    15
100
AcDbLine
 10
1678.3607926173
 20
1077.5819170457
 30
0.0
 11
1674.7744907286
 21
1077.5819170457
 31
0.0
  0
LINE
  5
262
330
1F
100
AcDbEntity
  8
0
  6
Continuous
 62
     7
370
    15
100
AcDbLine
 10
1672.7557021768
 20
1085.3819170457
 30
0.0
 11
1672.8453597241
 21
1085.3819170457
 31
0.0
  0
LINE
  5
263
330
1F
100
AcDbEntity
  8
0
  6
Continuous
 62
     7
370
    15
100
AcDbLine
 10
1678.3607926173
 20
1077.5819170457
 30
0.0
 11
1678.3607926173
 21
1072.3819170457
 31
0.0
  0
LWPOLYLINE
  5
264
330
1F
100
AcDbEntity
  8
0
  6
Continuous
 62
     7
370
    15
100
AcDbPolyline
 90
        9
 70
   128
 43
0.0
 10
1821.8783735724
 20
1085.3819170457
 10
1822.9543811516
 20
1085.2320422329
 10
1823.989038363
 20
1084.7881773993
 10
1824.9425839101
 20
1084.0673800217
 10
1825.7783735724
 20
1083.097349939
 10
1826.4642884219
 20
1081.9153648633
 10
1826.9739691355
 20
1080.5668478182
 10
1827.2878289692
 20
1079.1036215574
 10
1827.3938064657
 20
1077.5819170457
  0
LINE
  5
265
330
1F
100
AcDbEntity
  8
0
  6
Continuous
 62
     7
370
    15
100
AcDbLine
 10
1827.3938064657
 20
1077.5819170457
 30
0.0
 11
1678.3607926173
 21
1077.5819170457
 31
0.0
  0
LINE
  5
266
330
1F
100
AcDbEntity
  8
0
  6
Continuous
 62
     7
370
    15
100
AcDbLine
 10
1672.8453597241
 20
1085.3819170457
 30
0.0
 11
1821.8783735724
 21
1085.3819170457
 31
0.0
  0
LINE
  5
267
330
1F
100
AcDbEntity
  8
0
  6
Continuous
 62
     7
370
    15
100
AcDbLine
 10
1827.3938064657
 20
1077.5819170457
 30
0.0
 11
1827.3938064657
 21
1072.3819170457
 31
0.0
  0
LINE
  5
268
330
1F
100
AcDbEntity
  8
0
  6
Continuous
 62
     7
370
    15
100
AcDbLine
 10
1678.3607926173
 20
1072.3819170457
 30
0.0
 11
1827.3938064657
 21
1072.3819170457
 31
0.0
  0
ARC
  5
269
330
1F
100
AcDbEntity
  8
0
  6
Continuous
 62
     7
370
    15
100
AcDbCircle
 10
1825.6260395127
 20
1072.1319170457
 30
0.0
 40
1.785357107134946
100
AcDbArc
 50
281.4217536589
 51
8.0494669755
  0
ARC
  5
26A
330
1F
100
AcDbEntity
  8
0
  6
Continuous
 62
     7
370
    15
100
AcDbCircle
 10
1821.9369522162
 20
1077.5819170457
 30
0.0
 40
7.800000000000182
100
AcDbArc
 50
0.0
 51
90.0
  0
LINE
  5
26B
330
1F
100
AcDbEntity
  8
0
  6
Continuous
 62
     7
370
    15
100
AcDbLine
 10
1829.7369522162
 20
1077.5819170457
 30
0.0
 11
1827.3938064657
 21
1077.5819170457
 31
0.0
  0
LINE
  5
26C
330
1F
100
AcDbEntity
  8
0
  6
Continuous
 62
     7
370
    15
100
AcDbLine
 10
1821.8783735724
 20
1085.3819170457
 30
0.0
 11
1821.9369522162
 21
1085.3819170457
 31
0.0
  0
LINE
  5
26D
330
1F
100
AcDbEntity
  8
0
  6
Continuous
 62
     7
370
    15
100
AcDbLine
 10
1829.7369522162
 20
1077.5819170457
 30
0.0
 11
1829.7369522162
 21
1072.3819170457
 31
0.0
  0
LINE
  5
26E
330
1F
100
AcDbEntity
  8
0
  6
Continuous
 62
     7
370
    15
100
AcDbLine
 10
1827.3938064657
 20
1072.3819170457
 30
0.0
 11
1829.7369522162
 21
1072.3819170457
 31
0.0
  0
ARC
  5
26F
330
1F
100
AcDbEntity
  8
0
  6
Continuous
 62
     7
370
    15
100
AcDbCircle
 10
1827.7369522162
 20
1072.3819170457
 30
0.0
 40
2.0
100
AcDbArc
 50
270.0
 51
0.0
  0
LINE
  5
270
330
1F
100
AcDbEntity
  8
0
  6
Continuous
 62
     7
370
    15
100
AcDbLine
 10
1827.7369522162
 20
1070.3819170457
 30
0.0
 11
1825.9795929033
 21
1070.3819170457
 31
0.0
  0
LINE
  5
271
330
1F
100
AcDbEntity
  8
0
  6
Continuous
 62
     7
370
    15
100
AcDbLine
 10
1517.4115451966
 20
442.3819170457
 30
0.0
 11
1487.0151823027
 21
442.3819170457
 31
0.0
  0
ARC
  5
272
330
1F
100
AcDbEntity
  8
0
  6
Continuous
 62
     7
370
    15
100
AcDbCircle
 10
1489.9882072117
 20
442.4088967048
 30
0.0
 40
2.973147324227295
100
AcDbArc
 50
90.5295466397
 51
180.5199344813
  0
LINE
  5
273
330
1F
100
AcDbEntity
  8
0
  6
Continuous
 62
     7
370
    15
100
AcDbLine
 10
1489.9607287871
 20
445.3819170457
 30
0.0
 11
1516.6350880613
 21
445.3819170457
 31
0.0
  0
ARC
  5
274
330
1F
100
AcDbEntity
  8
0
  6
Continuous
 62
     7
370
    15
100
AcDbCircle
 10
1513.9314248663
 20
443.0816765721
 30
0.0
 40
3.549774768702186
100
AcDbArc
 50
348.6309454912
 51
40.3906919069
  0
LINE
  5
275
330
1F
100
AcDbEntity
  8
0
  6
Continuous
 62
     7
370
    15
100
AcDbLine
 10
1487.0151823027
 20
437.8819170457
 30
0.0
 11
1517.4115451966
 21
437.8819170457
 31
0.0
  0
LINE
  5
276
330
1F
100
AcDbEntity
  8
0
  6
Continuous
 62
     7
370
    15
100
AcDbLine
 10
1487.0151823027
 20
437.8819170457
 30
0.0
 11
1487.0151823027
 21
442.3819170457
 31
0.0
  0
LINE
  5
277
330
1F
100
AcDbEntity
  8
0
  6
Continuous
 62
     7
370
    15
100
AcDbLine
 10
1517.4115451966
 20
437.8819170457
 30
0.0
 11
1517.4115451966
 21
442.3819170457
 31
0.0
  0
LINE
  5
278
330
1F
100
AcDbEntity
  8
0
  6
Continuous
 62
     7
370
    15
100
AcDbLine
 10
1515.4704023583
 20
430.3819170457
 30
0.0
 11
1494.3790485136
 21
430.3819170457
 31
0.0
  0
ARC
  5
279
330
1F
100
AcDbEntity
  8
0
  6
Continuous
 62
     7
370
    15
100
AcDbCircle
 10
1494.4477445752
 20
437.8144678981
 30
0.0
 40
7.432868310566001
100
AcDbArc
 50
179.4800655187
 51
269.4704533603
  0
LWPOLYLINE
  5
27A
330
1F
100
AcDbEntity
  8
0
  6
Continuous
 62
     7
370
    15
100
AcDbPolyline
 90
        9
 70
   128
 43
0.0
 10
1515.4704023583
 20
430.3819170457
 10
1515.8491005397
 20
430.5260274427
 10
1516.2132455624
 20
430.9528205519
 10
1516.5488435373
 20
431.6458949534
 10
1516.8429976225
 20
432.5786161868
 10
1517.0844036415
 20
433.7151402981
 10
1517.2637844963
 20
435.011791303
 10
1517.3742466813
 20
436.4187396306
 10
1517.4115451966
 20
437.8819170457
  0
LINE
  5
27B
330
1F
100
AcDbEntity
  8
0
  6
Continuous
 62
     7
370
    15
100
AcDbLine
 10
1674.7744907286
 20
442.3819170457
 30
0.0
 11
1517.4115451966
 21
442.3819170457
 31
0.0
  0
LINE
  5
27C
330
1F
100
AcDbEntity
  8
0
  6
Continuous
 62
     7
370
    15
100
AcDbLine
 10
1516.6350880613
 20
445.3819170457
 30
0.0
 11
1525.7369522162
 21
445.3819170457
 31
0.0
  0
ARC
  5
27D
330
1F
100
AcDbEntity
  8
0
  6
Continuous
 62
     7
370
    15
100
AcDbCircle
 10
1671.2943703983
 20
443.0816765721
 30
0.0
 40
3.549774768702359
100
AcDbArc
 50
348.6309454912
 51
40.3906919069
  0
LINE
  5
27E
330
1F
100
AcDbEntity
  8
0
  6
Continuous
 62
     7
370
    15
100
AcDbLine
 10
1672.8333478904
 20
430.3819170457
 30
0.0
 11
1515.4704023583
 21
430.3819170457
 31
0.0
  0
LINE
  5
27F
330
1F
100
AcDbEntity
  8
0
  6
Continuous
 62
     7
370
    15
100
AcDbLine
 10
1517.4115451966
 20
437.8819170457
 30
0.0
 11
1674.7744907286
 21
437.8819170457
 31
0.0
  0
LWPOLYLINE
  5
280
330
1F
100
AcDbEntity
  8
0
  6
Continuous
 62
     7
370
    15
100
AcDbPolyline
 90
        9
 70
   128
 43
0.0
 10
1672.8333478904
 20
430.3819170457
 10
1673.2120460718
 20
430.5260274427
 10
1673.5761910944
 20
430.9528205519
 10
1673.9117890694
 20
431.6458949534
 10
1674.2059431546
 20
432.5786161868
 10
1674.4473491735
 20
433.7151402981
 10
1674.6267300283
 20
435.011791303
 10
1674.7371922133
 20
436.4187396306
 10
1674.7744907286
 20
437.8819170457
  0
LINE
  5
281
330
1F
100
AcDbEntity
  8
0
  6
Continuous
 62
     7
370
    15
100
AcDbLine
 10
1674.7744907286
 20
437.8819170457
 30
0.0
 11
1674.7744907286
 21
442.3819170457
 31
0.0
  0
LINE
  5
282
330
1F
100
AcDbEntity
  8
0
  6
Continuous
 62
     7
370
    15
100
AcDbLine
 10
1494.3790485136
 20
430.3819170457
 30
0.0
 11
1476.2369522162
 21
430.3819170457
 31
0.0
  0
LINE
  5
283
330
1F
100
AcDbEntity
  8
0
  6
Continuous
 62
     7
370
    15
100
AcDbLine
 10
1471.7369522162
 20
445.3819170457
 30
0.0
 11
1489.9607287871
 21
445.3819170457
 31
0.0
  0
LINE
  5
284
330
1F
100
AcDbEntity
  8
0
  6
Continuous
 62
     7
370
    15
100
AcDbLine
 10
1674.7744907286
 20
437.8819170457
 30
0.0
 11
1678.3607926173
 21
437.8819170457
 31
0.0
  0
LWPOLYLINE
  5
285
330
1F
100
AcDbEntity
  8
0
  6
Continuous
 62
     7
370
    15
100
AcDbPolyline
 90
        9
 70
   128
 43
0.0
 10
1673.0574917584
 20
430.3819170457
 10
1674.0921144307
 20
430.5260274427
 10
1675.086977134
 20
430.9528205519
 10
1676.0038478524
 20
431.6458949534
 10
1676.8074917584
 20
432.5786161868
 10
1677.4670252675
 20
433.7151402981
 10
1677.9571028767
 20
435.011791303
 10
1678.2588911784
 20
436.4187396306
 10
1678.3607926173
 20
437.8819170457
  0
LINE
  5
286
330
1F
100
AcDbEntity
  8
0
  6
Continuous
 62
     7
370
    15
100
AcDbLine
 10
1673.0574917584
 20
430.3819170457
 30
0.0
 11
1672.8333478904
 21
430.3819170457
 31
0.0
  0
LINE
  5
287
330
1F
100
AcDbEntity
  8
0
  6
Continuous
 62
     7
370
    15
100
AcDbLine
 10
1678.3607926173
 20
442.3819170457
 30
0.0
 11
1674.7744907286
 21
442.3819170457
 31
0.0
  0
ARC
  5
288
330
1F
100
AcDbEntity
  8
0
  6
Continuous
 62
     7
370
    15
100
AcDbCircle
 10
1675.7091421879
 20
442.7569170457
 30
0.0
 40
2.678035660704166
100
AcDbArc
 50
351.9505330245
 51
78.578246341
  0
LINE
  5
289
330
1F
100
AcDbEntity
  8
0
  6
Continuous
 62
     7
370
    15
100
AcDbLine
 10
1678.3607926173
 20
437.8819170457
 30
0.0
 11
1678.3607926173
 21
442.3819170457
 31
0.0
  0
ARC
  5
28A
330
1F
100
AcDbEntity
  8
0
  6
Continuous
 62
     7
370
    15
100
AcDbCircle
 10
1824.7421560362
 20
442.7569170457
 30
0.0
 40
2.678035660703586
100
AcDbArc
 50
351.9505330245
 51
78.578246341
  0
LINE
  5
28B
330
1F
100
AcDbEntity
  8
0
  6
Continuous
 62
     7
370
    15
100
AcDbLine
 10
1827.3938064657
 20
442.3819170457
 30
0.0
 11
1678.3607926173
 21
442.3819170457
 31
0.0
  0
LINE
  5
28C
330
1F
100
AcDbEntity
  8
0
  6
Continuous
 62
     7
370
    15
100
AcDbLine
 10
1678.3607926173
 20
437.8819170457
 30
0.0
 11
1827.3938064657
 21
437.8819170457
 31
0.0
  0
LINE
  5
28D
330
1F
100
AcDbEntity
  8
0
  6
Continuous
 62
     7
370
    15
100
AcDbLine
 10
1827.3938064657
 20
437.8819170457
 30
0.0
 11
1827.3938064657
 21
442.3819170457
 31
0.0
  0
LWPOLYLINE
  5
28E
330
1F
100
AcDbEntity
  8
0
  6
Continuous
 62
     7
370
    15
100
AcDbPolyline
 90
        9
 70
   128
 43
0.0
 10
1822.0905056068
 20
430.3819170457
 10
1823.1251282791
 20
430.5260274427
 10
1824.1199909823
 20
430.9528205519
 10
1825.0368617007
 20
431.6458949534
 10
1825.8405056068
 20
432.5786161868
 10
1826.5000391159
 20
433.7151402981
 10
1826.9901167251
 20
435.011791303
 10
1827.2919050267
 20
436.4187396306
 10
1827.3938064657
 20
437.8819170457
  0
LINE
  5
28F
330
1F
100
AcDbEntity
  8
0
  6
Continuous
 62
     7
370
    15
100
AcDbLine
 10
1822.0905056068
 20
430.3819170457
 30
0.0
 11
1673.0574917584
 21
430.3819170457
 31
0.0
  0
ARC
  5
290
330
1F
100
AcDbEntity
  8
0
  6
Continuous
 62
     7
370
    15
100
AcDbCircle
 10
1826.7369522162
 20
442.3819170457
 30
0.0
 40
3.000000000000227
100
AcDbArc
 50
0.0
 51
90.0
  0
LINE
  5
291
330
1F
100
AcDbEntity
  8
0
  6
Continuous
 62
     7
370
    15
100
AcDbLine
 10
1829.7369522162
 20
442.3819170457
 30
0.0
 11
1827.3938064657
 21
442.3819170457
 31
0.0
  0
LINE
  5
292
330
1F
100
AcDbEntity
  8
0
  6
Continuous
 62
     7
370
    15
100
AcDbLine
 10
1827.3938064657
 20
437.8819170457
 30
0.0
 11
1829.7369522162
 21
437.8819170457
 31
0.0
  0
ARC
  5
293
330
1F
100
AcDbEntity
  8
0
  6
Continuous
 62
     7
370
    15
100
AcDbCircle
 10
1822.2369522162
 20
437.8819170457
 30
0.0
 40
7.5
100
AcDbArc
 50
270.0
 51
0.0
  0
LINE
  5
294
330
1F
100
AcDbEntity
  8
0
  6
Continuous
 62
     7
370
    15
100
AcDbLine
 10
1822.2369522162
 20
430.3819170457
 30
0.0
 11
1822.0905056068
 21
430.3819170457
 31
0.0
  0
LINE
  5
295
330
1F
100
AcDbEntity
  8
0
  6
Continuous
 62
     7
370
    15
100
AcDbLine
 10
1829.7369522162
 20
437.8819170457
 30
0.0
 11
1829.7369522162
 21
442.3819170457
 31
0.0
  0
LINE
  5
296
330
1F
100
AcDbEntity
  8
0
  6
Continuous
 62
     8
370
    15
100
AcDbLine
 10
1493.8881240996
 20
1070.3819170457
 30
0.0
 11
1493.8881240996
 21
445.3819170457
 31
0.0
  0
LINE
  5
297
330
1F
100
AcDbEntity
  8
0
  6
Continuous
 62
     8
370
    15
100
AcDbLine
 10
1515.5998118809
 20
1070.3819170457
 30
0.0
 11
1515.5998118809
 21
445.3819170457
 31
0.0
  0
LINE
  5
298
330
1F
100
AcDbEntity
  8
0
  6
Continuous
 62
     8
370
    15
100
AcDbLine
 10
1518.2274630835
 20
1070.3819170457
 30
0.0
 11
1518.2274630835
 21
445.3819170457
 31
0.0
  0
LINE
  5
299
330
1F
100
AcDbEntity
  8
0
  6
Continuous
 62
     8
370
    15
100
AcDbLine
 10
1520.4735522162
 20
1070.3819170457
 30
0.0
 11
1520.4735522162
 21
445.3819170457
 31
0.0
  0
LINE
  5
29A
330
1F
100
AcDbEntity
  8
0
  6
Continuous
 62
     8
370
    15
100
AcDbLine
 10
1800.7175423157
 20
427.9568377689
 30
0.0
 11
1816.7563621167
 21
427.9568377689
 31
0.0
  0
LINE
  5
29B
330
1F
100
AcDbEntity
  8
0
  6
Continuous
 62
     8
370
    15
100
AcDbLine
 10
1676.7175423157
 20
427.9568377687
 30
0.0
 11
1692.7563621167
 21
427.9568377687
 31
0.0
  0
LWPOLYLINE
  5
29C
330
1F
100
AcDbEntity
  8
0
  6
Continuous
 62
     8
370
    15
100
AcDbPolyline
 90
       20
 70
   128
 43
0.0
 10
1698.737012822
 20
1030.9542591181
 10
1698.0919227189
 20
1030.7611443439
 10
1696.8453304178
 20
1030.6662094165
 10
1695.6107429396
 20
1030.9280965835
 10
1694.4387044408
 20
1031.5360841535
 10
1693.3771983151
 20
1032.4652810439
 10
1692.4696827482
 20
1033.677645825
 10
1691.7533115338
 20
1035.12354414
 10
1691.2574129938
 20
1036.7437807421
 10
1691.0022892727
 20
1038.4720229545
 10
1690.9983851654
 20
1040.2375163378
 10
1691.2458605067
 20
1041.9679813857
 10
1691.734583627
 20
1043.5925726556
 10
1692.4445461443
 20
1045.04477919
 10
1693.3466821098
 20
1046.265147483
 10
1694.404057971
 20
1047.2037155131
 10
1695.5733846359
 20
1047.8220581949
 10
1696.8067897335
 20
1048.0948605064
 10
1698.0537775142
 20
1048.0109538889
 10
1698.737012822
 20
1047.8095749734
  0
LWPOLYLINE
  5
29D
330
1F
100
AcDbEntity
  8
0
  6
Continuous
 62
     8
370
    15
100
AcDbPolyline
 90
       20
 70
   128
 43
0.0
 10
1809.2025150776
 20
1032.9542591181
 10
1808.5574249745
 20
1032.7611443439
 10
1807.3108326734
 20
1032.6662094165
 10
1806.0762451952
 20
1032.9280965835
 10
1804.9042066963
 20
1033.5360841535
 10
1803.8427005707
 20
1034.4652810439
 10
1802.9351850037
 20
1035.677645825
 10
1802.2188137894
 20
1037.12354414
 10
1801.7229152494
 20
1038.7437807421
 10
1801.4677915282
 20
1040.4720229545
 10
1801.463887421
 20
1042.2375163378
 10
1801.7113627623
 20
1043.9679813857
 10
1802.2000858826
 20
1045.5925726556
 10
1802.9100483999
 20
1047.04477919
 10
1803.8121843653
 20
1048.265147483
 10
1804.8695602265
 20
1049.2037155131
 10
1806.0388868915
 20
1049.8220581949
 10
1807.2722919891
 20
1050.0948605064
 10
1808.5192797698
 20
1050.0109538889
 10
1809.2025150776
 20
1049.8095749734
  0
LWPOLYLINE
  5
29E
330
1F
100
AcDbEntity
  8
0
  6
Continuous
 62
     8
370
    15
100
AcDbPolyline
 90
       20
 70
   128
 43
0.0
 10
1810.61672864
 20
467.9542591181
 10
1809.9716385369
 20
467.7611443439
 10
1808.7250462358
 20
467.6662094165
 10
1807.4904587576
 20
467.9280965835
 10
1806.3184202587
 20
468.5360841535
 10
1805.2569141331
 20
469.4652810439
 10
1804.3493985661
 20
470.677645825
 10
1803.6330273518
 20
472.12354414
 10
1803.1371288118
 20
473.7437807421
 10
1802.8820050906
 20
475.4720229545
 10
1802.8781009833
 20
477.2375163378
 10
1803.1255763246
 20
478.9679813857
 10
1803.6142994449
 20
480.5925726556
 10
1804.3242619622
 20
482.04477919
 10
1805.2263979277
 20
483.265147483
 10
1806.2837737889
 20
484.2037155131
 10
1807.4531004539
 20
484.8220581949
 10
1808.6865055515
 20
485.0948605064
 10
1809.9334933322
 20
485.0109538889
 10
1810.61672864
 20
484.8095749734
  0
LWPOLYLINE
  5
29F
330
1F
100
AcDbEntity
  8
0
  6
Continuous
 62
     8
370
    15
100
AcDbPolyline
 90
       20
 70
   128
 43
0.0
 10
1698.737012822
 20
467.9542591181
 10
1698.0919227189
 20
467.7611443439
 10
1696.8453304178
 20
467.6662094165
 10
1695.6107429396
 20
467.9280965835
 10
1694.4387044408
 20
468.5360841535
 10
1693.3771983151
 20
469.4652810439
 10
1692.4696827481
 20
470.677645825
 10
1691.7533115338
 20
472.12354414
 10
1691.2574129938
 20
473.7437807421
 10
1691.0022892726
 20
475.4720229545
 10
1690.9983851654
 20
477.2375163378
 10
1691.2458605067
 20
478.9679813857
 10
1691.734583627
 20
480.5925726556
 10
1692.4445461443
 20
482.04477919
 10
1693.3466821098
 20
483.265147483
 10
1694.404057971
 20
484.2037155131
 10
1695.5733846359
 20
484.8220581949
 10
1696.8067897335
 20
485.0948605064
 10
1698.0537775142
 20
485.0109538889
 10
1698.737012822
 20
484.8095749734
  0
LINE
  5
2A0
330
1F
100
AcDbEntity
  8
0
  6
Continuous
 62
     8
370
    15
100
AcDbLine
 10
1500.3342301674
 20
427.956837769
 30
0.0
 11
1516.3730499684
 21
427.956837769
 31
0.0
  0
LWPOLYLINE
  5
2A1
330
1F
100
AcDbEntity
  8
0
  6
Continuous
 62
     8
370
    15
100
AcDbPolyline
 90
        3
 70
   128
 43
0.0
 10
1607.4085369702
 20
1053.2452345112
 10
1607.3774686222
 20
1053.1909335046
 10
1606.8333359068
 20
1051.8517988193
  0
LWPOLYLINE
  5
2A2
330
1F
100
AcDbEntity
  8
0
  6
Continuous
 62
     8
370
    15
100
AcDbPolyline
 90
        3
 70
   128
 43
0.0
 10
1607.161038834
 20
482.7667574804
 10
1607.1352276346
 20
482.7095815018
 10
1606.7196870814
 20
481.3219402113
  0
LINE
  5
2A3
330
1F
100
AcDbEntity
  8
0
  6
Continuous
 62
     8
370
    15
100
AcDbLine
 10
1643.3885351416
 20
753.2899115942
 30
0.0
 11
1643.496864762
 21
753.2899115942
 31
0.0
  0
LINE
  5
2A4
330
1F
100
AcDbEntity
  8
0
  6
Continuous
 62
     8
370
    15
100
AcDbLine
 10
1649.8843203368
 20
764.6751440314
 30
0.0
 11
1653.4570189855
 21
764.6751440314
 31
0.0
  0
LINE
  5
2A5
330
1F
100
AcDbEntity
  8
0
  6
Continuous
 62
     8
370
    15
100
AcDbLine
 10
1569.1805241201
 20
774.6096232604
 30
0.0
 11
1568.1737512826
 21
774.6746383104
 31
0.0
  0
LWPOLYLINE
  5
2A6
330
1F
100
AcDbEntity
  8
0
  6
Continuous
 62
     8
370
    15
100
AcDbPolyline
 90
        9
 70
   128
 43
0.0
 10
1563.6382185561
 20
755.8606951541
 10
1563.7256151723
 20
755.7910628977
 10
1563.8907678899
 20
755.4172829938
 10
1563.9032198959
 20
754.8102973663
 10
1563.7624926669
 20
753.9934321323
 10
1563.4739942712
 20
752.9980789649
 10
1563.0488115404
 20
751.8624887279
 10
1562.5032840085
 20
750.6303015173
 10
1561.8583759925
 20
749.3488695967
  0
ARC
  5
2A7
330
1F
100
AcDbEntity
  8
0
  6
Continuous
 62
     8
370
    15
100
AcDbCircle
 10
1606.5123859997
 20
832.0185233543
 30
0.0
 40
87.65682515581922
100
AcDbArc
 50
279.5538770154
 51
299.7530311687
  0
ARC
  5
2A8
330
1F
100
AcDbEntity
  8
0
  6
Continuous
 62
     8
370
    15
100
AcDbCircle
 10
1645.0393996052
 20
764.6387332288
 30
0.0
 40
10.04003563782314
100
AcDbArc
 50
299.6957502232
 51
88.4434993135
  0
LINE
  5
2A9
330
1F
100
AcDbEntity
  8
0
  6
Continuous
 62
     8
370
    15
100
AcDbLine
 10
1487.0151823027
 20
1077.5819170457
 30
0.0
 11
1468.7369522162
 21
1077.5819170457
 31
0.0
  0
LINE
  5
2AA
330
1F
100
AcDbEntity
  8
0
  6
Continuous
 62
     8
370
    15
100
AcDbLine
 10
1468.7369522162
 20
1072.3819170457
 30
0.0
 11
1487.0151823027
 21
1072.3819170457
 31
0.0
  0
LINE
  5
2AB
330
1F
100
AcDbEntity
  8
0
  6
Continuous
 62
     8
370
    15
100
AcDbLine
 10
1468.7369522162
 20
437.8819170457
 30
0.0
 11
1487.0151823027
 21
437.8819170457
 31
0.0
  0
LINE
  5
2AC
330
1F
100
AcDbEntity
  8
0
  6
Continuous
 62
     8
370
    15
100
AcDbLine
 10
1487.0151823027
 20
442.3819170457
 30
0.0
 11
1468.7369522162
 21
442.3819170457
 31
0.0
  0
DIMENSION
  5
2AD
330
1F
100
AcDbEntity
  8
MEDIÇÕES
100
AcDbDimension
  2
_D_1
 10
1368.7369522162
 20
1085.3819170457
 30
0.0
 11
1368.7369522162
 21
756.6693774073
 31
0.0
 70
   160
  1
<>
 71
     2
 42
-1.0
  3
SLDDIMSTYLE1
100
AcDbAlignedDimension
 13
1500.3342301674
 23
427.956837769
 33
0.0
 14
1515.3927566448
 24
1085.3819170457
 34
0.0
 50
90.0
100
AcDbRotatedDimension
  0
LINE
  5
2B8
330
1F
100
AcDbEntity
  8
0
  6
Continuous
 62
     7
370
    15
100
AcDbLine
 10
946.7091995827
 20
1571.1649069922
 30
0.0
 11
947.9797346187
 21
1573.3239519593
 31
0.0
  0
LINE
  5
2B9
330
1F
100
AcDbEntity
  8
0
  6
Continuous
 62
     7
370
    15
100
AcDbLine
 10
936.6385763752
 20
1584.6651102028
 30
0.0
 11
934.4795314081
 21
1583.3945751668
 31
0.0
  0
ARC
  5
2BA
330
1F
100
AcDbEntity
  8
0
  6
Continuous
 62
     7
370
    15
100
AcDbCircle
 10
936.6892934698
 20
1584.5789256548
 30
0.0
 40
0.1000000000001576
100
AcDbArc
 50
45.0
 51
120.4755709218
  0
ARC
  5
2BB
330
1F
100
AcDbEntity
  8
0
  6
Continuous
 62
     7
370
    15
100
AcDbCircle
 10
947.8935500707
 20
1573.3746690539
 30
0.0
 40
0.100000000000002
100
AcDbArc
 50
329.5244290782
 51
44.9999999999
  0
LINE
  5
2BC
330
1F
100
AcDbEntity
  8
0
  6
Continuous
 62
     7
370
    15
100
AcDbLine
 10
836.2436973272
 20
1681.6304092477
 30
0.0
 11
837.5142323632
 21
1683.7894542149
 31
0.0
  0
LINE
  5
2BD
330
1F
100
AcDbEntity
  8
0
  6
Continuous
 62
     7
370
    15
100
AcDbLine
 10
826.1730741197
 20
1695.1306124584
 30
0.0
 11
824.0140291525
 21
1693.8600774224
 31
0.0
  0
ARC
  5
2BE
330
1F
100
AcDbEntity
  8
0
  6
Continuous
 62
     7
370
    15
100
AcDbCircle
 10
826.2237912142
 20
1695.0444279103
 30
0.0
 40
0.0999999999999847
100
AcDbArc
 50
44.9999999999
 51
120.475570922
  0
ARC
  5
2BF
330
1F
100
AcDbEntity
  8
0
  6
Continuous
 62
     7
370
    15
100
AcDbCircle
 10
837.4280478151
 20
1683.8401713094
 30
0.0
 40
0.1000000000002259
100
AcDbArc
 50
329.5244290782
 51
45.0000000001
  0
LINE
  5
2C0
330
1F
100
AcDbEntity
  8
0
  6
Continuous
 62
     7
370
    15
100
AcDbLine
 10
824.7588605573
 20
1696.5448260207
 30
0.0
 11
822.5998155902
 21
1695.2742909847
 31
0.0
  0
ARC
  5
2C1
330
1F
100
AcDbEntity
  8
0
  6
Continuous
 62
     7
370
    15
100
AcDbCircle
 10
824.8095776519
 20
1696.4586414727
 30
0.0
 40
0.1000000000001576
100
AcDbArc
 50
45.0
 51
120.4755709218
  0
LINE
  5
2C2
330
1F
100
AcDbEntity
  8
0
  6
Continuous
 62
     7
370
    15
100
AcDbLine
 10
936.7600041479
 20
1584.6496363329
 30
0.0
 11
947.9642607488
 21
1573.445379732
 31
0.0
  0
LINE
  5
2C3
330
1F
100
AcDbEntity
  8
0
  6
Continuous
 62
     7
370
    15
100
AcDbLine
 10
826.2945018924
 20
1695.1151385885
 30
0.0
 11
837.4987584933
 21
1683.9108819876
 31
0.0
  0
LINE
  5
2C4
330
1F
100
AcDbEntity
  8
0
  6
Continuous
 62
     7
370
    15
100
AcDbLine
 10
824.88028833
 20
1696.5293521508
 30
0.0
 11
826.2945018924
 21
1695.1151385885
 31
0.0
  0
CIRCLE
  5
2C5
330
1F
100
AcDbEntity
  8
0
  6
Continuous
 62
     7
370
    15
100
AcDbCircle
 10
944.6634189379
 20
1482.8879091378
 30
0.0
 40
5.565155872648575
  0
LINE
  5
2C6
330
1F
100
AcDbEntity
  8
0
  6
Continuous
 62
     7
370
    15
100
AcDbLine
 10
944.6634189379
 20
1479.9879091378
 30
0.0
 11
947.1748926088
 21
1481.4379091378
 31
0.0
  0
LINE
  5
2C7
330
1F
100
AcDbEntity
  8
0
  6
Continuous
 62
     7
370
    15
100
AcDbLine
 10
947.1748926088
 20
1481.4379091378
 30
0.0
 11
947.1748926088
 21
1484.3379091378
 31
0.0
  0
LINE
  5
2C8
330
1F
100
AcDbEntity
  8
0
  6
Continuous
 62
     7
370
    15
100
AcDbLine
 10
944.6634189379
 20
1485.7879091378
 30
0.0
 11
947.1748926088
 21
1484.3379091378
 31
0.0
  0
LINE
  5
2C9
330
1F
100
AcDbEntity
  8
0
  6
Continuous
 62
     7
370
    15
100
AcDbLine
 10
942.1519452669
 20
1481.4379091378
 30
0.0
 11
942.1519452669
 21
1484.3379091378
 31
0.0
  0
LINE
  5
2CA
330
1F
100
AcDbEntity
  8
0
  6
Continuous
 62
     7
370
    15
100
AcDbLine
 10
942.1519452669
 20
1481.4379091378
 30
0.0
 11
944.6634189379
 21
1479.9879091378
 31
0.0
  0
LINE
  5
2CB
330
1F
100
AcDbEntity
  8
0
  6
Continuous
 62
     7
370
    15
100
AcDbLine
 10
942.1519452669
 20
1484.3379091378
 30
0.0
 11
944.6634189379
 21
1485.7879091378
 31
0.0
  0
CIRCLE
  5
2CC
330
1F
100
AcDbEntity
  8
0
  6
Continuous
 62
     7
370
    15
100
AcDbCircle
 10
944.6634189379
 20
1482.8879091378
 30
0.0
 40
0.5
  0
CIRCLE
  5
2CD
330
1F
100
AcDbEntity
  8
0
  6
Continuous
 62
     7
370
    15
100
AcDbCircle
 10
642.9552244
 20
1482.8879091378
 30
0.0
 40
5.565155872648802
  0
LINE
  5
2CE
330
1F
100
AcDbEntity
  8
0
  6
Continuous
 62
     7
370
    15
100
AcDbLine
 10
642.9552244
 20
1479.9879091378
 30
0.0
 11
645.4666980709
 21
1481.4379091378
 31
0.0
  0
LINE
  5
2CF
330
1F
100
AcDbEntity
  8
0
  6
Continuous
 62
     7
370
    15
100
AcDbLine
 10
645.4666980709
 20
1481.4379091378
 30
0.0
 11
645.4666980709
 21
1484.3379091378
 31
0.0
  0
LINE
  5
2D0
330
1F
100
AcDbEntity
  8
0
  6
Continuous
 62
     7
370
    15
100
AcDbLine
 10
642.9552244
 20
1485.7879091378
 30
0.0
 11
645.4666980709
 21
1484.3379091378
 31
0.0
  0
LINE
  5
2D1
330
1F
100
AcDbEntity
  8
0
  6
Continuous
 62
     7
370
    15
100
AcDbLine
 10
640.443750729
 20
1484.3379091378
 30
0.0
 11
642.9552244
 21
1485.7879091378
 31
0.0
  0
LINE
  5
2D2
330
1F
100
AcDbEntity
  8
0
  6
Continuous
 62
     7
370
    15
100
AcDbLine
 10
640.443750729
 20
1481.4379091378
 30
0.0
 11
640.443750729
 21
1484.3379091378
 31
0.0
  0
LINE
  5
2D3
330
1F
100
AcDbEntity
  8
0
  6
Continuous
 62
     7
370
    15
100
AcDbLine
 10
640.443750729
 20
1481.4379091378
 30
0.0
 11
642.9552244
 21
1479.9879091378
 31
0.0
  0
CIRCLE
  5
2D4
330
1F
100
AcDbEntity
  8
0
  6
Continuous
 62
     7
370
    15
100
AcDbCircle
 10
642.9552244
 20
1482.8879091378
 30
0.0
 40
0.5000000000002274
  0
CIRCLE
  5
2D5
330
1F
100
AcDbEntity
  8
0
  6
Continuous
 62
     7
370
    15
100
AcDbCircle
 10
793.8093216689
 20
1556.6655535518
 30
0.0
 40
5.565155872648762
  0
LINE
  5
2D6
330
1F
100
AcDbEntity
  8
0
  6
Continuous
 62
     7
370
    15
100
AcDbLine
 10
791.3175351491
 20
1558.1491302905
 30
0.0
 11
791.2786132648
 21
1555.2493914942
 31
0.0
  0
LINE
  5
2D7
330
1F
100
AcDbEntity
  8
0
  6
Continuous
 62
     7
370
    15
100
AcDbLine
 10
791.2786132648
 20
1555.2493914942
 30
0.0
 11
793.7703997847
 21
1553.7658147555
 31
0.0
  0
LINE
  5
2D8
330
1F
100
AcDbEntity
  8
0
  6
Continuous
 62
     7
370
    15
100
AcDbLine
 10
796.3011081888
 20
1555.1819768132
 30
0.0
 11
793.7703997847
 21
1553.7658147555
 31
0.0
  0
LINE
  5
2D9
330
1F
100
AcDbEntity
  8
0
  6
Continuous
 62
     7
370
    15
100
AcDbLine
 10
796.340030073
 20
1558.0817156095
 30
0.0
 11
796.3011081888
 21
1555.1819768132
 31
0.0
  0
LINE
  5
2DA
330
1F
100
AcDbEntity
  8
0
  6
Continuous
 62
     7
370
    15
100
AcDbLine
 10
793.8482435532
 20
1559.5652923482
 30
0.0
 11
796.340030073
 21
1558.0817156095
 31
0.0
  0
LINE
  5
2DB
330
1F
100
AcDbEntity
  8
0
  6
Continuous
 62
     7
370
    15
100
AcDbLine
 10
793.8482435532
 20
1559.5652923482
 30
0.0
 11
791.3175351491
 21
1558.1491302905
 31
0.0
  0
CIRCLE
  5
2DC
330
1F
100
AcDbEntity
  8
0
  6
Continuous
 62
     7
370
    15
100
AcDbCircle
 10
793.8093216689
 20
1556.6655535518
 30
0.0
 40
0.5000000000001861
  0
CIRCLE
  5
2DD
330
1F
100
AcDbEntity
  8
0
  6
Continuous
 62
     7
370
    15
100
AcDbCircle
 10
776.3953495875
 20
1674.6655535518
 30
0.0
 40
5.565155872648802
  0
LINE
  5
2DE
330
1F
100
AcDbEntity
  8
0
  6
Continuous
 62
     7
370
    15
100
AcDbLine
 10
776.3953495875
 20
1671.7655535518
 30
0.0
 11
778.9068232585
 21
1673.2155535518
 31
0.0
  0
LINE
  5
2DF
330
1F
100
AcDbEntity
  8
0
  6
Continuous
 62
     7
370
    15
100
AcDbLine
 10
778.9068232585
 20
1673.2155535518
 30
0.0
 11
778.9068232585
 21
1676.1155535518
 31
0.0
  0
LINE
  5
2E0
330
1F
100
AcDbEntity
  8
0
  6
Continuous
 62
     7
370
    15
100
AcDbLine
 10
776.3953495875
 20
1677.5655535518
 30
0.0
 11
778.9068232585
 21
1676.1155535518
 31
0.0
  0
LINE
  5
2E1
330
1F
100
AcDbEntity
  8
0
  6
Continuous
 62
     7
370
    15
100
AcDbLine
 10
773.8838759165
 20
1673.2155535518
 30
0.0
 11
773.8838759165
 21
1676.1155535518
 31
0.0
  0
LINE
  5
2E2
330
1F
100
AcDbEntity
  8
0
  6
Continuous
 62
     7
370
    15
100
AcDbLine
 10
773.8838759165
 20
1673.2155535518
 30
0.0
 11
776.3953495875
 21
1671.7655535518
 31
0.0
  0
LINE
  5
2E3
330
1F
100
AcDbEntity
  8
0
  6
Continuous
 62
     7
370
    15
100
AcDbLine
 10
773.8838759165
 20
1676.1155535518
 30
0.0
 11
776.3953495875
 21
1677.5655535518
 31
0.0
  0
CIRCLE
  5
2E4
330
1F
100
AcDbEntity
  8
0
  6
Continuous
 62
     7
370
    15
100
AcDbCircle
 10
776.3953495875
 20
1674.6655535518
 30
0.0
 40
0.5
  0
CIRCLE
  5
2E5
330
1F
100
AcDbEntity
  8
0
  6
Continuous
 62
     7
370
    15
100
AcDbCircle
 10
793.8093216689
 20
1472.6655535518
 30
0.0
 40
5.565155872648802
  0
LINE
  5
2E6
330
1F
100
AcDbEntity
  8
0
  6
Continuous
 62
     7
370
    15
100
AcDbLine
 10
793.8093216689
 20
1469.7655535518
 30
0.0
 11
796.3207953399
 21
1471.2155535518
 31
0.0
  0
LINE
  5
2E7
330
1F
100
AcDbEntity
  8
0
  6
Continuous
 62
     7
370
    15
100
AcDbLine
 10
796.3207953399
 20
1471.2155535518
 30
0.0
 11
796.3207953399
 21
1474.1155535518
 31
0.0
  0
LINE
  5
2E8
330
1F
100
AcDbEntity
  8
0
  6
Continuous
 62
     7
370
    15
100
AcDbLine
 10
793.8093216689
 20
1475.5655535518
 30
0.0
 11
796.3207953399
 21
1474.1155535518
 31
0.0
  0
LINE
  5
2E9
330
1F
100
AcDbEntity
  8
0
  6
Continuous
 62
     7
370
    15
100
AcDbLine
 10
791.2978479979
 20
1471.2155535518
 30
0.0
 11
793.8093216689
 21
1469.7655535518
 31
0.0
  0
LINE
  5
2EA
330
1F
100
AcDbEntity
  8
0
  6
Continuous
 62
     7
370
    15
100
AcDbLine
 10
791.2978479979
 20
1471.2155535518
 30
0.0
 11
791.2978479979
 21
1474.1155535518
 31
0.0
  0
LINE
  5
2EB
330
1F
100
AcDbEntity
  8
0
  6
Continuous
 62
     7
370
    15
100
AcDbLine
 10
791.2978479979
 20
1474.1155535518
 30
0.0
 11
793.8093216689
 21
1475.5655535518
 31
0.0
  0
CIRCLE
  5
2EC
330
1F
100
AcDbEntity
  8
0
  6
Continuous
 62
     7
370
    15
100
AcDbCircle
 10
793.8093216689
 20
1472.6655535518
 30
0.0
 40
0.5
  0
LINE
  5
2ED
330
1F
100
AcDbEntity
  8
0
  6
Continuous
 62
     7
370
    15
100
AcDbLine
 10
804.8948445241
 20
1701.8655535518
 30
0.0
 11
673.6240606716
 21
1701.8655535518
 31
0.0
  0
LINE
  5
2EE
330
1F
100
AcDbEntity
  8
0
  6
Continuous
 62
     7
370
    15
100
AcDbLine
 10
673.6240606716
 20
1701.8655535518
 30
0.0
 11
673.6240606716
 21
1709.6655535518
 31
0.0
  0
LINE
  5
2EF
330
1F
100
AcDbEntity
  8
0
  6
Continuous
 62
     7
370
    15
100
AcDbLine
 10
673.6240606716
 20
1709.6655535518
 30
0.0
 11
804.8948445241
 21
1709.6655535518
 31
0.0
  0
LINE
  5
2F0
330
1F
100
AcDbEntity
  8
0
  6
Continuous
 62
     7
370
    15
100
AcDbLine
 10
804.8948445241
 20
1701.8655535518
 30
0.0
 11
804.8948445241
 21
1709.6655535518
 31
0.0
  0
ARC
  5
2F1
330
1F
100
AcDbEntity
  8
0
  6
Continuous
 62
     7
370
    15
100
AcDbCircle
 10
673.6240606716
 20
1701.6655535518
 30
0.0
 40
0.2000000000002728
100
AcDbArc
 50
90.0
 51
165.0
  0
LINE
  5
2F2
330
1F
100
AcDbEntity
  8
0
  6
Continuous
 62
     7
370
    15
100
AcDbLine
 10
673.4308755064
 20
1701.7173173609
 30
0.0
 11
665.8966540613
 21
1703.7361059127
 31
0.0
  0
ARC
  5
2F3
330
1F
100
AcDbEntity
  8
0
  6
Continuous
 62
     7
370
    15
100
AcDbCircle
 10
673.6240606716
 20
1701.6655535518
 30
0.0
 40
8.000000000000227
100
AcDbArc
 50
90.0
 51
165.0
  0
ARC
  5
2F4
330
1F
100
AcDbEntity
  8
0
  6
Continuous
 62
     7
370
    15
100
AcDbCircle
 10
804.8948445241
 20
1701.6655535518
 30
0.0
 40
0.2000000000002728
100
AcDbArc
 50
45.0
 51
90.0
  0
ARC
  5
2F5
330
1F
100
AcDbEntity
  8
0
  6
Continuous
 62
     7
370
    15
100
AcDbCircle
 10
804.8948445241
 20
1701.6655535518
 30
0.0
 40
8.000000000000227
100
AcDbArc
 50
45.0
 51
90.0
  0
LINE
  5
2F6
330
1F
100
AcDbEntity
  8
0
  6
Continuous
 62
     7
370
    15
100
AcDbLine
 10
805.0362658803
 20
1701.8069749081
 30
0.0
 11
810.5516987736
 21
1707.3224078013
 31
0.0
  0
LINE
  5
2F7
330
1F
100
AcDbEntity
  8
0
  6
Continuous
 62
     7
370
    15
100
AcDbLine
 10
673.4308755064
 20
1701.7173173609
 30
0.0
 11
591.3323256262
 21
1395.3213579804
 31
0.0
  0
LINE
  5
2F8
330
1F
100
AcDbEntity
  8
0
  6
Continuous
 62
     7
370
    15
100
AcDbLine
 10
583.7981041812
 20
1397.3401465322
 30
0.0
 11
591.3323256262
 21
1395.3213579804
 31
0.0
  0
LINE
  5
2F9
330
1F
100
AcDbEntity
  8
0
  6
Continuous
 62
     7
370
    15
100
AcDbLine
 10
583.7981041812
 20
1397.3401465322
 30
0.0
 11
665.8966540613
 21
1703.7361059127
 31
0.0
  0
LINE
  5
2FA
330
1F
100
AcDbEntity
  8
0
  6
Continuous
 62
     7
370
    15
100
AcDbLine
 10
954.0692797287
 20
1552.7739610597
 30
0.0
 11
805.0362658803
 21
1701.8069749081
 31
0.0
  0
ARC
  5
2FB
330
1F
100
AcDbEntity
  8
0
  6
Continuous
 62
     7
370
    15
100
AcDbCircle
 10
953.9278583725
 20
1552.6325397035
 30
0.0
 40
0.2000000000002348
100
AcDbArc
 50
15.0
 51
45.0
  0
LINE
  5
2FC
330
1F
100
AcDbEntity
  8
0
  6
Continuous
 62
     7
370
    15
100
AcDbLine
 10
996.2863177116
 20
1395.3213579804
 30
0.0
 11
954.1210435377
 21
1552.6843035125
 31
0.0
  0
ARC
  5
2FD
330
1F
100
AcDbEntity
  8
0
  6
Continuous
 62
     7
370
    15
100
AcDbCircle
 10
980.1553564126
 20
1390.9990799272
 30
0.0
 40
16.70000000000006
100
AcDbArc
 50
280.9332448632
 51
15.0
  0
ARC
  5
2FE
330
1F
100
AcDbEntity
  8
0
  6
Continuous
 62
     7
370
    15
100
AcDbCircle
 10
793.8093216689
 20
2355.6655535518
 30
0.0
 40
999.2
100
AcDbArc
 50
259.0667551368
 51
280.9332448633
  0
ARC
  5
2FF
330
1F
100
AcDbEntity
  8
0
  6
Continuous
 62
     7
370
    15
100
AcDbCircle
 10
607.4632869253
 20
1390.9990799272
 30
0.0
 40
16.70000000000012
100
AcDbArc
 50
165.0
 51
259.0667551368
  0
CIRCLE
  5
300
330
1F
100
AcDbEntity
  8
0
  6
Continuous
 62
     7
370
    15
100
AcDbCircle
 10
944.6634189379
 20
1482.8879091378
 30
0.0
 40
5.125000000000114
  0
CIRCLE
  5
301
330
1F
100
AcDbEntity
  8
0
  6
Continuous
 62
     7
370
    15
100
AcDbCircle
 10
642.9552244
 20
1482.8879091378
 30
0.0
 40
5.125
  0
CIRCLE
  5
302
330
1F
100
AcDbEntity
  8
0
  6
Continuous
 62
     7
370
    15
100
AcDbCircle
 10
776.3953495875
 20
1674.6655535518
 30
0.0
 40
5.125
  0
CIRCLE
  5
303
330
1F
100
AcDbEntity
  8
0
  6
Continuous
 62
     7
370
    15
100
AcDbCircle
 10
793.8093216689
 20
1556.6655535518
 30
0.0
 40
5.499999999999886
  0
CIRCLE
  5
304
330
1F
100
AcDbEntity
  8
0
  6
Continuous
 62
     7
370
    15
100
AcDbCircle
 10
793.8093216689
 20
1472.6655535518
 30
0.0
 40
5.499999999999886
  0
LINE
  5
305
330
1F
100
AcDbEntity
  8
0
  6
Continuous
 62
     7
370
    15
100
AcDbLine
 10
810.5516987736
 20
1707.3224078013
 30
0.0
 11
959.584712622
 21
1558.289393953
 31
0.0
  0
LINE
  5
306
330
1F
100
AcDbEntity
  8
0
  6
Continuous
 62
     7
370
    15
100
AcDbLine
 10
954.0692797287
 20
1552.7739610597
 30
0.0
 11
959.584712622
 21
1558.289393953
 31
0.0
  0
ARC
  5
307
330
1F
100
AcDbEntity
  8
0
  6
Continuous
 62
     7
370
    15
100
AcDbCircle
 10
953.9278583725
 20
1552.6325397035
 30
0.0
 40
8.000000000000226
100
AcDbArc
 50
15.0
 51
45.0
  0
LINE
  5
308
330
1F
100
AcDbEntity
  8
0
  6
Continuous
 62
     7
370
    15
100
AcDbLine
 10
961.6552649828
 20
1554.7030920643
 30
0.0
 11
954.1210435377
 21
1552.6843035125
 31
0.0
  0
LINE
  5
309
330
1F
100
AcDbEntity
  8
0
  6
Continuous
 62
     7
370
    15
100
AcDbLine
 10
961.6552649828
 20
1554.7030920643
 30
0.0
 11
1003.8205391567
 21
1397.3401465322
 31
0.0
  0
LINE
  5
30A
330
1F
100
AcDbEntity
  8
0
  6
Continuous
 62
     7
370
    15
100
AcDbLine
 10
1003.8205391567
 20
1397.3401465322
 30
0.0
 11
996.2863177116
 21
1395.3213579804
 31
0.0
  0
ARC
  5
30B
330
1F
100
AcDbEntity
  8
0
  6
Continuous
 62
     7
370
    15
100
AcDbCircle
 10
607.4632869253
 20
1390.9990799272
 30
0.0
 40
24.50000000000023
100
AcDbArc
 50
165.0
 51
259.0667551368
  0
LINE
  5
30C
330
1F
100
AcDbEntity
  8
0
  6
Continuous
 62
     7
370
    15
100
AcDbLine
 10
602.8164901301
 20
1366.9437836384
 30
0.0
 11
604.2958784975
 21
1374.6022044977
 31
0.0
  0
ARC
  5
30D
330
1F
100
AcDbEntity
  8
0
  6
Continuous
 62
     7
370
    15
100
AcDbCircle
 10
980.1553564126
 20
1390.9990799272
 30
0.0
 40
24.50000000000017
100
AcDbArc
 50
280.9332448632
 51
15.0
  0
LINE
  5
30E
330
1F
100
AcDbEntity
  8
0
  6
Continuous
 62
     7
370
    15
100
AcDbLine
 10
984.8021532077
 20
1366.9437836384
 30
0.0
 11
983.3227648403
 21
1374.6022044977
 31
0.0
  0
ARC
  5
30F
330
1F
100
AcDbEntity
  8
0
  6
Continuous
 62
     7
370
    15
100
AcDbCircle
 10
793.8093216689
 20
2355.6655535518
 30
0.0
 40
1007.0
100
AcDbArc
 50
259.0667551368
 51
280.9332448633
  0
LINE
  5
310
330
1F
100
AcDbEntity
  8
0
  6
Continuous
 62
     8
370
    15
100
AcDbLine
 10
939.3246873755
 20
1581.9789992024
 30
0.0
 11
936.6385763752
 21
1584.6651102028
 31
0.0
  0
LINE
  5
311
330
1F
100
AcDbEntity
  8
0
  6
Continuous
 62
     8
370
    15
100
AcDbLine
 10
947.9797346187
 20
1573.3239519593
 30
0.0
 11
939.3246873755
 21
1581.9789992024
 31
0.0
  0
LINE
  5
312
330
1F
100
AcDbEntity
  8
0
  6
Continuous
 62
     8
370
    15
100
AcDbLine
 10
828.85918512
 20
1692.444501458
 30
0.0
 11
826.1730741197
 21
1695.1306124584
 31
0.0
  0
LINE
  5
313
330
1F
100
AcDbEntity
  8
0
  6
Continuous
 62
     8
370
    15
100
AcDbLine
 10
837.5142323632
 20
1683.7894542149
 30
0.0
 11
828.85918512
 21
1692.444501458
 31
0.0
  0
LINE
  5
314
330
1F
100
AcDbEntity
  8
0
  6
Continuous
 62
     8
370
    15
100
AcDbLine
 10
826.1730741197
 20
1695.1306124584
 30
0.0
 11
824.7588605573
 21
1696.5448260207
 31
0.0
  0
DIMENSION
  5
315
330
1F
100
AcDbEntity
  8
MEDIÇÕES
100
AcDbDimension
  2
_D_2
 10
539.534532887
 20
1348.6655535518
 30
0.0
 11
539.534532887
 21
1540.2545882383
 31
0.0
 70
   160
  1
<>
 71
     2
 42
-1.0
  3
SLDDIMSTYLE2
100
AcDbAlignedDimension
 13
673.6240606716
 23
1709.6655535518
 33
0.0
 14
793.8093216689
 24
1348.6655535518
 34
0.0
 50
90.0
100
AcDbRotatedDimension
  0
LINE
  5
320
330
1F
100
AcDbEntity
  8
0
  6
Continuous
 62
     7
370
    15
100
AcDbLine
 10
2644.7439539345
 20
1163.75320885
 30
0.0
 11
2644.7439539345
 21
1668.1746896448
 31
0.0
  0
LINE
  5
321
330
1F
100
AcDbEntity
  8
0
  6
Continuous
 62
     7
370
    15
100
AcDbLine
 10
2346.9223947265
 20
1820.4202176841
 30
0.0
 11
2346.9223947265
 21
1319.3060426303
 31
0.0
  0
LINE
  5
322
330
1F
100
AcDbEntity
  8
0
  6
Continuous
 62
     7
370
    15
100
AcDbLine
 10
2731.7019581121
 20
1735.7386675902
 30
0.0
 11
2734.1270373889
 21
1736.3669389877
 31
0.0
  0
LINE
  5
323
330
1F
100
AcDbEntity
  8
0
  6
Continuous
 62
     7
370
    15
100
AcDbLine
 10
2734.1270373889
 20
1752.4057587887
 30
0.0
 11
2731.7019581121
 21
1753.0340301861
 31
0.0
  0
ARC
  5
324
330
1F
100
AcDbEntity
  8
0
  6
Continuous
 62
     7
370
    15
100
AcDbCircle
 10
2734.101958112
 20
1752.3089547088
 30
0.0
 40
0.1000000000000965
100
AcDbArc
 50
0.0000000001
 51
75.475570922
  0
ARC
  5
325
330
1F
100
AcDbEntity
  8
0
  6
Continuous
 62
     7
370
    15
100
AcDbCircle
 10
2734.101958112
 20
1736.4637430675
 30
0.0
 40
0.1000000000000965
100
AcDbArc
 50
284.524429078
 51
0.0000000003
  0
LINE
  5
326
330
1F
100
AcDbEntity
  8
0
  6
Continuous
 62
     7
370
    15
100
AcDbLine
 10
2731.7019581121
 20
1827.556681332
 30
0.0
 11
2734.1270373889
 21
1828.1849527294
 31
0.0
  0
LINE
  5
327
330
1F
100
AcDbEntity
  8
0
  6
Continuous
 62
     7
370
    15
100
AcDbLine
 10
2734.1270373889
 20
1844.2237725304
 30
0.0
 11
2731.7019581121
 21
1844.8520439279
 31
0.0
  0
ARC
  5
328
330
1F
100
AcDbEntity
  8
0
  6
Continuous
 62
     7
370
    15
100
AcDbCircle
 10
2734.1019581121
 20
1844.1269684506
 30
0.0
 40
0.1000000000000965
100
AcDbArc
 50
0.0000000001
 51
75.475570922
  0
ARC
  5
329
330
1F
100
AcDbEntity
  8
0
  6
Continuous
 62
     7
370
    15
100
AcDbCircle
 10
2734.1019581121
 20
1828.2817568093
 30
0.0
 40
0.1000000000000965
100
AcDbArc
 50
284.524429078
 51
0.0000000001
  0
LINE
  5
32A
330
1F
100
AcDbEntity
  8
0
  6
Continuous
 62
     7
370
    15
100
AcDbLine
 10
2731.7019581121
 20
1367.3656980407
 30
0.0
 11
2734.1270373889
 21
1367.9939694382
 31
0.0
  0
LINE
  5
32B
330
1F
100
AcDbEntity
  8
0
  6
Continuous
 62
     7
370
    15
100
AcDbLine
 10
2734.1270373889
 20
1384.0327892391
 30
0.0
 11
2731.7019581121
 21
1384.6610606366
 31
0.0
  0
ARC
  5
32C
330
1F
100
AcDbEntity
  8
0
  6
Continuous
 62
     7
370
    15
100
AcDbCircle
 10
2734.1019581121
 20
1383.9359851593
 30
0.0
 40
0.1000000000000965
100
AcDbArc
 50
0.0
 51
75.475570922
  0
ARC
  5
32D
330
1F
100
AcDbEntity
  8
0
  6
Continuous
 62
     7
370
    15
100
AcDbCircle
 10
2734.1019581121
 20
1368.090773518
 30
0.0
 40
0.0999999999998764
100
AcDbArc
 50
284.524429078
 51
0.0
  0
LINE
  5
32E
330
1F
100
AcDbEntity
  8
0
  6
Continuous
 62
     7
370
    15
100
AcDbLine
 10
2731.7019581121
 20
1276.0261904986
 30
0.0
 11
2734.1270373888
 21
1276.654461896
 31
0.0
  0
LINE
  5
32F
330
1F
100
AcDbEntity
  8
0
  6
Continuous
 62
     7
370
    15
100
AcDbLine
 10
2734.1270373888
 20
1292.693281697
 30
0.0
 11
2731.7019581121
 21
1293.3215530944
 31
0.0
  0
ARC
  5
330
330
1F
100
AcDbEntity
  8
0
  6
Continuous
 62
     7
370
    15
100
AcDbCircle
 10
2734.101958112
 20
1292.5964776171
 30
0.0
 40
0.1000000000003638
100
AcDbArc
 50
0.0
 51
75.4755709217
  0
ARC
  5
331
330
1F
100
AcDbEntity
  8
0
  6
Continuous
 62
     7
370
    15
100
AcDbCircle
 10
2734.101958112
 20
1276.7512659758
 30
0.0
 40
0.1000000000003638
100
AcDbArc
 50
284.5244290783
 51
0.0
  0
SPLINE
  5
332
330
1F
100
AcDbEntity
  8
0
  6
Continuous
 62
     7
370
    15
100
AcDbSpline
210
0.0
220
0.0
230
1.0
 70
     8
 71
     3
 72
     9
 73
     5
 74
     0
 42
0.00000001
 43
0.00000001
 12
1.0
 22
0.0
 32
0.0
 13
1.0
 23
0.0
 33
0.0
 40
0.0
 40
0.0
 40
0.0
 40
0.0
 40
0.4541667105328704
 40
1.0
 40
1.0
 40
1.0
 40
1.0
 10
2731.311623709785
 20
1243.75181357203
 30
0.0
 10
2731.415156892034
 20
1244.00485007972
 30
0.0
 10
2731.643119840108
 20
1244.561994629996
 30
0.0
 10
2731.681182335193
 20
1245.162525222582
 30
0.0
 10
2731.70195811209
 20
1245.490314811359
 30
0.0
  0
SPLINE
  5
333
330
1F
100
AcDbEntity
  8
0
  6
Continuous
 62
     7
370
    15
100
AcDbSpline
210
0.0
220
0.0
230
1.0
 70
     8
 71
     3
 72
    25
 73
    21
 74
     0
 42
0.00000001
 43
0.00000001
 12
1.0
 22
0.0
 32
0.0
 13
1.0
 23
0.0
 33
0.0
 40
0.0
 40
0.0
 40
0.0
 40
0.0
 40
0.0342793679480933
 40
0.0824037327541057
 40
0.1323658930028635
 40
0.1851177079506724
 40
0.2408971644995667
 40
0.2994812875238824
 40
0.3603999751908995
 40
0.4230953522422031
 40
0.4870131823166117
 40
0.5516377955797239
 40
0.6164914222442945
 40
0.6809945891168768
 40
0.7446485086119108
 40
0.8069602351183248
 40
0.8674218346600158
 40
0.9255738954548262
 40
0.9755817711480191
 40
1.0
 40
1.0
 40
1.0
 40
1.0
 10
2668.934404797705
 20
1439.046540975913
 30
0.0
 10
2668.932866458407
 20
1439.049110159684
 30
0.0
 10
2668.929168464309
 20
1439.055286187586
 30
0.0
 10
2668.828559116949
 20
1439.397372882121
 30
0.0
 10
2668.724676725319
 20
1440.026475825169
 30
0.0
 10
2668.653623144578
 20
1440.948928575367
 30
0.0
 10
2668.657258265574
 20
1442.136421500975
 30
0.0
 10
2668.762035474268
 20
1443.563276379556
 30
0.0
 10
2668.986884700334
 20
1445.185009073376
 30
0.0
 10
2669.340155683494
 20
1446.94839385804
 30
0.0
 10
2669.820891223029
 20
1448.793834479416
 30
0.0
 10
2670.419576240509
 20
1450.659394243721
 30
0.0
 10
2671.118676711218
 20
1452.482001711953
 30
0.0
 10
2671.893173710846
 20
1454.200237195904
 30
0.0
 10
2672.711041304999
 20
1455.756729685373
 30
0.0
 10
2673.533241485129
 20
1457.100509890294
 30
0.0
 10
2674.315005664457
 20
1458.191012617623
 30
0.0
 10
2674.977121085257
 20
1458.968992695606
 30
0.0
 10
2675.410862661064
 20
1459.393321248407
 30
0.0
 10
2675.58088228982
 20
1459.535521064083
 30
0.0
 10
2675.636663500321
 20
1459.582174958749
 30
0.0
  0
SPLINE
  5
334
330
1F
100
AcDbEntity
  8
0
  6
Continuous
 62
     7
370
    15
100
AcDbSpline
210
0.0
220
0.0
230
1.0
 70
     8
 71
     3
 72
    15
 73
    11
 74
     0
 42
0.00000001
 43
0.00000001
 12
1.0
 22
0.0
 32
0.0
 13
1.0
 23
0.0
 33
0.0
 40
0.0
 40
0.0
 40
0.0
 40
0.0
 40
0.0708977758401805
 40
0.2062059599704177
 40
0.3414548183746255
 40
0.4766338961537744
 40
0.6117357620524178
 40
0.7467565653912643
 40
0.8816951058187351
 40
1.0
 40
1.0
 40
1.0
 40
1.0
 10
2675.636663500321
 20
1459.582174958749
 30
0.0
 10
2676.561072234411
 20
1460.340303860559
 30
0.0
 10
2679.24971215519
 20
1462.545319407613
 30
0.0
 10
2683.705138630959
 20
1466.405371159715
 30
0.0
 10
2688.999082299908
 20
1471.247074466405
 30
0.0
 10
2694.286682374401
 20
1476.354692522506
 30
0.0
 10
2699.563730148802
 20
1481.716666355309
 30
0.0
 10
2704.825495052961
 20
1487.334261569137
 30
0.0
 10
2709.855416564123
 20
1492.94211626543
 30
0.0
 10
2713.120797244174
 20
1496.77793671531
 30
0.0
 10
2714.646248501822
 20
1498.569873920405
 30
0.0
  0
SPLINE
  5
335
330
1F
100
AcDbEntity
  8
0
  6
Continuous
 62
     7
370
    15
100
AcDbSpline
210
0.0
220
0.0
230
1.0
 70
     8
 71
     3
 72
    11
 73
     7
 74
     0
 42
0.00000001
 43
0.00000001
 12
1.0
 22
0.0
 32
0.0
 13
1.0
 23
0.0
 33
0.0
 40
0.0
 40
0.0
 40
0.0
 40
0.0
 40
0.1906738171012722
 40
0.515344683467593
 40
0.7958200029889508
 40
1.0
 40
1.0
 40
1.0
 40
1.0
 10
2714.646248501822
 20
1498.569873920405
 30
0.0
 10
2714.769732297841
 20
1498.711978533403
 30
0.0
 10
2715.103478790885
 20
1499.096052539566
 30
0.0
 10
2715.518353656492
 20
1499.491416360563
 30
0.0
 10
2715.819208066103
 20
1499.717027415784
 30
0.0
 10
2715.818203175349
 20
1499.715108366973
 30
0.0
 10
2715.817779825838
 20
1499.714299892647
 30
0.0
  0
SPLINE
  5
336
330
1F
100
AcDbEntity
  8
0
  6
Continuous
 62
     7
370
    15
100
AcDbSpline
210
0.0
220
0.0
230
1.0
 70
     8
 71
     3
 72
    12
 73
     8
 74
     0
 42
0.00000001
 43
0.00000001
 12
1.0
 22
0.0
 32
0.0
 13
1.0
 23
0.0
 33
0.0
 40
0.0
 40
0.0
 40
0.0
 40
0.0
 40
0.2135902948109898
 40
0.4655467405179783
 40
0.700982197106691
 40
0.9286426273872371
 40
1.0
 40
1.0
 40
1.0
 40
1.0
 10
2648.801600097347
 20
1165.446866585562
 30
0.0
 10
2649.075213914184
 20
1165.292402372288
 30
0.0
 10
2649.671589422266
 20
1164.95572831563
 30
0.0
 10
2650.674285489715
 20
1164.719653704677
 30
0.0
 10
2651.716257375066
 20
1164.725257893565
 30
0.0
 10
2652.472079351021
 20
1164.943508529565
 30
0.0
 10
2652.852787648475
 20
1165.149232283829
 30
0.0
 10
2652.943639576271
 20
1165.198326038268
 30
0.0
  0
LINE
  5
337
330
1F
100
AcDbEntity
  8
0
  6
Continuous
 62
     7
370
    15
100
AcDbLine
 10
2646.1622951918
 20
1166.9442458803
 30
0.0
 11
2648.8227255596
 21
1165.4084121201
 31
0.0
  0
SPLINE
  5
338
330
1F
100
AcDbEntity
  8
0
  6
Continuous
 62
     7
370
    15
100
AcDbSpline
210
0.0
220
0.0
230
1.0
 70
     8
 71
     3
 72
     9
 73
     5
 74
     0
 42
0.00000001
 43
0.00000001
 12
1.0
 22
0.0
 32
0.0
 13
1.0
 23
0.0
 33
0.0
 40
0.0
 40
0.0
 40
0.0
 40
0.0
 40
0.6329807964544267
 40
1.0
 40
1.0
 40
1.0
 40
1.0
 10
2652.943639576271
 20
1165.198326038268
 30
0.0
 10
2653.146285791326
 20
1165.325461342499
 30
0.0
 10
2653.466431704424
 20
1165.526313098102
 30
0.0
 10
2653.735763653605
 20
1165.781248129511
 30
0.0
 10
2653.834613651083
 20
1165.874814181695
 30
0.0
  0
LINE
  5
339
330
1F
100
AcDbEntity
  8
0
  6
Continuous
 62
     7
370
    15
100
AcDbLine
 10
2653.8346136511
 20
1165.8748141817
 30
0.0
 11
2730.3122474745
 21
1242.3441614942
 31
0.0
  0
SPLINE
  5
33A
330
1F
100
AcDbEntity
  8
0
  6
Continuous
 62
     7
370
    15
100
AcDbSpline
210
0.0
220
0.0
230
1.0
 70
     8
 71
     3
 72
     9
 73
     5
 74
     0
 42
0.00000001
 43
0.00000001
 12
1.0
 22
0.0
 32
0.0
 13
1.0
 23
0.0
 33
0.0
 40
0.0
 40
0.0
 40
0.0
 40
0.0
 40
0.4512403557929315
 40
1.0
 40
1.0
 40
1.0
 40
1.0
 10
2730.31224747445
 20
1242.344161494161
 30
0.0
 10
2730.492708035623
 20
1242.537353086678
 30
0.0
 10
2730.892629183754
 20
1242.965487649636
 30
0.0
 10
2731.163164723338
 20
1243.473200983551
 30
0.0
 10
2731.311623709785
 20
1243.75181357203
 30
0.0
  0
SPLINE
  5
33B
330
1F
100
AcDbEntity
  8
0
  6
Continuous
 62
     7
370
    15
100
AcDbSpline
210
0.0
220
0.0
230
1.0
 70
     8
 71
     3
 72
    22
 73
    18
 74
     0
 42
0.00000001
 43
0.00000001
 12
1.0
 22
0.0
 32
0.0
 13
1.0
 23
0.0
 33
0.0
 40
0.0
 40
0.0
 40
0.0
 40
0.0
 40
0.037943216984058
 40
0.109483505806533
 40
0.1809054028193383
 40
0.2522194278331908
 40
0.3234613157146006
 40
0.3946739567448134
 40
0.4659033897986029
 40
0.5371819774290797
 40
0.6085576818343419
 40
0.6800782395280817
 40
0.7517868540737289
 40
0.8237130707943598
 40
0.8958536564831515
 40
0.968132815408535
 40
1.0
 40
1.0
 40
1.0
 40
1.0
 10
2614.624639094877
 20
1666.519761122554
 30
0.0
 10
2615.044045290957
 20
1666.362581057725
 30
0.0
 10
2616.254223666794
 20
1665.909044802549
 30
0.0
 10
2618.375981949079
 20
1665.288758538964
 30
0.0
 10
2621.003332268152
 20
1664.722828472902
 30
0.0
 10
2623.719174502099
 20
1664.342507386842
 30
0.0
 10
2626.486438845413
 20
1664.148529451821
 30
0.0
 10
2629.271775674513
 20
1664.143380502969
 30
0.0
 10
2632.040521338252
 20
1664.326861411294
 30
0.0
 10
2634.758596175661
 20
1664.697264194073
 30
0.0
 10
2637.392514066912
 20
1665.251165360015
 30
0.0
 10
2639.910109614966
 20
1665.983688814989
 30
0.0
 10
2642.280010275814
 20
1666.888884613503
 30
0.0
 10
2644.473456494873
 20
1667.959093091018
 30
0.0
 10
2646.456995871228
 20
1669.187860539675
 30
0.0
 10
2647.889869537646
 20
1670.302849664816
 30
0.0
 10
2648.629023192709
 20
1671.015791191873
 30
0.0
 10
2648.855192880208
 20
1671.233940370024
 30
0.0
  0
SPLINE
  5
33C
330
1F
100
AcDbEntity
  8
0
  6
Continuous
 62
     7
370
    15
100
AcDbSpline
210
0.0
220
0.0
230
1.0
 70
     8
 71
     3
 72
    29
 73
    25
 74
     0
 42
0.00000001
 43
0.00000001
 12
1.0
 22
0.0
 32
0.0
 13
1.0
 23
0.0
 33
0.0
 40
0.0
 40
0.0
 40
0.0
 40
0.0
 40
0.0244518406797817
 40
0.0708943060856887
 40
0.1173375562933231
 40
0.163781444811082
 40
0.2102258395004147
 40
0.2566706198108956
 40
0.3031156763106409
 40
0.3495609101571613
 40
0.3960062325282729
 40
0.4424515458521867
 40
0.4888967760333116
 40
0.5353418633387534
 40
0.5817867554633699
 40
0.6282314069571443
 40
0.6746757786746657
 40
0.7211198372499954
 40
0.7675635545995811
 40
0.8140069074540524
 40
0.860449876919868
 40
0.9068924480706504
 40
0.9533346095678156
 40
1.0
 40
1.0
 40
1.0
 40
1.0
 10
2344.485144878751
 20
1822.480163527774
 30
0.0
 10
2346.248347351562
 20
1820.983985198409
 30
0.0
 10
2351.360478476393
 20
1816.646049014796
 30
0.0
 10
2360.020526325899
 20
1809.545787532853
 30
0.0
 10
2370.547009967459
 20
1801.216560798935
 30
0.0
 10
2381.330526703548
 20
1792.998160696079
 30
0.0
 10
2392.363151055963
 20
1784.891405388455
 30
0.0
 10
2403.642610321144
 20
1776.899302622338
 30
0.0
 10
2415.165020431008
 20
1769.024225787961
 30
0.0
 10
2426.926833859631
 20
1761.268669905382
 30
0.0
 10
2438.924317605062
 20
1753.635049318086
 30
0.0
 10
2451.153695276012
 20
1746.125750574043
 30
0.0
 10
2463.611111301782
 20
1738.743116910888
 30
0.0
 10
2476.292644055897
 20
1731.489450844406
 30
0.0
 10
2489.194302453901
 20
1724.367012808628
 30
0.0
 10
2502.312029898649
 20
1717.378023410876
 30
0.0
 10
2515.641695709866
 20
1710.52465456764
 30
0.0
 10
2529.179132242712
 20
1703.80905963454
 30
0.0
 10
2542.920002415467
 20
1697.233258344992
 30
0.0
 10
2556.860300003471
 20
1690.799563524671
 30
0.0
 10
2570.994488588889
 20
1684.508985930884
 30
0.0
 10
2585.322453128429
 20
1678.36718474946
 30
0.0
 10
2599.846840061781
 20
1672.352618595806
 30
0.0
 10
2609.690838961915
 20
1668.467152132042
 30
0.0
 10
2614.624639094877
 20
1666.519761122554
 30
0.0
  0
LINE
  5
33D
330
1F
100
AcDbEntity
  8
0
  6
Continuous
 62
     7
370
    15
100
AcDbLine
 10
2648.8551928802
 20
1671.23394037
 30
0.0
 11
2730.3122474745
 21
1752.6821689228
 31
0.0
  0
SPLINE
  5
33E
330
1F
100
AcDbEntity
  8
0
  6
Continuous
 62
     7
370
    15
100
AcDbSpline
210
0.0
220
0.0
230
1.0
 70
     8
 71
     3
 72
    11
 73
     7
 74
     0
 42
0.00000001
 43
0.00000001
 12
1.0
 22
0.0
 32
0.0
 13
1.0
 23
0.0
 33
0.0
 40
0.0
 40
0.0
 40
0.0
 40
0.0
 40
0.2205098238914602
 40
0.5395057803404943
 40
0.8465894227039549
 40
1.0
 40
1.0
 40
1.0
 40
1.0
 10
2730.31224747445
 20
1752.682168922755
 30
0.0
 10
2730.490886131595
 20
1752.876189008803
 30
0.0
 10
2730.927948691532
 20
1753.350884222278
 30
0.0
 10
2731.417659624633
 20
1754.2246307099
 30
0.0
 10
2731.672961860469
 20
1755.110783333872
 30
0.0
 10
2731.694712148672
 20
1755.649014213105
 30
0.0
 10
2731.70195811209
 20
1755.828322239952
 30
0.0
  0
LINE
  5
33F
330
1F
100
AcDbEntity
  8
0
  6
Continuous
 62
     7
370
    15
100
AcDbLine
 10
2628.3131606402
 20
1942.8311613523
 30
0.0
 11
2353.6060586883
 21
1851.2720490639
 31
0.0
  0
SPLINE
  5
340
330
1F
100
AcDbEntity
  8
0
  6
Continuous
 62
     7
370
    15
100
AcDbSpline
210
0.0
220
0.0
230
1.0
 70
     8
 71
     3
 72
    18
 73
    14
 74
     0
 42
0.00000001
 43
0.00000001
 12
1.0
 22
0.0
 32
0.0
 13
1.0
 23
0.0
 33
0.0
 40
0.0
 40
0.0
 40
0.0
 40
0.0
 40
0.0621911257444078
 40
0.1759720409402625
 40
0.2911617622868278
 40
0.4066037596836319
 40
0.5077307286255219
 40
0.6053651487385975
 40
0.6997916255865042
 40
0.7916945521299327
 40
0.8910077073607564
 40
0.987451590223246
 40
1.0
 40
1.0
 40
1.0
 40
1.0
 10
2353.606058688284
 20
1851.272049063932
 30
0.0
 10
2353.137040246149
 20
1851.107779604939
 30
0.0
 10
2351.809935590732
 20
1850.642973225941
 30
0.0
 10
2349.734362054976
 20
1849.702139876923
 30
0.0
 10
2347.459845520781
 20
1848.379464017085
 30
0.0
 10
2345.479997692782
 20
1846.88393377225
 30
0.0
 10
2343.820400876833
 20
1845.270728818413
 30
0.0
 10
2342.483365785329
 20
1843.595978366368
 30
0.0
 10
2341.419631591612
 20
1841.822955557366
 30
0.0
 10
2340.596650104295
 20
1839.9092375489
 30
0.0
 10
2340.094128101971
 20
1837.878492111703
 30
0.0
 10
2339.880710513695
 20
1836.361045725752
 30
0.0
 10
2339.934557861135
 20
1835.569656464757
 30
0.0
 10
2339.940757369051
 20
1835.478542896087
 30
0.0
  0
LINE
  5
341
330
1F
100
AcDbEntity
  8
0
  6
Continuous
 62
     7
370
    15
100
AcDbLine
 10
2339.9223947265
 20
1835.5231439045
 30
0.0
 11
2339.9223947265
 21
1831.2771316827
 31
0.0
  0
SPLINE
  5
342
330
1F
100
AcDbEntity
  8
0
  6
Continuous
 62
     7
370
    15
100
AcDbSpline
210
0.0
220
0.0
230
1.0
 70
     8
 71
     3
 72
    14
 73
    10
 74
     0
 42
0.00000001
 43
0.00000001
 12
1.0
 22
0.0
 32
0.0
 13
1.0
 23
0.0
 33
0.0
 40
0.0
 40
0.0
 40
0.0
 40
0.0
 40
0.0774631058401317
 40
0.2541708741871377
 40
0.4310250797915126
 40
0.6099572247271782
 40
0.7921849581262025
 40
0.971653388814969
 40
1.0
 40
1.0
 40
1.0
 40
1.0
 10
2339.962449825764
 20
1831.386953643793
 30
0.0
 10
2339.950341325382
 20
1831.133976419507
 30
0.0
 10
2339.91061108098
 20
1830.303911041299
 30
0.0
 10
2340.179841500929
 20
1828.903158983132
 30
0.0
 10
2340.74888971121
 20
1827.224929442966
 30
0.0
 10
2341.633594488089
 20
1825.608764913052
 30
0.0
 10
2342.792407544953
 20
1824.085456751895
 30
0.0
 10
2343.808230139944
 20
1823.065002345473
 30
0.0
 10
2344.403894435854
 20
1822.550362047967
 30
0.0
 10
2344.485144878751
 20
1822.480163527774
 30
0.0
  0
SPLINE
  5
343
330
1F
100
AcDbEntity
  8
0
  6
Continuous
 62
     7
370
    15
100
AcDbSpline
210
0.0
220
0.0
230
1.0
 70
     8
 71
     3
 72
    13
 73
     9
 74
     0
 42
0.00000001
 43
0.00000001
 12
1.0
 22
0.0
 32
0.0
 13
1.0
 23
0.0
 33
0.0
 40
0.0
 40
0.0
 40
0.0
 40
0.0
 40
0.1980121051170003
 40
0.3789644115158893
 40
0.5522428428481163
 40
0.7193613619495863
 40
0.8819004977231145
 40
0.9999999999999999
 40
0.9999999999999999
 40
0.9999999999999999
 40
0.9999999999999999
 10
2731.70195811209
 20
1881.746095896953
 30
0.0
 10
2731.669186199471
 20
1882.292509260552
 30
0.0
 10
2731.606465849255
 20
1883.33825956283
 30
0.0
 10
2731.131735778996
 20
1884.798227564777
 30
0.0
 10
2730.457497125993
 20
1886.073259541711
 30
0.0
 10
2729.592630126042
 20
1887.163627077932
 30
0.0
 10
2728.674801482932
 20
1887.999245699512
 30
0.0
 10
2728.019027867227
 20
1888.410044006777
 30
0.0
 10
2727.743062525608
 20
1888.582917834705
 30
0.0
  0
LINE
  5
344
330
1F
100
AcDbEntity
  8
0
  6
Continuous
 62
     7
370
    15
100
AcDbLine
 10
2727.7430625256
 20
1888.5829178347
 30
0.0
 11
2634.9206010919
 21
1942.1681842259
 31
0.0
  0
SPLINE
  5
345
330
1F
100
AcDbEntity
  8
0
  6
Continuous
 62
     7
370
    15
100
AcDbSpline
210
0.0
220
0.0
230
1.0
 70
     8
 71
     3
 72
    12
 73
     8
 74
     0
 42
0.00000001
 43
0.00000001
 12
1.0
 22
0.0
 32
0.0
 13
1.0
 23
0.0
 33
0.0
 40
0.0
 40
0.0
 40
0.0
 40
0.0
 40
0.231603366559697
 40
0.4278539465888628
 40
0.6412328988781558
 40
0.8797594441136364
 40
0.9999999999999999
 40
0.9999999999999999
 40
0.9999999999999999
 40
0.9999999999999999
 10
2634.920601091857
 20
1942.168184225944
 30
0.0
 10
2634.448024116004
 20
1942.406265593149
 30
0.0
 10
2633.575006045545
 20
1942.846086715273
 30
0.0
 10
2632.143465504497
 20
1943.18644127633
 30
0.0
 10
2630.666184782692
 20
1943.291756683114
 30
0.0
 10
2629.358862509521
 20
1943.144195705496
 30
0.0
 10
2628.575652840905
 20
1942.909739270851
 30
0.0
 10
2628.313160640156
 20
1942.83116135235
 30
0.0
  0
SPLINE
  5
346
330
1F
100
AcDbEntity
  8
0
  6
Continuous
 62
     7
370
    15
100
AcDbSpline
210
0.0
220
0.0
230
1.0
 70
     8
 71
     3
 72
    21
 73
    17
 74
     0
 42
0.00000001
 43
0.00000001
 12
1.0
 22
0.0
 32
0.0
 13
1.0
 23
0.0
 33
0.0
 40
0.0
 40
0.0
 40
0.0
 40
0.0
 40
0.0436511108792731
 40
0.1220286432589201
 40
0.1999574175595479
 40
0.2775734957879645
 40
0.3550082186465277
 40
0.4324631000058625
 40
0.5101334672292351
 40
0.5882251943346822
 40
0.6669810502157119
 40
0.7466027366093919
 40
0.8271678300029724
 40
0.9084616620104512
 40
0.9810390056301711
 40
0.9999999999999999
 40
0.9999999999999999
 40
0.9999999999999999
 40
0.9999999999999999
 10
2615.705489041264
 20
1145.931341187852
 30
0.0
 10
2616.165917088806
 20
1145.759820017672
 30
0.0
 10
2617.453064399106
 20
1145.28032487389
 30
0.0
 10
2619.672719221173
 20
1144.657481844916
 30
0.0
 10
2622.365919425066
 20
1144.125744973353
 30
0.0
 10
2625.121951177246
 20
1143.807472222608
 30
0.0
 10
2627.908265550746
 20
1143.698676193521
 30
0.0
 10
2630.696002661807
 20
1143.800268092606
 30
0.0
 10
2633.456166246066
 20
1144.112463531634
 30
0.0
 10
2636.160812975066
 20
1144.636696016264
 30
0.0
 10
2638.782620894551
 20
1145.375790742336
 30
0.0
 10
2641.293162860739
 20
1146.334741875472
 30
0.0
 10
2643.660615528953
 20
1147.518805273802
 30
0.0
 10
2645.763036047548
 20
1148.882600831636
 30
0.0
 10
2647.162531229825
 20
1150.035448202938
 30
0.0
 10
2647.840497676772
 20
1150.699490567774
 30
0.0
 10
2647.980929743443
 20
1150.837038439164
 30
0.0
  0
SPLINE
  5
347
330
1F
100
AcDbEntity
  8
0
  6
Continuous
 62
     7
370
    15
100
AcDbSpline
210
0.0
220
0.0
230
1.0
 70
     8
 71
     3
 72
    29
 73
    25
 74
     0
 42
0.00000001
 43
0.00000001
 12
1.0
 22
0.0
 32
0.0
 13
1.0
 23
0.0
 33
0.0
 40
0.0
 40
0.0
 40
0.0
 40
0.0
 40
0.0245287658513099
 40
0.0710668742884372
 40
0.1176067566871152
 40
0.1641490946684422
 40
0.2106933878500243
 40
0.2572391791845091
 40
0.3037860532903447
 40
0.3503336345811259
 40
0.3968815852173463
 40
0.4434295442870509
 40
0.4899772188514405
 40
0.5365243810829495
 40
0.583070831333247
 40
0.6296163959873664
 40
0.6761609253939181
 40
0.7227042918855292
 40
0.7692463878995374
 40
0.8157871242052277
 40
0.8623264282409706
 40
0.9088642425620557
 40
0.9554005233983678
 40
0.9999999999999999
 40
0.9999999999999999
 40
0.9999999999999999
 40
0.9999999999999999
 10
2345.470180595859
 20
1301.980583544705
 30
0.0
 10
2347.242463755697
 20
1300.476724285224
 30
0.0
 10
2352.377276705
 20
1296.119612411395
 30
0.0
 10
2361.073462965672
 20
1288.990376045223
 30
0.0
 10
2371.640240855454
 20
1280.630517353528
 30
0.0
 10
2382.463870098783
 20
1272.383327023332
 30
0.0
 10
2393.536443550633
 20
1264.249509834095
 30
0.0
 10
2404.855611501507
 20
1256.232078625075
 30
0.0
 10
2416.417417924741
 20
1248.333392737431
 30
0.0
 10
2428.218246810692
 20
1240.555931910886
 30
0.0
 10
2440.254297274278
 20
1232.902092086355
 30
0.0
 10
2452.521726998379
 20
1225.374238785738
 30
0.0
 10
2465.016618835637
 20
1217.974690176603
 30
0.0
 10
2477.734997728876
 20
1210.70571822655
 30
0.0
 10
2490.672825750968
 20
1203.569549031754
 30
0.0
 10
2503.826003396629
 20
1196.568366979788
 30
0.0
 10
2517.19036112505
 20
1189.704306379803
 30
0.0
 10
2530.761695468461
 20
1182.979481463055
 30
0.0
 10
2544.535639662544
 20
1176.395873375315
 30
0.0
 10
2558.508151615448
 20
1169.95575062842
 30
0.0
 10
2572.673698140301
 20
1163.660098634022
 30
0.0
 10
2587.032036498706
 20
1157.514478975273
 30
0.0
 10
2601.361486838371
 20
1151.590434395098
 30
0.0
 10
2610.99237976534
 20
1147.790789081901
 30
0.0
 10
2615.705489041264
 20
1145.931341187853
 30
0.0
  0
LINE
  5
348
330
1F
100
AcDbEntity
  8
0
  6
Continuous
 62
     7
370
    15
100
AcDbLine
 10
2647.9809297434
 20
1150.8370384392
 30
0.0
 11
2729.4379843377
 21
1232.2852669919
 31
0.0
  0
SPLINE
  5
349
330
1F
100
AcDbEntity
  8
0
  6
Continuous
 62
     7
370
    15
100
AcDbSpline
210
0.0
220
0.0
230
1.0
 70
     8
 71
     3
 72
    12
 73
     8
 74
     0
 42
0.00000001
 43
0.00000001
 12
1.0
 22
0.0
 32
0.0
 13
1.0
 23
0.0
 33
0.0
 40
0.0
 40
0.0
 40
0.0
 40
0.0
 40
0.2186522133950204
 40
0.4599628627041371
 40
0.7025692995059998
 40
0.9459838955098366
 40
1.0
 40
1.0
 40
1.0
 40
1.0
 10
2729.437984337686
 20
1232.285266991895
 30
0.0
 10
2729.73447071906
 20
1232.612549403495
 30
0.0
 10
2730.358167697069
 20
1233.30102976514
 30
0.0
 10
2731.05727914392
 20
1234.546867463219
 30
0.0
 10
2731.537092210682
 20
1235.938673552513
 30
0.0
 10
2731.692410801973
 20
1237.024907940009
 30
0.0
 10
2731.70049072501
 20
1237.624318687081
 30
0.0
 10
2731.70195811209
 20
1237.733177098444
 30
0.0
  0
SPLINE
  5
34A
330
1F
100
AcDbEntity
  8
0
  6
Continuous
 62
     7
370
    15
100
AcDbSpline
210
0.0
220
0.0
230
1.0
 70
     8
 71
     3
 72
    14
 73
    10
 74
     0
 42
0.00000001
 43
0.00000001
 12
1.0
 22
0.0
 32
0.0
 13
1.0
 23
0.0
 33
0.0
 40
0.0
 40
0.0
 40
0.0
 40
0.0
 40
0.1507855344282926
 40
0.3089970960322897
 40
0.4658960887611768
 40
0.6199658944618068
 40
0.7699758130241052
 40
0.9157201341679063
 40
1.0
 40
1.0
 40
1.0
 40
1.0
 10
2346.922394726468
 20
1327.741679801107
 30
0.0
 10
2346.302735330867
 20
1327.324876441874
 30
0.0
 10
2345.03289897358
 20
1326.47074260133
 30
0.0
 10
2343.422735967582
 20
1324.986107153138
 30
0.0
 10
2342.056318301784
 20
1323.356226415797
 30
0.0
 10
2341.007161437524
 20
1321.617774439979
 30
0.0
 10
2340.308489034378
 20
1319.81260121079
 30
0.0
 10
2339.950249164923
 20
1318.22413203714
 30
0.0
 10
2339.95836816099
 20
1317.249795645544
 30
0.0
 10
2339.961342925984
 20
1316.892803011689
 30
0.0
  0
LINE
  5
34B
330
1F
100
AcDbEntity
  8
0
  6
Continuous
 62
     7
370
    15
100
AcDbLine
 10
2339.9223947265
 20
1316.8564201946
 30
0.0
 11
2339.9223947265
 21
1313.1819865411
 31
0.0
  0
SPLINE
  5
34C
330
1F
100
AcDbEntity
  8
0
  6
Continuous
 62
     7
370
    15
100
AcDbSpline
210
0.0
220
0.0
230
1.0
 70
     8
 71
     3
 72
    14
 73
    10
 74
     0
 42
0.00000001
 43
0.00000001
 12
1.0
 22
0.0
 32
0.0
 13
1.0
 23
0.0
 33
0.0
 40
0.0
 40
0.0
 40
0.0
 40
0.0
 40
0.1418392085223089
 40
0.2993397152252603
 40
0.4567876264163368
 40
0.6162001316141419
 40
0.7794651736825422
 40
0.9481231491703256
 40
1.0
 40
1.0
 40
1.0
 40
1.0
 10
2339.937837707602
 20
1313.159801147614
 30
0.0
 10
2339.956983742813
 20
1312.551995337203
 30
0.0
 10
2339.997389839177
 20
1311.269272315157
 30
0.0
 10
2340.440025379844
 20
1309.354452237879
 30
0.0
 10
2341.158489302135
 20
1307.454176744615
 30
0.0
 10
2342.157667652669
 20
1305.653417756198
 30
0.0
 10
2343.421935143183
 20
1303.961454704737
 30
0.0
 10
2344.574526161129
 20
1302.76243001099
 30
0.0
 10
2345.299616205992
 20
1302.129474858499
 30
0.0
 10
2345.470180595859
 20
1301.980583544705
 30
0.0
  0
LINE
  5
34D
330
1F
100
AcDbEntity
  8
0
  6
Continuous
 62
     7
370
    15
100
AcDbLine
 10
2734.201958112
 20
1752.3089547088
 30
0.0
 11
2734.201958112
 21
1736.4637430675
 31
0.0
  0
LINE
  5
34E
330
1F
100
AcDbEntity
  8
0
  6
Continuous
 62
     7
370
    15
100
AcDbLine
 10
2734.2019581121
 20
1844.1269684506
 30
0.0
 11
2734.2019581121
 21
1828.2817568093
 31
0.0
  0
LINE
  5
34F
330
1F
100
AcDbEntity
  8
0
  6
Continuous
 62
     7
370
    15
100
AcDbLine
 10
2734.2019581121
 20
1383.9359851593
 30
0.0
 11
2734.2019581121
 21
1368.090773518
 31
0.0
  0
LINE
  5
350
330
1F
100
AcDbEntity
  8
0
  6
Continuous
 62
     7
370
    15
100
AcDbLine
 10
2734.201958112
 20
1292.5964776171
 30
0.0
 11
2734.201958112
 21
1276.7512659758
 31
0.0
  0
LWPOLYLINE
  5
351
330
1F
100
AcDbEntity
  8
0
  6
Continuous
 62
     7
370
    15
100
AcDbPolyline
 90
       13
 70
   128
 43
0.0
 10
2673.1473333015
 20
1742.7107804678
 10
2672.6536753014
 20
1743.361441523
 10
2671.7692683956
 20
1744.0268126714
 10
2670.616686876
 20
1744.5373699107
 10
2669.2744772685
 20
1744.8583196085
 10
2667.8341089396
 20
1744.9677895736
 10
2666.3937406108
 20
1744.8583196085
 10
2665.0515310033
 20
1744.5373699107
 10
2663.8989494837
 20
1744.0268126714
 10
2663.0145425779
 20
1743.361441523
 10
2662.4585811549
 20
1742.5866004096
 10
2662.268953067
 20
1741.7550934725
 10
2662.3035657337
 20
1741.3973372645
  0
LINE
  5
352
330
1F
100
AcDbEntity
  8
0
  6
Continuous
 62
     7
370
    15
100
AcDbLine
 10
2665.7834992742
 20
1740.5713017103
 30
0.0
 11
2668.5846841704
 21
1740.1380038526
 31
0.0
  0
LINE
  5
353
330
1F
100
AcDbEntity
  8
0
  6
Continuous
 62
     7
370
    15
100
AcDbLine
 10
2668.5846841704
 20
1740.1380038526
 30
0.0
 11
2670.6352938359
 21
1741.3217956147
 31
0.0
  0
LINE
  5
354
330
1F
100
AcDbEntity
  8
0
  6
Continuous
 62
     7
370
    15
100
AcDbLine
 10
2669.8847186051
 20
1742.9388852346
 30
0.0
 11
2670.6352938359
 21
1741.3217956147
 31
0.0
  0
LINE
  5
355
330
1F
100
AcDbEntity
  8
0
  6
Continuous
 62
     7
370
    15
100
AcDbLine
 10
2667.0835337089
 20
1743.3721830923
 30
0.0
 11
2669.8847186051
 21
1742.9388852346
 31
0.0
  0
LINE
  5
356
330
1F
100
AcDbEntity
  8
0
  6
Continuous
 62
     7
370
    15
100
AcDbLine
 10
2665.0329240434
 20
1742.1883913302
 30
0.0
 11
2667.0835337089
 21
1743.3721830923
 31
0.0
  0
LINE
  5
357
330
1F
100
AcDbEntity
  8
0
  6
Continuous
 62
     7
370
    15
100
AcDbLine
 10
2665.0329240434
 20
1742.1883913302
 30
0.0
 11
2665.7834992742
 21
1740.5713017103
 31
0.0
  0
LINE
  5
358
330
1F
100
AcDbEntity
  8
0
  6
Continuous
 62
     7
370
    15
100
AcDbLine
 10
2669.8847186051
 20
1740.888497757
 30
0.0
 11
2669.8847186051
 21
1742.9388852346
 31
0.0
  0
LINE
  5
359
330
1F
100
AcDbEntity
  8
0
  6
Continuous
 62
     7
370
    15
100
AcDbLine
 10
2667.0835337088
 20
1740.9225606567
 30
0.0
 11
2667.0835337089
 21
1743.3721830923
 31
0.0
  0
LINE
  5
35A
330
1F
100
AcDbEntity
  8
0
  6
Continuous
 62
     7
370
    15
100
AcDbLine
 10
2666.3289234668
 20
1740.4869334365
 30
0.0
 11
2667.0835337088
 21
1740.9225606567
 31
0.0
  0
LINE
  5
35B
330
1F
100
AcDbEntity
  8
0
  6
Continuous
 62
     7
370
    15
100
AcDbLine
 10
2667.0835337088
 20
1740.9225606567
 30
0.0
 11
2669.3392944125
 21
1740.5736310727
 31
0.0
  0
LWPOLYLINE
  5
35C
330
1F
100
AcDbEntity
  8
0
  6
Continuous
 62
     7
370
    15
100
AcDbPolyline
 90
       13
 70
   128
 43
0.0
 10
2459.8074230042
 20
1865.8692891798
 10
2459.3137650041
 20
1866.5199502351
 10
2458.4293580983
 20
1867.1853213835
 10
2457.2767765787
 20
1867.6958786227
 10
2455.9345669711
 20
1868.0168283206
 10
2454.4941986423
 20
1868.1262982856
 10
2453.0538303135
 20
1868.0168283206
 10
2451.711620706
 20
1867.6958786227
 10
2450.5590391864
 20
1867.1853213835
 10
2449.6746322806
 20
1866.5199502351
 10
2449.1186708576
 20
1865.7451091216
 10
2448.9290427697
 20
1864.9136021845
 10
2448.9636554364
 20
1864.5558459766
  0
LINE
  5
35D
330
1F
100
AcDbEntity
  8
0
  6
Continuous
 62
     7
370
    15
100
AcDbLine
 10
2452.4435889769
 20
1863.7298104224
 30
0.0
 11
2455.2447738731
 21
1863.2965125646
 31
0.0
  0
LINE
  5
35E
330
1F
100
AcDbEntity
  8
0
  6
Continuous
 62
     7
370
    15
100
AcDbLine
 10
2455.2447738731
 20
1863.2965125646
 30
0.0
 11
2457.2953835386
 21
1864.4803043268
 31
0.0
  0
LINE
  5
35F
330
1F
100
AcDbEntity
  8
0
  6
Continuous
 62
     7
370
    15
100
AcDbLine
 10
2456.5448083078
 20
1866.0973939467
 30
0.0
 11
2457.2953835386
 21
1864.4803043268
 31
0.0
  0
LINE
  5
360
330
1F
100
AcDbEntity
  8
0
  6
Continuous
 62
     7
370
    15
100
AcDbLine
 10
2453.7436234115
 20
1866.5306918044
 30
0.0
 11
2456.5448083078
 21
1866.0973939467
 31
0.0
  0
LINE
  5
361
330
1F
100
AcDbEntity
  8
0
  6
Continuous
 62
     7
370
    15
100
AcDbLine
 10
2451.6930137461
 20
1865.3469000423
 30
0.0
 11
2453.7436234115
 21
1866.5306918044
 31
0.0
  0
LINE
  5
362
330
1F
100
AcDbEntity
  8
0
  6
Continuous
 62
     7
370
    15
100
AcDbLine
 10
2451.6930137461
 20
1865.3469000423
 30
0.0
 11
2452.4435889769
 21
1863.7298104224
 31
0.0
  0
LINE
  5
363
330
1F
100
AcDbEntity
  8
0
  6
Continuous
 62
     7
370
    15
100
AcDbLine
 10
2456.5448083078
 20
1864.047006469
 30
0.0
 11
2456.5448083078
 21
1866.0973939467
 31
0.0
  0
LINE
  5
364
330
1F
100
AcDbEntity
  8
0
  6
Continuous
 62
     7
370
    15
100
AcDbLine
 10
2453.7436234115
 20
1864.0810693687
 30
0.0
 11
2453.7436234115
 21
1866.5306918044
 31
0.0
  0
LINE
  5
365
330
1F
100
AcDbEntity
  8
0
  6
Continuous
 62
     7
370
    15
100
AcDbLine
 10
2452.9890131695
 20
1863.6454421486
 30
0.0
 11
2453.7436234115
 21
1864.0810693687
 31
0.0
  0
LINE
  5
366
330
1F
100
AcDbEntity
  8
0
  6
Continuous
 62
     7
370
    15
100
AcDbLine
 10
2453.7436234115
 20
1864.0810693687
 30
0.0
 11
2455.9993841152
 21
1863.7321397848
 31
0.0
  0
LWPOLYLINE
  5
367
330
1F
100
AcDbEntity
  8
0
  6
Continuous
 62
     7
370
    15
100
AcDbPolyline
 90
       25
 70
   128
 43
0.0
 10
2611.9647346445
 20
1836.5647880785
 10
2610.6151841831
 20
1836.2542666942
 10
2609.4508365516
 20
1835.752685613
 10
2608.5510401167
 20
1835.0942267567
 10
2607.9771145187
 20
1834.3237630082
 10
2607.7681718384
 20
1833.4938001986
 10
2607.9384511743
 20
1832.660898922
 10
2608.476348271
 20
1831.8818200238
 10
2609.3452063303
 20
1831.2096564436
 10
2610.4858141114
 20
1830.6902150183
 10
2611.8204410788
 20
1830.3588948229
 10
2613.2581346104
 20
1830.2382747811
 10
2614.7009182678
 20
1830.3365749493
 10
2616.0504687292
 20
1830.6470963336
 10
2617.2148163607
 20
1831.1486774148
 10
2618.1146127956
 20
1831.8071362711
 10
2618.6885383936
 20
1832.5776000196
 10
2618.8974810739
 20
1833.4075628292
 10
2618.727201738
 20
1834.2404641058
 10
2618.1893046413
 20
1835.0195430039
 10
2617.320446582
 20
1835.6917065842
 10
2616.1798388009
 20
1836.2111480094
 10
2614.8452118335
 20
1836.5424682049
 10
2613.4075183019
 20
1836.6630882467
 10
2611.9647346445
 20
1836.5647880785
  0
LINE
  5
368
330
1F
100
AcDbEntity
  8
0
  6
Continuous
 62
     7
370
    15
100
AcDbLine
 10
2612.619914483
 20
1835.0734409197
 30
0.0
 11
2610.5419675882
 21
1833.905643853
 31
0.0
  0
LINE
  5
369
330
1F
100
AcDbEntity
  8
0
  6
Continuous
 62
     7
370
    15
100
AcDbLine
 10
2610.5419675882
 20
1833.905643853
 30
0.0
 11
2611.2548795613
 21
1832.2828844472
 31
0.0
  0
LINE
  5
36A
330
1F
100
AcDbEntity
  8
0
  6
Continuous
 62
     7
370
    15
100
AcDbLine
 10
2614.0457384293
 20
1831.827922108
 30
0.0
 11
2611.2548795613
 21
1832.2828844472
 31
0.0
  0
LINE
  5
36B
330
1F
100
AcDbEntity
  8
0
  6
Continuous
 62
     7
370
    15
100
AcDbLine
 10
2616.1236853241
 20
1832.9957191748
 30
0.0
 11
2614.0457384293
 21
1831.827922108
 31
0.0
  0
LINE
  5
36C
330
1F
100
AcDbEntity
  8
0
  6
Continuous
 62
     7
370
    15
100
AcDbLine
 10
2615.410773351
 20
1834.6184785806
 30
0.0
 11
2616.1236853241
 21
1832.9957191748
 31
0.0
  0
LINE
  5
36D
330
1F
100
AcDbEntity
  8
0
  6
Continuous
 62
     7
370
    15
100
AcDbLine
 10
2615.410773351
 20
1834.6184785806
 30
0.0
 11
2612.619914483
 21
1835.0734409197
 31
0.0
  0
LINE
  5
36E
330
1F
100
AcDbEntity
  8
0
  6
Continuous
 62
     7
370
    15
100
AcDbLine
 10
2615.410773351
 20
1832.5950657639
 30
0.0
 11
2615.410773351
 21
1834.6184785806
 31
0.0
  0
LINE
  5
36F
330
1F
100
AcDbEntity
  8
0
  6
Continuous
 62
     7
370
    15
100
AcDbLine
 10
2612.619914483
 20
1832.6238184841
 30
0.0
 11
2612.619914483
 21
1835.0734409197
 31
0.0
  0
LINE
  5
370
330
1F
100
AcDbEntity
  8
0
  6
Continuous
 62
     7
370
    15
100
AcDbLine
 10
2612.619914483
 20
1832.6238184841
 30
0.0
 11
2611.8427432364
 21
1832.1870516425
 31
0.0
  0
LINE
  5
371
330
1F
100
AcDbEntity
  8
0
  6
Continuous
 62
     7
370
    15
100
AcDbLine
 10
2614.8229096759
 20
1832.2646889496
 30
0.0
 11
2612.619914483
 21
1832.6238184841
 31
0.0
  0
LWPOLYLINE
  5
372
330
1F
100
AcDbEntity
  8
0
  6
Continuous
 62
     7
370
    15
100
AcDbPolyline
 90
       13
 70
   128
 43
0.0
 10
2689.7711132518
 20
1889.6829011399
 10
2689.2774552517
 20
1890.3335621952
 10
2688.3930483459
 20
1890.9989333436
 10
2687.2404668263
 20
1891.5094905828
 10
2685.8982572188
 20
1891.8304402807
 10
2684.45788889
 20
1891.9399102457
 10
2683.0175205612
 20
1891.8304402807
 10
2681.6753109537
 20
1891.5094905828
 10
2680.5227294341
 20
1890.9989333436
 10
2679.6383225282
 20
1890.3335621952
 10
2679.0823611053
 20
1889.5587210817
 10
2678.8927330173
 20
1888.7272141446
 10
2678.927345684
 20
1888.3694579366
  0
LINE
  5
373
330
1F
100
AcDbEntity
  8
0
  6
Continuous
 62
     7
370
    15
100
AcDbLine
 10
2682.4072792245
 20
1887.5434223825
 30
0.0
 11
2685.2084641208
 21
1887.1101245247
 31
0.0
  0
LINE
  5
374
330
1F
100
AcDbEntity
  8
0
  6
Continuous
 62
     7
370
    15
100
AcDbLine
 10
2685.2084641208
 20
1887.1101245247
 30
0.0
 11
2687.2590737862
 21
1888.2939162869
 31
0.0
  0
LINE
  5
375
330
1F
100
AcDbEntity
  8
0
  6
Continuous
 62
     7
370
    15
100
AcDbLine
 10
2686.5084985554
 20
1889.9110059067
 30
0.0
 11
2687.2590737862
 21
1888.2939162869
 31
0.0
  0
LINE
  5
376
330
1F
100
AcDbEntity
  8
0
  6
Continuous
 62
     7
370
    15
100
AcDbLine
 10
2683.7073136592
 20
1890.3443037645
 30
0.0
 11
2686.5084985554
 21
1889.9110059067
 31
0.0
  0
LINE
  5
377
330
1F
100
AcDbEntity
  8
0
  6
Continuous
 62
     7
370
    15
100
AcDbLine
 10
2681.6567039937
 20
1889.1605120023
 30
0.0
 11
2683.7073136592
 21
1890.3443037645
 31
0.0
  0
LINE
  5
378
330
1F
100
AcDbEntity
  8
0
  6
Continuous
 62
     7
370
    15
100
AcDbLine
 10
2681.6567039937
 20
1889.1605120023
 30
0.0
 11
2682.4072792245
 21
1887.5434223825
 31
0.0
  0
LINE
  5
379
330
1F
100
AcDbEntity
  8
0
  6
Continuous
 62
     7
370
    15
100
AcDbLine
 10
2686.5084985554
 20
1887.8606184291
 30
0.0
 11
2686.5084985554
 21
1889.9110059067
 31
0.0
  0
LINE
  5
37A
330
1F
100
AcDbEntity
  8
0
  6
Continuous
 62
     7
370
    15
100
AcDbLine
 10
2683.7073136592
 20
1887.8946813288
 30
0.0
 11
2683.7073136592
 21
1890.3443037645
 31
0.0
  0
LINE
  5
37B
330
1F
100
AcDbEntity
  8
0
  6
Continuous
 62
     7
370
    15
100
AcDbLine
 10
2682.9527034172
 20
1887.4590541087
 30
0.0
 11
2683.7073136592
 21
1887.8946813288
 31
0.0
  0
LINE
  5
37C
330
1F
100
AcDbEntity
  8
0
  6
Continuous
 62
     7
370
    15
100
AcDbLine
 10
2683.7073136592
 20
1887.8946813288
 30
0.0
 11
2685.9630743628
 21
1887.5457517449
 31
0.0
  0
LWPOLYLINE
  5
37D
330
1F
100
AcDbEntity
  8
0
  6
Continuous
 62
     7
370
    15
100
AcDbPolyline
 90
       13
 70
   128
 43
0.0
 10
2696.8061488621
 20
1697.751337135
 10
2697.4100571853
 20
1697.9559593187
 10
2698.1297095348
 20
1698.5142349105
 10
2698.8504037729
 20
1699.3832257493
 10
2699.5230257782
 20
1700.5037115456
 10
2700.1017374726
 20
1701.7993330441
 10
2700.5471006105
 20
1703.1817957807
 10
2700.8287644302
 20
1704.5568872045
 10
2700.9275340076
 20
1705.8308971076
 10
2700.8366783594
 20
1706.9170038203
 10
2700.5623891478
 20
1707.7411909652
 10
2700.1233587294
 20
1708.2472915502
 10
2699.6519884315
 20
1708.400514016
  0
LINE
  5
37E
330
1F
100
AcDbEntity
  8
0
  6
Continuous
 62
     7
370
    15
100
AcDbLine
 10
2696.7464887372
 20
1702.3007055415
 30
0.0
 11
2697.1140753024
 21
1700.3776376442
 31
0.0
  0
LINE
  5
37F
330
1F
100
AcDbEntity
  8
0
  6
Continuous
 62
     7
370
    15
100
AcDbLine
 10
2697.1140753024
 20
1700.3776376442
 30
0.0
 11
2698.5125846373
 21
1701.1505621976
 31
0.0
  0
LINE
  5
380
330
1F
100
AcDbEntity
  8
0
  6
Continuous
 62
     7
370
    15
100
AcDbLine
 10
2699.5435074071
 20
1703.8465546484
 30
0.0
 11
2698.5125846373
 21
1701.1505621976
 31
0.0
  0
LINE
  5
381
330
1F
100
AcDbEntity
  8
0
  6
Continuous
 62
     7
370
    15
100
AcDbLine
 10
2699.1759208418
 20
1705.7696225458
 30
0.0
 11
2699.5435074071
 21
1703.8465546484
 31
0.0
  0
LINE
  5
382
330
1F
100
AcDbEntity
  8
0
  6
Continuous
 62
     7
370
    15
100
AcDbLine
 10
2697.7774115069
 20
1704.9966979923
 30
0.0
 11
2699.1759208418
 21
1705.7696225458
 31
0.0
  0
LINE
  5
383
330
1F
100
AcDbEntity
  8
0
  6
Continuous
 62
     7
370
    15
100
AcDbLine
 10
2697.7774115069
 20
1704.9966979923
 30
0.0
 11
2696.7464887372
 21
1702.3007055415
 31
0.0
  0
LINE
  5
384
330
1F
100
AcDbEntity
  8
0
  6
Continuous
 62
     7
370
    15
100
AcDbLine
 10
2696.8611218848
 20
1701.7009901353
 30
0.0
 11
2698.5125846373
 21
1701.1505621976
 31
0.0
  0
LINE
  5
385
330
1F
100
AcDbEntity
  8
0
  6
Continuous
 62
     7
370
    15
100
AcDbLine
 10
2697.5869678201
 20
1704.4986638457
 30
0.0
 11
2699.5435074071
 21
1703.8465546484
 31
0.0
  0
LWPOLYLINE
  5
386
330
1F
100
AcDbEntity
  8
0
  6
Continuous
 62
     7
370
    15
100
AcDbPolyline
 90
       14
 70
   128
 43
0.0
 10
2696.5504161967
 20
1232.3269417441
 10
2696.9811658441
 20
1232.3540544128
 10
2697.6749864893
 20
1232.6965246471
 10
2698.4008376472
 20
1233.3762503313
 10
2699.1092537608
 20
1234.3469092831
 10
2699.7519574428
 20
1235.5423526992
 10
2700.2851494993
 20
1236.8811130864
 10
2700.6724937727
 20
1238.2719561365
 10
2700.8875933911
 20
1239.6200981943
 10
2700.9157896708
 20
1240.8336656065
 10
2700.755161082
 20
1241.8299557593
 10
2700.4166541976
 20
1242.5410731254
 10
2699.9233377024
 20
1242.9185562313
 10
2699.4169554035
 20
1242.9588129488
  0
LINE
  5
387
330
1F
100
AcDbEntity
  8
0
  6
Continuous
 62
     7
370
    15
100
AcDbLine
 10
2696.7158329944
 20
1236.6163360285
 30
0.0
 11
2697.2183061616
 21
1234.8975111607
 31
0.0
  0
LINE
  5
388
330
1F
100
AcDbEntity
  8
0
  6
Continuous
 62
     7
370
    15
100
AcDbLine
 10
2697.2183061616
 20
1234.8975111607
 30
0.0
 11
2698.6474712393
 21
1235.9265424523
 31
0.0
  0
LINE
  5
389
330
1F
100
AcDbEntity
  8
0
  6
Continuous
 62
     7
370
    15
100
AcDbLine
 10
2699.5741631498
 20
1238.6743986116
 30
0.0
 11
2698.6474712393
 21
1235.9265424523
 31
0.0
  0
LINE
  5
38A
330
1F
100
AcDbEntity
  8
0
  6
Continuous
 62
     7
370
    15
100
AcDbLine
 10
2699.0716899826
 20
1240.3932234795
 30
0.0
 11
2699.5741631498
 21
1238.6743986116
 31
0.0
  0
LINE
  5
38B
330
1F
100
AcDbEntity
  8
0
  6
Continuous
 62
     7
370
    15
100
AcDbLine
 10
2697.6425249049
 20
1239.3641921879
 30
0.0
 11
2699.0716899826
 21
1240.3932234795
 31
0.0
  0
LINE
  5
38C
330
1F
100
AcDbEntity
  8
0
  6
Continuous
 62
     7
370
    15
100
AcDbLine
 10
2697.6425249049
 20
1239.3641921879
 30
0.0
 11
2696.7158329944
 21
1236.6163360285
 31
0.0
  0
LINE
  5
38D
330
1F
100
AcDbEntity
  8
0
  6
Continuous
 62
     7
370
    15
100
AcDbLine
 10
2696.7307268999
 20
1236.5653880043
 30
0.0
 11
2698.6474712393
 21
1235.9265424523
 31
0.0
  0
LINE
  5
38E
330
1F
100
AcDbEntity
  8
0
  6
Continuous
 62
     7
370
    15
100
AcDbLine
 10
2697.6285841667
 20
1239.3228546702
 30
0.0
 11
2699.5741631498
 21
1238.6743986116
 31
0.0
  0
LWPOLYLINE
  5
38F
330
1F
100
AcDbEntity
  8
0
  6
Continuous
 62
     7
370
    15
100
AcDbPolyline
 90
       13
 70
   128
 43
0.0
 10
2559.2490811983
 20
1800.1172278127
 10
2558.7554231982
 20
1800.7678888679
 10
2557.8710162924
 20
1801.4332600163
 10
2556.7184347728
 20
1801.9438172556
 10
2555.3762251653
 20
1802.2647669534
 10
2553.9358568365
 20
1802.3742369185
 10
2552.4954885077
 20
1802.2647669534
 10
2551.1532789002
 20
1801.9438172556
 10
2550.0006973806
 20
1801.4332600163
 10
2549.1162904747
 20
1800.7678888679
 10
2548.5603290518
 20
1799.9930477544
 10
2548.3707009638
 20
1799.1615408173
 10
2548.4053136305
 20
1798.8037846094
  0
LINE
  5
390
330
1F
100
AcDbEntity
  8
0
  6
Continuous
 62
     7
370
    15
100
AcDbLine
 10
2551.885247171
 20
1797.9777490552
 30
0.0
 11
2554.6864320673
 21
1797.5444511975
 31
0.0
  0
LINE
  5
391
330
1F
100
AcDbEntity
  8
0
  6
Continuous
 62
     7
370
    15
100
AcDbLine
 10
2554.6864320673
 20
1797.5444511975
 30
0.0
 11
2556.7370417327
 21
1798.7282429596
 31
0.0
  0
LINE
  5
392
330
1F
100
AcDbEntity
  8
0
  6
Continuous
 62
     7
370
    15
100
AcDbLine
 10
2555.9864665019
 20
1800.3453325795
 30
0.0
 11
2556.7370417327
 21
1798.7282429596
 31
0.0
  0
LINE
  5
393
330
1F
100
AcDbEntity
  8
0
  6
Continuous
 62
     7
370
    15
100
AcDbLine
 10
2553.1852816057
 20
1800.7786304372
 30
0.0
 11
2555.9864665019
 21
1800.3453325795
 31
0.0
  0
LINE
  5
394
330
1F
100
AcDbEntity
  8
0
  6
Continuous
 62
     7
370
    15
100
AcDbLine
 10
2551.1346719402
 20
1799.5948386751
 30
0.0
 11
2553.1852816057
 21
1800.7786304372
 31
0.0
  0
LINE
  5
395
330
1F
100
AcDbEntity
  8
0
  6
Continuous
 62
     7
370
    15
100
AcDbLine
 10
2551.1346719402
 20
1799.5948386751
 30
0.0
 11
2551.885247171
 21
1797.9777490552
 31
0.0
  0
LINE
  5
396
330
1F
100
AcDbEntity
  8
0
  6
Continuous
 62
     7
370
    15
100
AcDbLine
 10
2555.9864665019
 20
1798.2949451019
 30
0.0
 11
2555.9864665019
 21
1800.3453325795
 31
0.0
  0
LINE
  5
397
330
1F
100
AcDbEntity
  8
0
  6
Continuous
 62
     7
370
    15
100
AcDbLine
 10
2553.1852816057
 20
1798.3290080016
 30
0.0
 11
2553.1852816057
 21
1800.7786304372
 31
0.0
  0
LINE
  5
398
330
1F
100
AcDbEntity
  8
0
  6
Continuous
 62
     7
370
    15
100
AcDbLine
 10
2552.4306713637
 20
1797.8933807814
 30
0.0
 11
2553.1852816057
 21
1798.3290080016
 31
0.0
  0
LINE
  5
399
330
1F
100
AcDbEntity
  8
0
  6
Continuous
 62
     7
370
    15
100
AcDbLine
 10
2553.1852816057
 20
1798.3290080016
 30
0.0
 11
2555.4410423093
 21
1797.9800784176
 31
0.0
  0
ARC
  5
39A
330
1F
100
AcDbEntity
  8
0
  6
Continuous
 62
     7
370
    15
100
AcDbCircle
 10
2729.4764152226
 20
1751.2382242367
 30
0.0
 40
1.957181010526106
100
AcDbArc
 50
3.7683231373
 51
58.3424507074
  0
LINE
  5
39B
330
1F
100
AcDbEntity
  8
0
  6
Continuous
 62
     7
370
    15
100
AcDbLine
 10
2731.4293647224
 20
1244.2950103762
 30
0.0
 11
2731.4293647224
 21
1751.3668545573
 31
0.0
  0
LWPOLYLINE
  5
39C
330
1F
100
AcDbEntity
  8
0
  6
Continuous
 62
     7
370
    15
100
AcDbPolyline
 90
        3
 70
   128
 43
0.0
 10
2731.311527286
 20
1243.7516058803
 10
2731.3922447346
 20
1243.9821538163
 10
2731.4293647224
 20
1244.2950103762
  0
ARC
  5
39D
330
1F
100
AcDbEntity
  8
0
  6
Continuous
 62
     7
370
    15
100
AcDbCircle
 10
2728.8738734966
 20
1752.5783784983
 30
0.0
 40
2.828131125828482
100
AcDbArc
 50
334.635000586
 51
359.671403381
  0
LINE
  5
39E
330
1F
100
AcDbEntity
  8
0
  6
Continuous
 62
     7
370
    15
100
AcDbLine
 10
2731.7019581121
 20
1755.82832224
 30
0.0
 11
2731.7019581121
 21
1752.5621589924
 31
0.0
  0
LINE
  5
39F
330
1F
100
AcDbEntity
  8
0
  6
Continuous
 62
     7
370
    15
100
AcDbLine
 10
2731.7019581121
 20
1752.5621589924
 30
0.0
 11
2731.7019581121
 21
1245.4903148114
 31
0.0
  0
ARC
  5
3A0
330
1F
100
AcDbEntity
  8
0
  6
Continuous
 62
     7
370
    15
100
AcDbCircle
 10
2728.8738734966
 20
1245.5065343172
 30
0.0
 40
2.828131125827563
100
AcDbArc
 50
334.635000586
 51
359.671403381
  0
LINE
  5
3A1
330
1F
100
AcDbEntity
  8
0
  6
Continuous
 62
     7
370
    15
100
AcDbLine
 10
2645.4040830301
 20
1169.0732581908
 30
0.0
 11
2646.2868665941
 21
1168.5636380869
 31
0.0
  0
LINE
  5
3A2
330
1F
100
AcDbEntity
  8
0
  6
Continuous
 62
     7
370
    15
100
AcDbLine
 10
2645.4040830301
 20
1164.9905541314
 30
0.0
 11
2645.4040830301
 21
1169.0732581908
 31
0.0
  0
ARC
  5
3A3
330
1F
100
AcDbEntity
  8
0
  6
Continuous
 62
     7
370
    15
100
AcDbCircle
 10
2651.4752594859
 20
1169.4434390759
 30
0.0
 40
3.824856232051548
100
AcDbArc
 50
299.4866724921
 51
314.4242493031
  0
ELLIPSE
  5
3A4
330
1F
100
AcDbEntity
  8
0
  6
Continuous
 62
     7
370
    15
100
AcDbEllipse
 10
2649.8224005001
 20
1170.6046583664
 30
0.0
 11
4.160421498338111
 21
-4.002983760840834
 31
0.0
210
0.0
220
0.0
230
1.0
 40
0.6927946976
 41
4.514932113735812
 42
6.085728440530722
  0
ARC
  5
3A5
330
1F
100
AcDbEntity
  8
0
  6
Continuous
 62
     7
370
    15
100
AcDbCircle
 10
2651.4752594859
 20
1676.515283257
 30
0.0
 40
3.824856232052354
100
AcDbArc
 50
299.4866724921
 51
314.4242493031
  0
LINE
  5
3A6
330
1F
100
AcDbEntity
  8
0
  6
Continuous
 62
     7
370
    15
100
AcDbLine
 10
2654.152527519
 20
1673.7836608316
 30
0.0
 11
2654.152527519
 21
1166.7118166505
 31
0.0
  0
LINE
  5
3A7
330
1F
100
AcDbEntity
  8
0
  6
Continuous
 62
     7
370
    15
100
AcDbLine
 10
2730.6301613424
 20
1750.2530081441
 30
0.0
 11
2654.152527519
 21
1673.7836608316
 31
0.0
  0
LINE
  5
3A8
330
1F
100
AcDbEntity
  8
0
  6
Continuous
 62
     7
370
    15
100
AcDbLine
 10
2730.6301613424
 20
1750.2530081441
 30
0.0
 11
2730.6301613424
 21
1243.181163963
 31
0.0
  0
LINE
  5
3A9
330
1F
100
AcDbEntity
  8
0
  6
Continuous
 62
     7
370
    15
100
AcDbLine
 10
2654.152527519
 20
1166.7118166505
 30
0.0
 11
2730.6301613424
 21
1243.181163963
 31
0.0
  0
LWPOLYLINE
  5
3AA
330
1F
100
AcDbEntity
  8
0
  6
Continuous
 62
     7
370
    15
100
AcDbPolyline
 90
       24
 70
   128
 43
0.0
 10
2695.5824980721
 20
1235.0831449723
 10
2695.6775225233
 20
1236.3071970095
 10
2695.955548348
 20
1237.6304950169
 10
2696.3959556426
 20
1238.9548960351
 10
2696.9660814129
 20
1240.1821752991
 10
2697.6236420387
 20
1241.2213111204
 10
2698.3198692563
 20
1241.995235549
 10
2699.0031270783
 20
1242.4465501503
 10
2699.6227413975
 20
1242.541782985
 10
2700.1327582545
 20
1242.2738710695
 10
2700.4953520322
 20
1241.6626842049
 10
2700.6836308088
 20
1240.753551325
 10
2700.6836308088
 20
1239.6138986564
 10
2700.4953520322
 20
1238.328249024
 10
2700.1327582545
 20
1236.9919531796
 10
2699.6227413975
 20
1235.7041180728
 10
2699.0031270783
 20
1234.5602565421
 10
2698.3198692563
 20
1233.6452035644
 10
2697.6236420387
 20
1233.0268244329
 10
2696.9660814129
 20
1232.7509814989
 10
2696.3959556426
 20
1232.8381327709
 10
2695.955548348
 20
1233.2818146378
 10
2695.6775225233
 20
1234.0491212452
 10
2695.5824980721
 20
1235.0831449723
  0
LWPOLYLINE
  5
3AB
330
1F
100
AcDbEntity
  8
0
  6
Continuous
 62
     7
370
    15
100
AcDbPolyline
 90
       24
 70
   128
 43
0.0
 10
2695.5824980721
 20
1700.5114077472
 10
2695.6775225233
 20
1701.7354597844
 10
2695.955548348
 20
1703.0587577918
 10
2696.3959556426
 20
1704.3831588099
 10
2696.9660814129
 20
1705.610438074
 10
2697.6236420387
 20
1706.6495738953
 10
2698.3198692563
 20
1707.4234983238
 10
2699.0031270783
 20
1707.8748129251
 10
2699.6227413975
 20
1707.9700457599
 10
2700.1327582545
 20
1707.7021338444
 10
2700.4953520322
 20
1707.0909469798
 10
2700.6836308088
 20
1706.1818140998
 10
2700.6836308088
 20
1705.0421614312
 10
2700.4953520322
 20
1703.7565117989
 10
2700.1327582545
 20
1702.4202159545
 10
2699.6227413975
 20
1701.1323808477
 10
2699.0031270783
 20
1699.988519317
 10
2698.3198692563
 20
1699.0734663393
 10
2697.6236420387
 20
1698.4550872077
 10
2696.9660814129
 20
1698.1792442737
 10
2696.3959556426
 20
1698.2663955458
 10
2695.955548348
 20
1698.7100774127
 10
2695.6775225233
 20
1699.4773840201
 10
2695.5824980721
 20
1700.5114077472
  0
LWPOLYLINE
  5
3AC
330
1F
100
AcDbEntity
  8
0
  6
Continuous
 62
     7
370
    15
100
AcDbPolyline
 90
       20
 70
   128
 43
0.0
 10
2672.180479357
 20
1431.3061557211
 10
2671.118492444
 20
1431.371064587
 10
2670.1672312868
 20
1431.7852446567
 10
2669.3466234806
 20
1432.540019435
 10
2668.6738596154
 20
1433.6195774424
 10
2668.1630331563
 20
1435.0013034432
 10
2667.8248452057
 20
1436.6562522036
 10
2667.6663803299
 20
1438.5497548538
 10
2667.690958147
 20
1440.6421451523
 10
2667.8980637861
 20
1442.8895904388
 10
2668.2833586726
 20
1445.245009867
 10
2668.8387714159
 20
1447.6590606829
 10
2669.5526668929
 20
1450.0811718866
 10
2670.4100899885
 20
1452.4606036242
 10
2671.3930788839
 20
1454.7475101174
 10
2672.4810413318
 20
1456.8939838626
 10
2673.6511860354
 20
1458.8550592265
 10
2674.8790000941
 20
1460.5896544137
 10
2676.1387625146
 20
1462.0614320727
 10
2677.4040830301
 20
1463.2395605128
  0
LWPOLYLINE
  5
3AD
330
1F
100
AcDbEntity
  8
0
  6
Continuous
 62
     7
370
    15
100
AcDbPolyline
 90
       18
 70
   128
 43
0.0
 10
2720.6276867033
 20
1479.7481137116
 10
2717.9820741118
 20
1474.885783805
 10
2715.2607005398
 20
1470.2074874882
 10
2712.4731208123
 20
1465.7296504012
 10
2709.6291222063
 20
1461.4679943656
 10
2706.7386900869
 20
1457.4374821851
 10
2703.811972849
 20
1453.6522651099
 10
2700.8592462855
 20
1450.1256331519
 10
2697.8908775087
 20
1446.8699684229
 10
2694.9172885515
 20
1443.8967016602
 10
2691.9489197748
 20
1441.2162720937
 10
2688.9961932113
 20
1438.8380907927
 10
2686.0694759734
 20
1436.7705076239
 10
2683.179043854
 20
1435.0207819344
 10
2680.3350452479
 20
1433.5950570642
 10
2677.5474655204
 20
1432.4983387764
 10
2674.8260919484
 20
1431.7344776822
 10
2672.180479357
 20
1431.3061557211
  0
LWPOLYLINE
  5
3AE
330
1F
100
AcDbEntity
  8
0
  6
Continuous
 62
     7
370
    15
100
AcDbPolyline
 90
       20
 70
   128
 43
0.0
 10
2715.4040830301
 20
1501.2354431336
 10
2716.6694035456
 20
1502.5876815243
 10
2717.9291659662
 20
1503.6351557106
 10
2719.1569800248
 20
1504.3559225684
 10
2720.3271247284
 20
1504.7348830364
 10
2721.4150871764
 20
1504.7640984211
 10
2722.3980760718
 20
1504.442956701
 10
2723.2554991674
 20
1503.7781853474
 10
2723.9693946444
 20
1502.7837103936
 10
2724.5248073876
 20
1501.4803647039
 10
2724.9101022742
 20
1499.8954515538
 10
2725.1172079133
 20
1498.0621726648
 10
2725.1417857304
 20
1496.0189326744
 10
2724.9833208545
 20
1493.8085346125
 10
2724.6451329039
 20
1491.4772832377
 10
2724.1343064449
 20
1489.0740150169
 10
2723.4615425796
 20
1486.6490750698
 10
2722.6409347735
 20
1484.2532625084
 10
2721.6896736163
 20
1481.9367662664
 10
2720.6276867033
 20
1479.7481137116
  0
ARC
  5
3AF
330
1F
100
AcDbEntity
  8
0
  6
Continuous
 62
     7
370
    15
100
AcDbCircle
 10
2494.3644986088
 20
1684.2989800265
 30
0.0
 40
287.0030599503552
100
AcDbArc
 50
309.6251233515
 51
320.3686681951
  0
ARC
  5
3B0
330
1F
100
AcDbEntity
  8
0
  6
Continuous
 62
     7
370
    15
100
AcDbCircle
 10
2727.8846102071
 20
1753.0666309628
 30
0.0
 40
3.931224287971894
100
AcDbArc
 50
314.2984523801
 51
334.3814066623
  0
ARC
  5
3B1
330
1F
100
AcDbEntity
  8
0
  6
Continuous
 62
     7
370
    15
100
AcDbCircle
 10
2729.4765578105
 20
1751.2382706449
 30
0.0
 40
1.957035681274797
100
AcDbArc
 50
3.767241748
 51
58.3214627966
  0
ARC
  5
3B2
330
1F
100
AcDbEntity
  8
0
  6
Continuous
 62
     7
370
    15
100
AcDbCircle
 10
2727.8846102071
 20
1245.9947867818
 30
0.0
 40
3.931224287974141
100
AcDbArc
 50
314.2984523801
 51
334.3814066623
  0
ARC
  5
3B3
330
1F
100
AcDbEntity
  8
0
  6
Continuous
 62
     7
370
    15
100
AcDbCircle
 10
2707.895578152
 20
1470.1463341379
 30
0.0
 40
15.94681031249844
100
AcDbArc
 50
37.0213704797
 51
73.8831038026
  0
LINE
  5
3B4
330
1F
100
AcDbEntity
  8
0
  6
Continuous
 62
     7
370
    15
100
AcDbLine
 10
2707.1262278923
 20
1487.1982554252
 30
0.0
 11
2712.322380315
 21
1485.466392289
 31
0.0
  0
LWPOLYLINE
  5
3B5
330
1F
100
AcDbEntity
  8
0
  6
Continuous
 62
     7
370
    15
100
AcDbPolyline
 90
       15
 70
   128
 43
0.0
 10
2668.8443577632
 20
1444.0668912357
 10
2670.3341682003
 20
1444.7182837918
 10
2673.1408933728
 20
1446.1900297151
 10
2675.9934832648
 20
1447.9987037991
 10
2678.8806317089
 20
1450.1371374101
 10
2681.7908955659
 20
1452.596854921
 10
2684.7127400791
 20
1455.3681073043
 10
2687.6345845923
 20
1458.4399107716
 10
2690.5448484493
 20
1461.8000903083
 10
2693.4319968934
 20
1465.4353279284
 10
2696.2845867854
 20
1469.3312154603
 10
2699.0913119579
 20
1473.472311653
 10
2701.8410480273
 20
1477.8422033774
 10
2704.5228964848
 20
1482.423570679
 10
2707.1262278923
 20
1487.1982554252
  0
ARC
  5
3B6
330
1F
100
AcDbEntity
  8
0
  6
Continuous
 62
     7
370
    15
100
AcDbCircle
 10
2686.0760644953
 20
1498.1512584688
 30
0.0
 40
23.72925735695683
100
AcDbArc
 50
332.510748188
 51
344.8289306131
  0
ELLIPSE
  5
3B7
330
1F
100
AcDbEntity
  8
0
  6
Continuous
 62
     7
370
    15
100
AcDbEllipse
 10
2647.9922734812
 20
1171.661168206
 30
0.0
 11
1.684274944335812
 21
4.78404370834005
 31
0.0
210
0.0
220
0.0
230
1.0
 40
0.4107788327
 41
2.279373200945926
 42
3.064852628405464
  0
LWPOLYLINE
  5
3B8
330
1F
100
AcDbEntity
  8
0
  6
Continuous
 62
     7
370
    15
100
AcDbPolyline
 90
        3
 70
   128
 43
0.0
 10
2731.4293647224
 20
1244.2950103762
 10
2731.3922447346
 20
1243.9821538163
 10
2731.3111080191
 20
1243.7507039626
  0
LINE
  5
3B9
330
1F
100
AcDbEntity
  8
0
  6
Continuous
 62
     7
370
    15
100
AcDbLine
 10
2723.8433794683
 20
1888.1967550408
 30
0.0
 11
2631.0209180346
 21
1941.7820214321
 31
0.0
  0
ARC
  5
3BA
330
1F
100
AcDbEntity
  8
0
  6
Continuous
 62
     7
370
    15
100
AcDbCircle
 10
2723.8018666996
 20
1888.1051329543
 30
0.0
 40
0.1005878557025528
100
AcDbArc
 50
5.6947992525
 51
65.6253417056
  0
LINE
  5
3BB
330
1F
100
AcDbEntity
  8
0
  6
Continuous
 62
     7
370
    15
100
AcDbLine
 10
2723.9019581121
 20
1766.4433527945
 30
0.0
 11
2723.9019581121
 21
1888.1151142297
 31
0.0
  0
ARC
  5
3BC
330
1F
100
AcDbEntity
  8
0
  6
Continuous
 62
     7
370
    15
100
AcDbCircle
 10
2723.8196213922
 20
1766.446486698
 30
0.0
 40
0.0823963396692327
100
AcDbArc
 50
312.3828191455
 51
357.8202579665
  0
LINE
  5
3BD
330
1F
100
AcDbEntity
  8
0
  6
Continuous
 62
     7
370
    15
100
AcDbLine
 10
2642.4181085986
 20
1684.9373954705
 30
0.0
 11
2723.8751631928
 21
1766.3856240233
 31
0.0
  0
LWPOLYLINE
  5
3BE
330
1F
100
AcDbEntity
  8
0
  6
Continuous
 62
     7
370
    15
100
AcDbPolyline
 90
       12
 70
   128
 43
0.0
 10
2618.6008385269
 20
1681.7715278449
 10
2620.7619421264
 20
1681.0572932798
 10
2623.0829934759
 20
1680.5365125224
 10
2625.5123842121
 20
1680.220765085
 10
2627.9960970553
 20
1680.1170715828
 10
2630.4789068789
 20
1680.2277376314
 10
2632.9056086347
 20
1680.5503025812
 10
2635.2222448323
 20
1681.0775942303
 10
2637.3773052789
 20
1681.7978882974
 10
2639.3228724035
 20
1682.6951691101
 10
2641.0156867002
 20
1683.749485712
 10
2642.4181085986
 20
1684.9373954705
  0
LWPOLYLINE
  5
3BF
330
1F
100
AcDbEntity
  8
0
  6
Continuous
 62
     7
370
    15
100
AcDbPolyline
 90
       21
 70
   128
 43
0.0
 10
2350.5883569419
 20
1836.4918401495
 10
2361.4188571084
 20
1827.4331333041
 10
2372.5468007883
 20
1818.4953757973
 10
2383.9681361197
 20
1809.6818220092
 10
2395.6787044122
 20
1800.9956810953
 10
2407.6742416612
 20
1792.4401158181
 10
2419.9503801001
 20
1784.0182413953
 10
2432.5026497911
 20
1775.7331243659
 10
2445.3264802526
 20
1767.5877814731
 10
2458.4172021233
 20
1759.5851785661
 10
2471.7700488626
 20
1751.7282295204
 10
2485.3801584859
 20
1744.0197951765
 10
2499.2425753353
 20
1736.4626822982
 10
2513.3522518836
 20
1729.0596425509
 10
2527.7040505725
 20
1721.8133714995
 10
2542.2927456831
 20
1714.7265076269
 10
2557.1130252389
 20
1707.8016313732
 10
2572.1594929396
 20
1701.0412641964
 10
2587.4266701263
 20
1694.4478676539
 10
2602.9089977762
 20
1688.0238425068
 10
2618.6008385269
 20
1681.7715278449
  0
LWPOLYLINE
  5
3C0
330
1F
100
AcDbEntity
  8
0
  6
Continuous
 62
     7
370
    15
100
AcDbPolyline
 90
       12
 70
   128
 43
0.0
 10
2356.0723947265
 20
1850.2412574973
 10
2354.0146517092
 20
1849.4316565682
 10
2352.188323901
 20
1848.4544156759
 10
2350.6340195326
 20
1847.3312636817
 10
2349.3862984189
 20
1846.0871737671
 10
2348.4729035239
 20
1844.7498081569
 10
2347.9141440993
 20
1843.3489030524
 10
2347.7224441095
 20
1841.9156074498
 10
2347.9020659861
 20
1840.481790545
 10
2348.4490158532
 20
1839.0793331252
 10
2349.3511323308
 20
1837.739418702
 10
2350.5883569419
 20
1836.4918401495
  0
LINE
  5
3C1
330
1F
100
AcDbEntity
  8
0
  6
Continuous
 62
     7
370
    15
100
AcDbLine
 10
2630.7794966783
 20
1941.8003697857
 30
0.0
 11
2356.0723947265
 21
1850.2412574973
 31
0.0
  0
ARC
  5
3C2
330
1F
100
AcDbEntity
  8
0
  6
Continuous
 62
     7
370
    15
100
AcDbCircle
 10
2630.8782922426
 20
1941.5028440423
 30
0.0
 40
0.3134998110505112
100
AcDbArc
 50
62.9384771797
 51
108.3691181221
  0
LWPOLYLINE
  5
3C3
330
1F
100
AcDbEntity
  8
0
  6
Continuous
 62
     7
370
    15
100
AcDbPolyline
 90
       24
 70
   128
 43
0.0
 10
2664.2101866861
 20
1743.847139259
 10
2665.3222940766
 20
1744.3339877246
 10
2666.6206912848
 20
1744.6295714011
 10
2668.0090821294
 20
1744.7119681995
 10
2669.3844960129
 20
1744.5750671263
 10
2670.6449247798
 20
1744.2290215076
 10
2671.6968881945
 20
1743.6994959641
 10
2672.4623669428
 20
1743.0257629828
 10
2672.8845889679
 20
1742.2577902568
 10
2672.9322399938
 20
1741.45253481
 10
2672.6017859618
 20
1740.6697187551
 10
2671.9177351357
 20
1739.9673999778
 10
2670.9308204359
 20
1739.3976662487
 10
2669.7142368111
 20
1739.0027721124
 10
2668.358212703
 20
1738.8120050603
 10
2666.9633182164
 20
1738.839513412
 10
2665.6330062941
 20
1739.0832569989
 10
2664.4659400857
 20
1739.5251584742
 10
2663.5486755528
 20
1740.132444027
 10
2662.9492420097
 20
1740.8600740661
 10
2662.7120967
 20
1741.6540836001
 10
2662.8548276065
 20
1742.4555845742
 10
2663.3668490307
 20
1743.2051333279
 10
2664.2101866861
 20
1743.847139259
  0
LWPOLYLINE
  5
3C4
330
1F
100
AcDbEntity
  8
0
  6
Continuous
 62
     7
370
    15
100
AcDbPolyline
 90
       24
 70
   128
 43
0.0
 10
2450.8702763888
 20
1867.0056479711
 10
2451.9823837793
 20
1867.4924964366
 10
2453.2807809875
 20
1867.7880801132
 10
2454.669171832
 20
1867.8704769116
 10
2456.0445857156
 20
1867.7335758383
 10
2457.3050144825
 20
1867.3875302197
 10
2458.3569778971
 20
1866.8580046761
 10
2459.1224566455
 20
1866.1842716948
 10
2459.5446786706
 20
1865.4162989689
 10
2459.5923296965
 20
1864.6110435221
 10
2459.2618756644
 20
1863.8282274672
 10
2458.5778248383
 20
1863.1259086898
 10
2457.5909101386
 20
1862.5561749608
 10
2456.3743265138
 20
1862.1612808245
 10
2455.0183024057
 20
1861.9705137724
 10
2453.6234079191
 20
1861.998022124
 10
2452.2930959968
 20
1862.2417657109
 10
2451.1260297884
 20
1862.6836671862
 10
2450.2087652555
 20
1863.2909527391
 10
2449.6093317124
 20
1864.0185827781
 10
2449.3721864027
 20
1864.8125923122
 10
2449.5149173092
 20
1865.6140932863
 10
2450.0269387334
 20
1866.36364204
 10
2450.8702763888
 20
1867.0056479711
  0
LWPOLYLINE
  5
3C5
330
1F
100
AcDbEntity
  8
0
  6
Continuous
 62
     7
370
    15
100
AcDbPolyline
 90
       24
 70
   128
 43
0.0
 10
2680.8339666364
 20
1890.8192599312
 10
2681.9460740269
 20
1891.3061083967
 10
2683.2444712351
 20
1891.6016920733
 10
2684.6328620797
 20
1891.6840888717
 10
2686.0082759632
 20
1891.5471877984
 10
2687.2687047301
 20
1891.2011421798
 10
2688.3206681448
 20
1890.6716166362
 10
2689.0861468931
 20
1889.9978836549
 10
2689.5083689183
 20
1889.2299109289
 10
2689.5560199441
 20
1888.4246554822
 10
2689.2255659121
 20
1887.6418394273
 10
2688.541515086
 20
1886.9395206499
 10
2687.5546003863
 20
1886.3697869209
 10
2686.3380167614
 20
1885.9748927846
 10
2684.9819926533
 20
1885.7841257324
 10
2683.5870981667
 20
1885.8116340841
 10
2682.2567862445
 20
1886.055377671
 10
2681.089720036
 20
1886.4972791463
 10
2680.1724555032
 20
1887.1045646992
 10
2679.5730219601
 20
1887.8321947382
 10
2679.3358766504
 20
1888.6262042722
 10
2679.4786075568
 20
1889.4277052464
 10
2679.9906289811
 20
1890.1772540001
 10
2680.8339666364
 20
1890.8192599312
  0
LWPOLYLINE
  5
3C6
330
1F
100
AcDbEntity
  8
0
  6
Continuous
 62
     7
370
    15
100
AcDbPolyline
 90
       25
 70
   128
 43
0.0
 10
2609.4437391596
 20
1835.6958038214
 10
2610.5828264562
 20
1836.2003835457
 10
2611.9093217081
 20
1836.5175756206
 10
2613.3328264562
 20
1836.6257639304
 10
2614.7563312042
 20
1836.5175756206
 10
2616.0828264562
 20
1836.2003835457
 10
2617.2219137527
 20
1835.6958038214
 10
2618.095966177
 20
1835.0382227221
 10
2618.6454185007
 20
1834.272453313
 10
2618.8328264562
 20
1833.4506815139
 10
2618.6454185007
 20
1832.6289097147
 10
2618.095966177
 20
1831.8631403057
 10
2617.2219137527
 20
1831.2055592064
 10
2616.0828264562
 20
1830.7009794821
 10
2614.7563312042
 20
1830.3837874072
 10
2613.3328264562
 20
1830.2755990974
 10
2611.9093217081
 20
1830.3837874072
 10
2610.5828264562
 20
1830.7009794821
 10
2609.4437391596
 20
1831.2055592064
 10
2608.5696867353
 20
1831.8631403057
 10
2608.0202344116
 20
1832.6289097147
 10
2607.8328264562
 20
1833.4506815139
 10
2608.0202344116
 20
1834.272453313
 10
2608.5696867353
 20
1835.0382227221
 10
2609.4437391596
 20
1835.6958038214
  0
LWPOLYLINE
  5
3C7
330
1F
100
AcDbEntity
  8
0
  6
Continuous
 62
     7
370
    15
100
AcDbPolyline
 90
       25
 70
   128
 43
0.0
 10
2550.04676954
 20
1801.4066631249
 10
2551.1858568365
 20
1801.9112428491
 10
2552.5123520884
 20
1802.228434924
 10
2553.9358568365
 20
1802.3366232338
 10
2555.3593615845
 20
1802.228434924
 10
2556.6858568365
 20
1801.9112428491
 10
2557.824944133
 20
1801.4066631249
 10
2558.6989965573
 20
1800.7490820256
 10
2559.2484488811
 20
1799.9833126165
 10
2559.4358568365
 20
1799.1615408173
 10
2559.2484488811
 20
1798.3397690182
 10
2558.6989965573
 20
1797.5739996091
 10
2557.824944133
 20
1796.9164185098
 10
2556.6858568365
 20
1796.4118387856
 10
2555.3593615845
 20
1796.0946467107
 10
2553.9358568365
 20
1795.9864584009
 10
2552.5123520884
 20
1796.0946467107
 10
2551.1858568365
 20
1796.4118387856
 10
2550.04676954
 20
1796.9164185098
 10
2549.1727171157
 20
1797.5739996091
 10
2548.6232647919
 20
1798.3397690182
 10
2548.4358568365
 20
1799.1615408173
 10
2548.6232647919
 20
1799.9833126165
 10
2549.1727171157
 20
1800.7490820256
 10
2550.04676954
 20
1801.4066631249
  0
LWPOLYLINE
  5
3C8
330
1F
100
AcDbEntity
  8
0
  6
Continuous
 62
     7
370
    15
100
AcDbPolyline
 90
       14
 70
   128
 43
0.0
 10
2649.1731067481
 20
1676.3169550607
 10
2647.4611811922
 20
1674.8304943822
 10
2645.4385676019
 20
1673.4803498414
 10
2643.1374823009
 20
1672.2880266302
 10
2640.5945771285
 20
1671.272516152
 10
2637.8503556472
 20
1670.4499935249
 10
2634.948527999
 20
1669.8335599442
 10
2631.9353146874
 20
1669.4330340046
 10
2628.8587103739
 20
1669.2547953101
 10
2625.7677194165
 20
1669.3016828584
 10
2622.7115753243
 20
1669.5729498214
 10
2619.7389565633
 20
1670.064275441
 10
2616.8972112025
 20
1670.7678338501
 10
2614.2316027507
 20
1671.6724187237
  0
ARC
  5
3C9
330
1F
100
AcDbEntity
  8
0
  6
Continuous
 62
     7
370
    15
100
AcDbCircle
 10
2628.8781132244
 20
1671.3305128822
 30
0.0
 40
14.65050062833276
100
AcDbArc
 50
134.5471908652
 51
178.6627391878
  0
ARC
  5
3CA
330
1F
100
AcDbEntity
  8
0
  6
Continuous
 62
     7
370
    15
100
AcDbCircle
 10
2639.2954736246
 20
1675.5336543568
 30
0.0
 40
9.908642496086296
100
AcDbArc
 50
4.5340924027
 51
71.6305797063
  0
LWPOLYLINE
  5
3CB
330
1F
100
AcDbEntity
  8
0
  6
Continuous
 62
     7
370
    15
100
AcDbPolyline
 90
       21
 70
   128
 43
0.0
 10
2614.2316027507
 20
1671.6724187237
 10
2598.4172676467
 20
1677.9735404856
 10
2582.814081154
 20
1684.4477131469
 10
2567.4277246418
 20
1691.0925793581
 10
2552.2638005279
 20
1697.9057196174
 10
2537.327830239
 20
1704.8846531517
 10
2522.6252522002
 20
1712.02683882
 10
2508.1614198546
 20
1719.3296760385
 10
2493.9415997144
 20
1726.7905057278
 10
2479.9709694428
 20
1734.4066112806
 10
2466.2546159693
 20
1742.1752195516
 10
2452.797533637
 20
1750.0935018665
 10
2439.6046223842
 20
1758.1585750523
 10
2426.6806859604
 20
1766.3675024874
 10
2414.0304301769
 20
1774.7172951701
 10
2401.6584611937
 20
1783.2049128079
 10
2389.5692838421
 20
1791.8272649238
 10
2377.7672999845
 20
1800.5812119817
 10
2366.2568069113
 20
1809.46356653
 10
2355.0419957768
 20
1818.4710943616
 10
2344.1269500725
 20
1827.600515692
  0
ARC
  5
3CC
330
1F
100
AcDbEntity
  8
0
  6
Continuous
 62
     7
370
    15
100
AcDbCircle
 10
2354.4771380853
 20
1826.8723833101
 30
0.0
 40
10.37576834093384
100
AcDbArc
 50
112.0116136597
 51
175.9758902319
  0
LINE
  5
3CD
330
1F
100
AcDbEntity
  8
0
  6
Continuous
 62
     7
370
    15
100
AcDbLine
 10
2649.1731067481
 20
1676.3169550607
 30
0.0
 11
2649.1731067481
 21
1672.0709428389
 31
0.0
  0
LWPOLYLINE
  5
3CE
330
1F
100
AcDbEntity
  8
0
  6
Continuous
 62
     7
370
    15
100
AcDbPolyline
 90
       14
 70
   128
 43
0.0
 10
2614.2316027507
 20
1667.4264065019
 10
2616.8972112025
 20
1666.5218216283
 10
2619.7389565633
 20
1665.8182632192
 10
2622.7115753243
 20
1665.3269375996
 10
2625.7677194165
 20
1665.0556706366
 10
2628.8587103739
 20
1665.0087830883
 10
2631.9353146874
 20
1665.1870217828
 10
2634.948527999
 20
1665.5875477224
 10
2637.8503556472
 20
1666.2039813031
 10
2640.5945771285
 20
1667.0265039302
 10
2643.1374823009
 20
1668.0420144084
 10
2645.4385676019
 20
1669.2343376196
 10
2647.4611811922
 20
1670.5844821604
 10
2649.1731067481
 20
1672.0709428389
  0
LINE
  5
3CF
330
1F
100
AcDbEntity
  8
0
  6
Continuous
 62
     7
370
    15
100
AcDbLine
 10
2614.2316027507
 20
1671.6724187237
 30
0.0
 11
2614.2316027507
 21
1667.4264065019
 31
0.0
  0
LWPOLYLINE
  5
3D0
330
1F
100
AcDbEntity
  8
0
  6
Continuous
 62
     7
370
    15
100
AcDbPolyline
 90
       21
 70
   128
 43
0.0
 10
2344.1269500725
 20
1823.3545034702
 10
2355.0419957768
 20
1814.2250821398
 10
2366.2568069113
 20
1805.2175543082
 10
2377.7672999845
 20
1796.3351997599
 10
2389.5692838421
 20
1787.581252702
 10
2401.6584611937
 20
1778.9589005861
 10
2414.0304301769
 20
1770.4712829483
 10
2426.6806859604
 20
1762.1214902656
 10
2439.6046223842
 20
1753.9125628305
 10
2452.797533637
 20
1745.8474896447
 10
2466.2546159693
 20
1737.9292073298
 10
2479.9709694428
 20
1730.1605990588
 10
2493.9415997144
 20
1722.544493506
 10
2508.1614198546
 20
1715.0836638167
 10
2522.6252522002
 20
1707.7808265982
 10
2537.327830239
 20
1700.6386409299
 10
2552.2638005279
 20
1693.6597073956
 10
2567.4277246418
 20
1686.8465671363
 10
2582.814081154
 20
1680.2017009251
 10
2598.4172676467
 20
1673.7275282638
 10
2614.2316027507
 20
1667.4264065019
  0
LINE
  5
3D1
330
1F
100
AcDbEntity
  8
0
  6
Continuous
 62
     7
370
    15
100
AcDbLine
 10
2344.1269500725
 20
1827.600515692
 30
0.0
 11
2344.1269500725
 21
1823.3545034702
 31
0.0
  0
LINE
  5
3D2
330
1F
100
AcDbEntity
  8
0
  6
Continuous
 62
     7
370
    15
100
AcDbLine
 10
2730.6301613424
 20
1757.7651836134
 30
0.0
 11
2649.1731067481
 21
1676.3169550607
 31
0.0
  0
ARC
  5
3D3
330
1F
100
AcDbEntity
  8
0
  6
Continuous
 62
     7
370
    15
100
AcDbCircle
 10
2720.7525282189
 20
1756.9818829095
 30
0.0
 40
9.908642496087225
100
AcDbArc
 50
4.5340924027
 51
71.6305797063
  0
LINE
  5
3D4
330
1F
100
AcDbEntity
  8
0
  6
Continuous
 62
     7
370
    15
100
AcDbLine
 10
2730.6301613424
 20
1757.7651836134
 30
0.0
 11
2730.6301613424
 21
1753.5191713916
 31
0.0
  0
LINE
  5
3D5
330
1F
100
AcDbEntity
  8
0
  6
Continuous
 62
     7
370
    15
100
AcDbLine
 10
2649.1731067481
 20
1672.0709428389
 30
0.0
 11
2730.6301613424
 21
1753.5191713916
 31
0.0
  0
LWPOLYLINE
  5
3D6
330
1F
100
AcDbEntity
  8
0
  6
Continuous
 62
     7
370
    15
100
AcDbPolyline
 90
        9
 70
   128
 43
0.0
 10
2723.9019581121
 20
1766.4433527945
 10
2725.4236626238
 20
1766.3209738931
 10
2726.8868888845
 20
1765.9585401415
 10
2728.2354059296
 20
1765.3699796656
 10
2729.4173910053
 20
1764.5779105143
 10
2730.387421088
 20
1763.612771461
 10
2731.1082184657
 20
1762.5116522581
 10
2731.5520832992
 20
1761.3168682992
 10
2731.7019581121
 20
1760.0743344618
  0
ARC
  5
3D7
330
1F
100
AcDbEntity
  8
0
  6
Continuous
 62
     7
370
    15
100
AcDbCircle
 10
2728.408489317
 20
1760.1996906021
 30
0.0
 40
3.295853586863708
100
AcDbArc
 50
312.3828191457
 51
357.8202579654
  0
LWPOLYLINE
  5
3D8
330
1F
100
AcDbEntity
  8
0
  6
Continuous
 62
     7
370
    15
100
AcDbPolyline
 90
        9
 70
   128
 43
0.0
 10
2723.9019581121
 20
1888.1151142297
 10
2725.4236626238
 20
1887.9927353283
 10
2726.8868888845
 20
1887.6303015767
 10
2728.2354059296
 20
1887.0417411008
 10
2729.4173910053
 20
1886.2496719495
 10
2730.3874210881
 20
1885.2845328962
 10
2731.1082184657
 20
1884.1834136933
 10
2731.5520832992
 20
1882.9886297344
 10
2731.7019581121
 20
1881.746095897
  0
LINE
  5
3D9
330
1F
100
AcDbEntity
  8
0
  6
Continuous
 62
     7
370
    15
100
AcDbLine
 10
2731.7019581121
 20
1881.746095897
 30
0.0
 11
2731.7019581121
 21
1760.0743344618
 31
0.0
  0
LINE
  5
3DA
330
1F
100
AcDbEntity
  8
0
  6
Continuous
 62
     7
370
    15
100
AcDbLine
 10
2731.7019581121
 20
1760.0743344618
 30
0.0
 11
2731.7019581121
 21
1755.82832224
 31
0.0
  0
ARC
  5
3DB
330
1F
100
AcDbEntity
  8
0
  6
Continuous
 62
     7
370
    15
100
AcDbCircle
 10
2728.408489317
 20
1755.9536783803
 30
0.0
 40
3.295853586864585
100
AcDbArc
 50
312.3828191457
 51
357.8202579654
  0
LWPOLYLINE
  5
3DC
330
1F
100
AcDbEntity
  8
0
  6
Continuous
 62
     7
370
    15
100
AcDbPolyline
 90
       13
 70
   128
 43
0.0
 10
2615.9120780493
 20
1156.8899677528
 10
2618.4537297705
 20
1156.037805055
 10
2621.1729601777
 20
1155.3937228413
 10
2624.0189494607
 20
1154.9697583908
 10
2626.9385088079
 20
1154.7738351929
 10
2629.8770744532
 20
1154.8096148642
 10
2632.7797274215
 20
1155.0764287171
 10
2635.5922199108
 20
1155.5692902563
 10
2638.2619891323
 20
1156.2789883721
 10
2640.7391396581
 20
1157.1922594869
 10
2642.9773759194
 20
1158.292035439
 10
2644.9348674256
 20
1159.5577624699
 10
2646.5750305368
 20
1160.9657853546
  0
LWPOLYLINE
  5
3DD
330
1F
100
AcDbEntity
  8
0
  6
Continuous
 62
     7
370
    15
100
AcDbPolyline
 90
       21
 70
   128
 43
0.0
 10
2346.6121065608
 20
1312.3535321581
 10
2357.4946347505
 20
1303.2513087066
 10
2368.6760353255
 20
1294.2706156153
 10
2380.1522369595
 20
1285.4147228978
 10
2391.9190609845
 20
1276.6868551261
 10
2403.972222912
 20
1268.0901902558
 10
2416.3073339935
 20
1259.62785847
 10
2428.9199028183
 20
1251.3029410385
 10
2441.805336949
 20
1243.1184691966
 10
2454.9589445933
 20
1235.0774230411
 10
2468.3759363129
 20
1227.1827304452
 10
2482.0514267671
 20
1219.4372659923
 10
2495.9804364917
 20
1211.8438499296
 10
2510.1578937119
 20
1204.4052471411
 10
2524.5786361895
 20
1197.1241661407
 10
2539.2374131021
 20
1190.0032580861
 10
2554.1288869552
 20
1183.0451158136
 10
2569.2476355255
 20
1176.2522728938
 10
2584.5881538356
 20
1169.627202709
 10
2600.144856158
 20
1163.1723175531
 10
2615.9120780493
 20
1156.8899677528
  0
ARC
  5
3DE
330
1F
100
AcDbEntity
  8
0
  6
Continuous
 62
     7
370
    15
100
AcDbCircle
 10
2354.4987264286
 20
1319.7003910806
 30
0.0
 40
7.58658768887152
100
AcDbArc
 50
182.9795594292
 51
232.9304119035
  0
LWPOLYLINE
  5
3DF
330
1F
100
AcDbEntity
  8
0
  6
Continuous
 62
     7
370
    15
100
AcDbPolyline
 90
       21
 70
   128
 43
0.0
 10
2349.9256485451
 20
1313.6470224785
 10
2360.7648200488
 20
1304.5810628654
 10
2371.9016732112
 20
1295.6361494279
 10
2383.3321529263
 20
1286.8155391515
 10
2395.0520971743
 20
1278.1224437613
 10
2407.0572385363
 20
1269.560028552
 10
2419.343205749
 20
1261.1314112354
 10
2431.9055252957
 20
1252.8396608056
 10
2444.7396230353
 20
1244.6877964213
 10
2457.8408258683
 20
1236.6787863062
 10
2471.2043634377
 20
1228.8155466688
 10
2484.8253698661
 20
1221.1009406401
 10
2498.698885528
 20
1213.537777231
 10
2512.819858855
 20
1206.1288103102
 10
2527.1831481753
 20
1198.8767376006
 10
2541.7835235863
 20
1191.7841996977
 10
2556.6156688583
 20
1184.8537791075
 10
2571.6741833706
 20
1178.0879993069
 10
2586.9535840778
 20
1171.489323824
 10
2602.4483075065
 20
1165.0601553421
 10
2618.1527117806
 20
1158.8028348238
  0
LWPOLYLINE
  5
3E0
330
1F
100
AcDbEntity
  8
0
  6
Continuous
 62
     7
370
    15
100
AcDbPolyline
 90
       12
 70
   128
 43
0.0
 10
2618.1527117806
 20
1158.8028348238
 10
2620.4173413011
 20
1158.0543854292
 10
2622.8495807392
 20
1157.5086570907
 10
2625.3953494747
 20
1157.1777840275
 10
2627.9980425739
 20
1157.069123172
 10
2630.599789395
 20
1157.1850905881
 10
2633.1427403367
 20
1157.5231077511
 10
2635.5703531186
 20
1158.0756588804
 10
2637.8286499938
 20
1158.8304580525
 10
2639.8674179388
 20
1159.7707223772
 10
2641.6413251359
 20
1160.8755451636
 10
2643.1109289216
 20
1162.1203607788
  0
LINE
  5
3E1
330
1F
100
AcDbEntity
  8
0
  6
Continuous
 62
     7
370
    15
100
AcDbLine
 10
2643.1109289216
 20
1162.1203607788
 30
0.0
 11
2645.2524703437
 21
1164.2616701604
 31
0.0
  0
LINE
  5
3E2
330
1F
100
AcDbEntity
  8
0
  6
Continuous
 62
     7
370
    15
100
AcDbLine
 10
2645.2524703437
 20
1164.2616701604
 30
0.0
 11
2644.7439539345
 21
1164.5552304348
 31
0.0
  0
LINE
  5
3E3
330
1F
100
AcDbEntity
  8
0
  6
Continuous
 62
     7
370
    15
100
AcDbLine
 10
2645.4040830301
 20
1164.9905541314
 30
0.0
 11
2644.7439539345
 21
1165.3716385467
 31
0.0
  0
LINE
  5
3E4
330
1F
100
AcDbEntity
  8
0
  6
Continuous
 62
     7
370
    15
100
AcDbLine
 10
2646.9203330989
 20
1166.5066399113
 30
0.0
 11
2645.4040830301
 21
1164.9905541314
 31
0.0
  0
LWPOLYLINE
  5
3E5
330
1F
100
AcDbEntity
  8
0
  6
Continuous
 62
     7
370
    15
100
AcDbPolyline
 90
       14
 70
   128
 43
0.0
 10
2649.1731067481
 20
1157.6502313509
 10
2647.4611811922
 20
1156.1637706723
 10
2645.4385676019
 20
1154.8136261315
 10
2643.1374823009
 20
1153.6213029204
 10
2640.5945771285
 20
1152.6057924421
 10
2637.8503556472
 20
1151.7832698151
 10
2634.948527999
 20
1151.1668362343
 10
2631.9353146874
 20
1150.7663102948
 10
2628.8587103739
 20
1150.5880716003
 10
2625.7677194165
 20
1150.6349591485
 10
2622.7115753243
 20
1150.9062261116
 10
2619.7389565633
 20
1151.3975517312
 10
2616.8972112025
 20
1152.1011101403
 10
2614.2316027507
 20
1153.0056950139
  0
ARC
  5
3E6
330
1F
100
AcDbEntity
  8
0
  6
Continuous
 62
     7
370
    15
100
AcDbCircle
 10
2619.8648760099
 20
1152.8741927671
 30
0.0
 40
5.6348079339766
100
AcDbArc
 50
134.5471908652
 51
178.6627391878
  0
ARC
  5
3E7
330
1F
100
AcDbEntity
  8
0
  6
Continuous
 62
     7
370
    15
100
AcDbCircle
 10
2645.3740170852
 20
1157.3489618494
 30
0.0
 40
3.811016344648112
100
AcDbArc
 50
4.5340924027
 51
71.6305797063
  0
LWPOLYLINE
  5
3E8
330
1F
100
AcDbEntity
  8
0
  6
Continuous
 62
     7
370
    15
100
AcDbPolyline
 90
       21
 70
   128
 43
0.0
 10
2614.2316027507
 20
1153.0056950139
 10
2598.4172676467
 20
1159.3068167758
 10
2582.814081154
 20
1165.7809894371
 10
2567.4277246418
 20
1172.4258556483
 10
2552.2638005279
 20
1179.2389959076
 10
2537.327830239
 20
1186.2179294418
 10
2522.6252522002
 20
1193.3601151101
 10
2508.1614198546
 20
1200.6629523287
 10
2493.9415997144
 20
1208.1237820179
 10
2479.9709694428
 20
1215.7398875708
 10
2466.2546159693
 20
1223.5084958418
 10
2452.797533637
 20
1231.4267781567
 10
2439.6046223842
 20
1239.4918513425
 10
2426.6806859604
 20
1247.7007787775
 10
2414.0304301769
 20
1256.0505714603
 10
2401.6584611937
 20
1264.5381890981
 10
2389.5692838421
 20
1273.1605412139
 10
2377.7672999845
 20
1281.9144882719
 10
2366.2568069113
 20
1290.7968428202
 10
2355.0419957768
 20
1299.8043706518
 10
2344.1269500725
 20
1308.9337919821
  0
ARC
  5
3E9
330
1F
100
AcDbEntity
  8
0
  6
Continuous
 62
     7
370
    15
100
AcDbCircle
 10
2348.1077916159
 20
1308.653741066
 30
0.0
 40
3.990680131128146
100
AcDbArc
 50
112.0116136596
 51
175.9758902319
  0
LWPOLYLINE
  5
3EA
330
1F
100
AcDbEntity
  8
0
  6
Continuous
 62
     7
370
    15
100
AcDbPolyline
 90
       14
 70
   128
 43
0.0
 10
2614.2316027507
 20
1149.3312613604
 10
2616.8972112025
 20
1148.4266764868
 10
2619.7389565633
 20
1147.7231180777
 10
2622.7115753243
 20
1147.2317924581
 10
2625.7677194165
 20
1146.960525495
 10
2628.8587103739
 20
1146.9136379468
 10
2631.9353146874
 20
1147.0918766413
 10
2634.948527999
 20
1147.4924025809
 10
2637.8503556472
 20
1148.1088361616
 10
2640.5945771285
 20
1148.9313587887
 10
2643.1374823009
 20
1149.9468692669
 10
2645.4385676019
 20
1151.1391924781
 10
2647.4611811922
 20
1152.4893370188
 10
2649.1731067481
 20
1153.9757976974
  0
LINE
  5
3EB
330
1F
100
AcDbEntity
  8
0
  6
Continuous
 62
     7
370
    15
100
AcDbLine
 10
2614.2316027507
 20
1149.3312613604
 30
0.0
 11
2614.2316027507
 21
1153.0056950139
 31
0.0
  0
LINE
  5
3EC
330
1F
100
AcDbEntity
  8
0
  6
Continuous
 62
     7
370
    15
100
AcDbLine
 10
2649.1731067481
 20
1153.9757976974
 30
0.0
 11
2649.1731067481
 21
1157.6502313509
 31
0.0
  0
LWPOLYLINE
  5
3ED
330
1F
100
AcDbEntity
  8
0
  6
Continuous
 62
     7
370
    15
100
AcDbPolyline
 90
       21
 70
   128
 43
0.0
 10
2344.1269500725
 20
1305.2593583287
 10
2355.0419957768
 20
1296.1299369983
 10
2366.2568069113
 20
1287.1224091667
 10
2377.7672999845
 20
1278.2400546184
 10
2389.5692838421
 20
1269.4861075605
 10
2401.6584611937
 20
1260.8637554446
 10
2414.0304301769
 20
1252.3761378068
 10
2426.6806859604
 20
1244.026345124
 10
2439.6046223842
 20
1235.817417689
 10
2452.797533637
 20
1227.7523445032
 10
2466.2546159693
 20
1219.8340621883
 10
2479.9709694428
 20
1212.0654539173
 10
2493.9415997144
 20
1204.4493483645
 10
2508.1614198546
 20
1196.9885186752
 10
2522.6252522002
 20
1189.6856814566
 10
2537.327830239
 20
1182.5434957884
 10
2552.2638005279
 20
1175.5645622541
 10
2567.4277246418
 20
1168.7514219948
 10
2582.814081154
 20
1162.1065557836
 10
2598.4172676467
 20
1155.6323831223
 10
2614.2316027507
 20
1149.3312613604
  0
LINE
  5
3EE
330
1F
100
AcDbEntity
  8
0
  6
Continuous
 62
     7
370
    15
100
AcDbLine
 10
2344.1269500725
 20
1305.2593583287
 30
0.0
 11
2344.1269500725
 21
1308.9337919821
 31
0.0
  0
LINE
  5
3EF
330
1F
100
AcDbEntity
  8
0
  6
Continuous
 62
     7
370
    15
100
AcDbLine
 10
2730.6301613424
 20
1239.0984599036
 30
0.0
 11
2649.1731067481
 21
1157.6502313509
 31
0.0
  0
LINE
  5
3F0
330
1F
100
AcDbEntity
  8
0
  6
Continuous
 62
     7
370
    15
100
AcDbLine
 10
2649.1731067481
 20
1153.9757976974
 30
0.0
 11
2730.6301613424
 21
1235.4240262501
 31
0.0
  0
LINE
  5
3F1
330
1F
100
AcDbEntity
  8
0
  6
Continuous
 62
     7
370
    15
100
AcDbLine
 10
2730.6301613424
 20
1235.4240262501
 30
0.0
 11
2730.6301613424
 21
1239.0984599036
 31
0.0
  0
ARC
  5
3F2
330
1F
100
AcDbEntity
  8
0
  6
Continuous
 62
     7
370
    15
100
AcDbCircle
 10
2728.408489317
 20
1241.5329668922
 30
0.0
 40
3.295853586864657
100
AcDbArc
 50
312.3828191457
 51
357.8202579654
  0
ARC
  5
3F3
330
1F
100
AcDbEntity
  8
0
  6
Continuous
 62
     7
370
    15
100
AcDbCircle
 10
2728.408489317
 20
1237.8585332388
 30
0.0
 40
3.295853586864825
100
AcDbArc
 50
312.3828191457
 51
357.8202579653
  0
LINE
  5
3F4
330
1F
100
AcDbEntity
  8
0
  6
Continuous
 62
     7
370
    15
100
AcDbLine
 10
2731.7019581121
 20
1237.7331770984
 30
0.0
 11
2731.7019581121
 21
1241.4076107519
 31
0.0
  0
LINE
  5
3F5
330
1F
100
AcDbEntity
  8
0
  6
Continuous
 62
     7
370
    15
100
AcDbLine
 10
2731.7019581121
 20
1245.4903148114
 30
0.0
 11
2731.7019581121
 21
1241.4076107519
 31
0.0
  0
LINE
  5
3F6
330
1F
100
AcDbEntity
  8
0
  6
Continuous
 62
     8
370
    15
100
AcDbLine
 10
2349.9256485451
 20
1817.8851774449
 30
0.0
 11
2349.9256485451
 21
1313.6470224785
 31
0.0
  0
LINE
  5
3F7
330
1F
100
AcDbEntity
  8
0
  6
Continuous
 62
     8
370
    15
100
AcDbLine
 10
2618.1527117806
 20
1665.3886642655
 30
0.0
 11
2618.1527117806
 21
1158.8028348238
 31
0.0
  0
LINE
  5
3F8
330
1F
100
AcDbEntity
  8
0
  6
Continuous
 62
     8
370
    15
100
AcDbLine
 10
2643.1109289216
 20
1667.3368413871
 30
0.0
 11
2643.1109289216
 21
1162.1203607788
 31
0.0
  0
LINE
  5
3F9
330
1F
100
AcDbEntity
  8
0
  6
Continuous
 62
     8
370
    15
100
AcDbLine
 10
2644.4711012718
 20
1668.0059156086
 30
0.0
 11
2644.4711012718
 21
1163.4803857515
 31
0.0
  0
LINE
  5
3FA
330
1F
100
AcDbEntity
  8
0
  6
Continuous
 62
     8
370
    15
100
AcDbLine
 10
2734.1270373889
 20
1752.3907693656
 30
0.0
 11
2734.1270373889
 21
1752.4057587887
 31
0.0
  0
LINE
  5
3FB
330
1F
100
AcDbEntity
  8
0
  6
Continuous
 62
     8
370
    15
100
AcDbLine
 10
2734.1270373889
 20
1736.3669389877
 30
0.0
 11
2734.1270373889
 21
1752.3907693656
 31
0.0
  0
LINE
  5
3FC
330
1F
100
AcDbEntity
  8
0
  6
Continuous
 62
     8
370
    15
100
AcDbLine
 10
2734.1270373889
 20
1844.2087831074
 30
0.0
 11
2734.1270373889
 21
1844.2237725304
 31
0.0
  0
LINE
  5
3FD
330
1F
100
AcDbEntity
  8
0
  6
Continuous
 62
     8
370
    15
100
AcDbLine
 10
2734.1270373889
 20
1828.1849527294
 30
0.0
 11
2734.1270373889
 21
1844.2087831074
 31
0.0
  0
LINE
  5
3FE
330
1F
100
AcDbEntity
  8
0
  6
Continuous
 62
     8
370
    15
100
AcDbLine
 10
2734.1270373889
 20
1384.0177998161
 30
0.0
 11
2734.1270373889
 21
1384.0327892391
 31
0.0
  0
LINE
  5
3FF
330
1F
100
AcDbEntity
  8
0
  6
Continuous
 62
     8
370
    15
100
AcDbLine
 10
2734.1270373889
 20
1367.9939694382
 30
0.0
 11
2734.1270373889
 21
1384.0177998161
 31
0.0
  0
LINE
  5
400
330
1F
100
AcDbEntity
  8
0
  6
Continuous
 62
     8
370
    15
100
AcDbLine
 10
2734.1270373888
 20
1292.6782922739
 30
0.0
 11
2734.1270373888
 21
1292.693281697
 31
0.0
  0
LINE
  5
401
330
1F
100
AcDbEntity
  8
0
  6
Continuous
 62
     8
370
    15
100
AcDbLine
 10
2734.1270373888
 20
1276.654461896
 30
0.0
 11
2734.1270373888
 21
1292.6782922739
 31
0.0
  0
LWPOLYLINE
  5
402
330
1F
100
AcDbEntity
  8
0
  6
Continuous
 62
     8
370
    15
100
AcDbPolyline
 90
       12
 70
   128
 43
0.0
 10
2663.8989494837
 20
1739.4833742735
 10
2665.0515310033
 20
1738.9728170342
 10
2666.3937406108
 20
1738.6518673364
 10
2667.8341089396
 20
1738.5423973713
 10
2669.2744772685
 20
1738.6518673364
 10
2670.616686876
 20
1738.9728170342
 10
2671.7692683956
 20
1739.4833742735
 10
2672.6536753014
 20
1740.1487454219
 10
2673.2096367244
 20
1740.9235865354
 10
2673.3992648123
 20
1741.7550934725
 10
2673.2096367244
 20
1742.5866004096
 10
2673.1473333015
 20
1742.7107804678
  0
ARC
  5
403
330
1F
100
AcDbEntity
  8
0
  6
Continuous
 62
     8
370
    15
100
AcDbCircle
 10
2665.1514944984
 20
1742.14933062
 30
0.0
 40
2.945537685287576
100
AcDbArc
 50
194.7913136848
 51
244.8344760565
  0
LWPOLYLINE
  5
404
330
1F
100
AcDbEntity
  8
0
  6
Continuous
 62
     8
370
    15
100
AcDbPolyline
 90
       12
 70
   128
 43
0.0
 10
2450.5590391864
 20
1862.6418829855
 10
2451.711620706
 20
1862.1313257463
 10
2453.0538303135
 20
1861.8103760484
 10
2454.4941986423
 20
1861.7009060834
 10
2455.9345669711
 20
1861.8103760484
 10
2457.2767765787
 20
1862.1313257463
 10
2458.4293580983
 20
1862.6418829855
 10
2459.3137650041
 20
1863.307254134
 10
2459.8697264271
 20
1864.0820952474
 10
2460.059354515
 20
1864.9136021845
 10
2459.8697264271
 20
1865.7451091216
 10
2459.8074230042
 20
1865.8692891798
  0
ARC
  5
405
330
1F
100
AcDbEntity
  8
0
  6
Continuous
 62
     8
370
    15
100
AcDbCircle
 10
2451.8115842011
 20
1865.3078393321
 30
0.0
 40
2.945537685284345
100
AcDbArc
 50
194.7913136848
 51
244.8344760566
  0
LWPOLYLINE
  5
406
330
1F
100
AcDbEntity
  8
0
  6
Continuous
 62
     8
370
    15
100
AcDbPolyline
 90
       12
 70
   128
 43
0.0
 10
2680.5227294341
 20
1886.4554949456
 10
2681.6753109537
 20
1885.9449377064
 10
2683.0175205612
 20
1885.6239880085
 10
2684.45788889
 20
1885.5145180435
 10
2685.8982572188
 20
1885.6239880085
 10
2687.2404668263
 20
1885.9449377064
 10
2688.3930483459
 20
1886.4554949456
 10
2689.2774552517
 20
1887.120866094
 10
2689.8334166747
 20
1887.8957072075
 10
2690.0230447626
 20
1888.7272141446
 10
2689.8334166747
 20
1889.5587210817
 10
2689.7711132518
 20
1889.6829011399
  0
ARC
  5
407
330
1F
100
AcDbEntity
  8
0
  6
Continuous
 62
     8
370
    15
100
AcDbCircle
 10
2681.7752744487
 20
1889.1214512922
 30
0.0
 40
2.945537685284333
100
AcDbArc
 50
194.7913136848
 51
244.8344760566
  0
LWPOLYLINE
  5
408
330
1F
100
AcDbEntity
  8
0
  6
Continuous
 62
     8
370
    15
100
AcDbPolyline
 90
        7
 70
   128
 43
0.0
 10
2695.461231714
 20
1701.5903729854
 10
2695.3624621366
 20
1700.3163630823
 10
2695.4533177848
 20
1699.2302563696
 10
2695.7276069964
 20
1698.4060692248
 10
2696.1666374148
 20
1697.8999686397
 10
2696.7404898427
 20
1697.746444533
 10
2696.8061488621
 20
1697.751337135
  0
LWPOLYLINE
  5
409
330
1F
100
AcDbEntity
  8
0
  6
Continuous
 62
     8
370
    15
100
AcDbPolyline
 90
        9
 70
   128
 43
0.0
 10
2699.6519884315
 20
1708.400514016
 10
2699.5495063015
 20
1708.4008156569
 10
2698.8799389589
 20
1708.1913008712
 10
2698.1602866094
 20
1707.6330252794
 10
2697.4395923713
 20
1706.7640344406
 10
2696.766970366
 20
1705.6435486443
 10
2696.1882586716
 20
1704.3479271458
 10
2695.7428955337
 20
1702.9654644092
 10
2695.461231714
 20
1701.5903729854
  0
LWPOLYLINE
  5
40A
330
1F
100
AcDbEntity
  8
0
  6
Continuous
 62
     8
370
    15
100
AcDbPolyline
 90
        6
 70
   128
 43
0.0
 10
2695.4024027531
 20
1235.6706364458
 10
2695.3742064734
 20
1234.4570690337
 10
2695.5348350622
 20
1233.4607788809
 10
2695.8733419466
 20
1232.7496615148
 10
2696.3666584418
 20
1232.3721784088
 10
2696.5504161967
 20
1232.3269417441
  0
LWPOLYLINE
  5
40B
330
1F
100
AcDbEntity
  8
0
  6
Continuous
 62
     8
370
    15
100
AcDbPolyline
 90
        9
 70
   128
 43
0.0
 10
2699.4169554035
 20
1242.9588129488
 10
2699.3088303001
 20
1242.9366802273
 10
2698.6150096549
 20
1242.594209993
 10
2697.889158497
 20
1241.9144843089
 10
2697.1807423834
 20
1240.943825357
 10
2696.5380387014
 20
1239.7483819409
 10
2696.0048466449
 20
1238.4096215538
 10
2695.6175023715
 20
1237.0187785036
 10
2695.4024027531
 20
1235.6706364458
  0
LWPOLYLINE
  5
40C
330
1F
100
AcDbEntity
  8
0
  6
Continuous
 62
     8
370
    15
100
AcDbPolyline
 90
       12
 70
   128
 43
0.0
 10
2550.0006973806
 20
1796.8898216183
 10
2551.1532789002
 20
1796.3792643791
 10
2552.4954885077
 20
1796.0583146813
 10
2553.9358568365
 20
1795.9488447162
 10
2555.3762251653
 20
1796.0583146813
 10
2556.7184347728
 20
1796.3792643791
 10
2557.8710162924
 20
1796.8898216183
 10
2558.7554231982
 20
1797.5551927668
 10
2559.3113846212
 20
1798.3300338802
 10
2559.5010127091
 20
1799.1615408173
 10
2559.3113846212
 20
1799.9930477544
 10
2559.2490811983
 20
1800.1172278127
  0
ARC
  5
40D
330
1F
100
AcDbEntity
  8
0
  6
Continuous
 62
     8
370
    15
100
AcDbCircle
 10
2551.2532423952
 20
1799.5557779649
 30
0.0
 40
2.945537685281551
100
AcDbArc
 50
194.7913136848
 51
244.8344760566
  0
LINE
  5
40E
330
1F
100
AcDbEntity
  8
0
  6
Continuous
 62
     8
370
    15
100
AcDbLine
 10
2704.4036969164
 20
1486.9256101877
 30
0.0
 11
2706.5945402254
 21
1486.1954082122
 31
0.0
  0
ARC
  5
40F
330
1F
100
AcDbEntity
  8
0
  6
Continuous
 62
     8
370
    15
100
AcDbCircle
 10
2730.1629579966
 20
1752.5082679322
 30
0.0
 40
1.539943376162426
100
AcDbArc
 50
2.0055028966
 51
52.9948670259
  0
LINE
  5
410
330
1F
100
AcDbEntity
  8
0
  6
Continuous
 62
     8
370
    15
100
AcDbLine
 10
2646.2868665941
 20
1168.5636380869
 30
0.0
 11
2646.2868665941
 21
1669.129064048
 31
0.0
  0
ARC
  5
411
330
1F
100
AcDbEntity
  8
0
  6
Continuous
 62
     8
370
    15
100
AcDbCircle
 10
2650.2844672498
 20
1673.042218988
 30
0.0
 40
3.076821907844065
100
AcDbArc
 50
2.6758151233
 51
39.9976844859
  0
ELLIPSE
  5
412
330
1F
100
AcDbEntity
  8
0
  6
Continuous
 62
     8
370
    15
100
AcDbEllipse
 10
2649.8224005001
 20
1672.7772576762
 30
0.0
 11
4.986160681451111
 21
1.813173165273156
 31
0.0
210
0.0
220
0.0
230
1.0
 40
0.2050299685
 41
4.465431977819039
 42
5.423367502584036
  0
ARC
  5
413
330
1F
100
AcDbEntity
  8
0
  6
Continuous
 62
     8
370
    15
100
AcDbCircle
 10
2651.7369684408
 20
1673.6319174216
 30
0.0
 40
2.420320582639096
100
AcDbArc
 50
3.5945497992
 51
53.1176701386
  0
ARC
  5
414
330
1F
100
AcDbEntity
  8
0
  6
Continuous
 62
     8
370
    15
100
AcDbCircle
 10
2728.2146022642
 20
1750.1012647341
 30
0.0
 40
2.420320582648829
100
AcDbArc
 50
3.5945497993
 51
53.1176701385
  0
ARC
  5
415
330
1F
100
AcDbEntity
  8
0
  6
Continuous
 62
     8
370
    15
100
AcDbCircle
 10
2664.4481953511
 20
1433.3360749961
 30
0.0
 40
7.994297230592178
100
AcDbArc
 50
345.2903462335
 51
56.8575523783
  0
ARC
  5
416
330
1F
100
AcDbEntity
  8
0
  6
Continuous
 62
     8
370
    15
100
AcDbCircle
 10
2672.3979747155
 20
1463.4018027722
 30
0.0
 40
5.008736667961322
100
AcDbArc
 50
310.7793992953
 51
358.1437588591
  0
ARC
  5
417
330
1F
100
AcDbEntity
  8
0
  6
Continuous
 62
     8
370
    15
100
AcDbCircle
 10
2711.8162613969
 20
1500.8149138364
 30
0.0
 40
3.612382726373242
100
AcDbArc
 50
321.5958359069
 51
6.6851471943
  0
LWPOLYLINE
  5
418
330
1F
100
AcDbEntity
  8
0
  6
Continuous
 62
     8
370
    15
100
AcDbPolyline
 90
       17
 70
   128
 43
0.0
 10
2668.6438983644
 20
1440.7929088566
 10
2670.098736096
 20
1441.0756876747
 10
2672.7805845535
 20
1441.8574361204
 10
2675.5303206229
 20
1442.9864206556
 10
2678.3370457955
 20
1444.4581665789
 10
2681.1896356875
 20
1446.2668406628
 10
2684.0767841316
 20
1448.4052742739
 10
2686.9870479885
 20
1450.8649917848
 10
2689.9088925017
 20
1453.636244168
 10
2692.830737015
 20
1456.7080476354
 10
2695.7410008719
 20
1460.0682271721
 10
2698.628149316
 20
1463.7034647922
 10
2701.480739208
 20
1467.599352324
 10
2704.2874643806
 20
1471.7404485168
 10
2707.03720045
 20
1476.1103402411
 10
2709.7190489074
 20
1480.6917075427
 10
2712.322380315
 20
1485.466392289
  0
LWPOLYLINE
  5
419
330
1F
100
AcDbEntity
  8
0
  6
Continuous
 62
     8
370
    15
100
AcDbPolyline
 90
        9
 70
   128
 43
0.0
 10
2712.322380315
 20
1485.466392289
 10
2713.1312504185
 20
1487.1828321184
 10
2713.8159723406
 20
1489.0156813837
 10
2714.3501657152
 20
1490.8943256747
 10
2714.7132496082
 20
1492.7463862309
 10
2714.8912354416
 20
1494.5005084864
 10
2714.8772659333
 20
1496.0891111565
 10
2714.6718792881
 20
1497.45098995
 10
2714.3956880416
 20
1498.294037863
  0
ARC
  5
41A
330
1F
100
AcDbEntity
  8
0
  6
Continuous
 62
     8
370
    15
100
AcDbCircle
 10
2652.3824441583
 20
1166.0049400251
 30
0.0
 40
0.9815695164103017
100
AcDbArc
 50
304.1192506855
 51
6.3800953841
  0
ELLIPSE
  5
41B
330
1F
100
AcDbEntity
  8
0
  6
Continuous
 62
     8
370
    15
100
AcDbEllipse
 10
2649.8224005001
 20
1170.6046583664
 30
0.0
 11
-1.387035206244946
 21
5.604458293426205
 31
0.0
210
0.0
220
0.0
230
1.0
 40
0.6928055263
 41
1.76811856018528
 42
2.55200648223238
  0
ARC
  5
41C
330
1F
100
AcDbEntity
  8
0
  6
Continuous
 62
     8
370
    15
100
AcDbCircle
 10
2653.0130890248
 20
1166.6657441425
 30
0.0
 40
1.140369570787481
100
AcDbArc
 50
316.0521636945
 51
2.3154589442
  0
ARC
  5
41D
330
1F
100
AcDbEntity
  8
0
  6
Continuous
 62
     8
370
    15
100
AcDbCircle
 10
2729.4906176283
 20
1243.1351134055
 30
0.0
 40
1.140473818239297
100
AcDbArc
 50
316.0898698178
 51
2.3141435188
  0
ARC
  5
41E
330
1F
100
AcDbEntity
  8
0
  6
Continuous
 62
     8
370
    15
100
AcDbCircle
 10
2615.1212397341
 20
1667.2734599554
 30
0.0
 40
0.9026885444150814
100
AcDbArc
 50
170.2450609697
 51
236.5912871014
  0
ARC
  5
41F
330
1F
100
AcDbEntity
  8
0
  6
Continuous
 62
     8
370
    15
100
AcDbCircle
 10
2648.0336347552
 20
1672.024877319
 30
0.0
 40
1.140402759911347
100
AcDbArc
 50
316.0641729876
 51
2.3150401408
  0
ARC
  5
420
330
1F
100
AcDbEntity
  8
0
  6
Continuous
 62
     8
370
    15
100
AcDbCircle
 10
2345.2281236521
 20
1823.2951128141
 30
0.0
 40
1.10277400331996
100
AcDbArc
 50
176.9128026006
 51
227.6805246833
  0
ARC
  5
421
330
1F
100
AcDbEntity
  8
0
  6
Continuous
 62
     8
370
    15
100
AcDbCircle
 10
2729.4906176283
 20
1753.4731208341
 30
0.0
 40
1.140473818237961
100
AcDbArc
 50
316.0898698178
 51
2.3141435188
  0
ARC
  5
422
330
1F
100
AcDbEntity
  8
0
  6
Continuous
 62
     8
370
    15
100
AcDbCircle
 10
2354.0187282707
 20
1848.7934776697
 30
0.0
 40
2.512690259537152
100
AcDbArc
 50
35.1828111597
 51
99.4527483583
  0
ARC
  5
423
330
1F
100
AcDbEntity
  8
0
  6
Continuous
 62
     8
370
    15
100
AcDbCircle
 10
2628.7258302226
 20
1940.3525899582
 30
0.0
 40
2.51269025953807
100
AcDbArc
 50
35.1828111597
 51
99.4527483582
  0
ARC
  5
424
330
1F
100
AcDbEntity
  8
0
  6
Continuous
 62
     8
370
    15
100
AcDbCircle
 10
2350.405932896
 20
1836.0114685745
 30
0.0
 40
10.49617805155887
100
AcDbArc
 50
182.8173193383
 51
233.2577573801
  0
ARC
  5
425
330
1F
100
AcDbEntity
  8
0
  6
Continuous
 62
     8
370
    15
100
AcDbCircle
 10
2350.5789787498
 20
1831.8556058301
 30
0.0
 40
10.67227320612783
100
AcDbArc
 50
183.1071523111
 51
232.8028190215
  0
ARC
  5
426
330
1F
100
AcDbEntity
  8
0
  6
Continuous
 62
     8
370
    15
100
AcDbCircle
 10
2726.1068485549
 20
1885.2208775479
 30
0.0
 40
3.738868700361385
100
AcDbArc
 50
64.0094121203
 51
127.2568219455
  0
ARC
  5
427
330
1F
100
AcDbEntity
  8
0
  6
Continuous
 62
     8
370
    15
100
AcDbCircle
 10
2633.3056944624
 20
1938.592747065
 30
0.0
 40
3.923222440034292
100
AcDbArc
 50
65.6928809539
 51
125.6175774752
  0
LINE
  5
428
330
1F
100
AcDbEntity
  8
0
  6
Continuous
 62
     8
370
    15
100
AcDbLine
 10
2646.5750305368
 20
1160.9657853546
 30
0.0
 11
2650.4344461415
 21
1164.8247827836
 31
0.0
  0
LWPOLYLINE
  5
429
330
1F
100
AcDbEntity
  8
0
  6
Continuous
 62
     8
370
    15
100
AcDbPolyline
 90
       10
 70
   128
 43
0.0
 10
2346.9223947265
 20
1326.5163638432
 10
2345.5537445552
 20
1325.2558611925
 10
2344.3243781562
 20
1323.7146362268
 10
2343.4706244232
 20
1322.0910188724
 10
2343.0084391952
 20
1320.4153529814
 10
2342.946460271
 20
1318.7189551432
 10
2343.2858459774
 20
1317.0335294074
 10
2344.0202535207
 20
1315.3905747656
 10
2345.135957528
 20
1313.8207964652
 10
2346.6121065608
 20
1312.3535321581
  0
ARC
  5
42A
330
1F
100
AcDbEntity
  8
0
  6
Continuous
 62
     8
370
    15
100
AcDbCircle
 10
2617.5677182164
 20
1148.7577079715
 30
0.0
 40
3.385059805980963
100
AcDbArc
 50
170.2449303226
 51
236.592075724
  0
ARC
  5
42B
330
1F
100
AcDbEntity
  8
0
  6
Continuous
 62
     8
370
    15
100
AcDbCircle
 10
2644.9001659492
 20
1153.8030354812
 30
0.0
 40
4.27643190695145
100
AcDbArc
 50
316.0566044358
 51
2.315304098
  0
ARC
  5
42C
330
1F
100
AcDbEntity
  8
0
  6
Continuous
 62
     8
370
    15
100
AcDbCircle
 10
2348.2564489936
 20
1305.0366633144
 30
0.0
 40
4.135499293758021
100
AcDbArc
 50
176.9131516637
 51
227.6729105301
  0
ARC
  5
42D
330
1F
100
AcDbEntity
  8
0
  6
Continuous
 62
     8
370
    15
100
AcDbCircle
 10
2727.1008196977
 20
1238.9013342233
 30
0.0
 40
3.534842426258491
100
AcDbArc
 50
3.196841745
 51
47.654141901
  0
ARC
  5
42E
330
1F
100
AcDbEntity
  8
0
  6
Continuous
 62
     8
370
    15
100
AcDbCircle
 10
2726.3568724147
 20
1235.2513366594
 30
0.0
 40
4.276776818406161
100
AcDbArc
 50
316.0898698179
 51
2.3141435187
  0
ARC
  5
42F
330
1F
100
AcDbEntity
  8
0
  6
Continuous
 62
     8
370
    15
100
AcDbCircle
 10
2729.4686852213
 20
1241.3591055978
 30
0.0
 40
2.233799578033578
100
AcDbArc
 50
1.2442293793
 51
49.644263303
  0
ARC
  5
430
330
1F
100
AcDbEntity
  8
0
  6
Continuous
 62
     8
370
    15
100
AcDbCircle
 10
2350.3936962052
 20
1317.334771638
 30
0.0
 40
10.48086667549212
100
AcDbArc
 50
182.4548256239
 51
233.2787470116
  0
ARC
  5
431
330
1F
100
AcDbEntity
  8
0
  6
Continuous
 62
     8
370
    15
100
AcDbCircle
 10
2350.5789787498
 20
1313.7604606886
 30
0.0
 40
10.67227320613018
100
AcDbArc
 50
183.1071523111
 51
232.8028190215
  0
ENDSEC
  0
SECTION
  2
OBJECTS
  0
DICTIONARY
  5
C
330
0
100
AcDbDictionary
281
     1
  3
ACAD_GROUP
350
D
  3
ACAD_LAYOUT
350
1A
  3
ACAD_MATERIAL
350
3B
  3
ACAD_MLEADERSTYLE
350
433
  3
ACAD_MLINESTYLE
350
17
  3
ACAD_PLOTSETTINGS
350
19
  3
ACAD_PLOTSTYLENAME
350
E
  3
ACAD_TABLESTYLE
350
432
  0
DICTIONARY
  5
D
102
{ACAD_REACTORS
330
C
102
}
330
C
100
AcDbDictionary
281
     1
  0
DICTIONARY
  5
1A
102
{ACAD_REACTORS
330
C
102
}
330
C
100
AcDbDictionary
281
     1
  3
Layout1
350
1E
  3
Layout2
350
26
  3
Model
350
22
  0
DICTIONARY
  5
3B
102
{ACAD_REACTORS
330
C
102
}
330
C
100
AcDbDictionary
281
     1
  3
ByBlock
350
3D
  3
ByLayer
350
3C
  3
Global
350
3E
  0
DICTIONARY
  5
433
102
{ACAD_REACTORS
330
C
102
}
330
C
100
AcDbDictionary
281
     1
  0
DICTIONARY
  5
17
102
{ACAD_REACTORS
330
C
102
}
330
C
100
AcDbDictionary
281
     1
  3
Standard
350
18
  0
DICTIONARY
  5
19
102
{ACAD_REACTORS
330
C
102
}
330
C
100
AcDbDictionary
281
     1
  0
ACDBDICTIONARYWDFLT
  5
E
102
{ACAD_REACTORS
330
C
102
}
330
C
100
AcDbDictionary
281
     1
  3
Normal
350
F
100
AcDbDictionaryWithDefault
340
F
  0
DICTIONARY
  5
432
102
{ACAD_REACTORS
330
C
102
}
330
C
100
AcDbDictionary
281
     1
  0
LAYOUT
  5
1E
102
{ACAD_REACTORS
330
1A
102
}
330
1A
100
AcDbPlotSettings
  1

  2
none_device
  4

  6

 40
0.0
 41
0.0
 42
0.0
 43
0.0
 44
0.0
 45
0.0
 46
0.0
 47
0.0
 48
0.0
 49
0.0
140
0.0
141
0.0
142
1.0
143
1.0
 70
   688
 72
     0
 73
     0
 74
     5
  7

 75
    16
 76
     0
 77
     2
 78
   300
147
1.0
148
0.0
149
0.0
100
AcDbLayout
  1
Layout1
 70
     1
 71
     1
 10
0.0
 20
0.0
 11
420.0
 21
297.0
 12
0.0
 22
0.0
 32
0.0
 14
1.0000000000E+20
 24
1.0000000000E+20
 34
1.0000000000E+20
 15
-1.0000000000E+20
 25
-1.0000000000E+20
 35
-1.0000000000E+20
146
0.0
 13
0.0
 23
0.0
 33
0.0
 16
1.0
 26
0.0
 36
0.0
 17
0.0
 27
1.0
 37
0.0
 76
     0
330
1B
  0
LAYOUT
  5
26
102
{ACAD_REACTORS
330
1A
102
}
330
1A
100
AcDbPlotSettings
  1

  2
none_device
  4

  6

 40
0.0
 41
0.0
 42
0.0
 43
0.0
 44
0.0
 45
0.0
 46
0.0
 47
0.0
 48
0.0
 49
0.0
140
0.0
141
0.0
142
1.0
143
1.0
 70
   688
 72
     0
 73
     0
 74
     5
  7

 75
    16
 76
     0
 77
     2
 78
   300
147
1.0
148
0.0
149
0.0
100
AcDbLayout
  1
Layout2
 70
     1
 71
     2
 10
0.0
 20
0.0
 11
0.0
 21
0.0
 12
0.0
 22
0.0
 32
0.0
 14
0.0
 24
0.0
 34
0.0
 15
0.0
 25
0.0
 35
0.0
146
0.0
 13
0.0
 23
0.0
 33
0.0
 16
1.0
 26
0.0
 36
0.0
 17
0.0
 27
1.0
 37
0.0
 76
     0
330
23
  0
LAYOUT
  5
22
102
{ACAD_REACTORS
330
1A
102
}
330
1A
100
AcDbPlotSettings
  1

  2
none_device
  4

  6

 40
0.0
 41
0.0
 42
0.0
 43
0.0
 44
0.0
 45
0.0
 46
0.0
 47
0.0
 48
0.0
 49
0.0
140
0.0
141
0.0
142
1.0
143
1.0
 70
  1712
 72
     0
 73
     0
 74
     0
  7

 75
     0
 76
     0
 77
     2
 78
   300
147
1.0
148
0.0
149
0.0
100
AcDbLayout
  1
Model
 70
     1
 71
     0
 10
0.0
 20
0.0
 11
2970.0
 21
2100.0
 12
0.0
 22
0.0
 32
0.0
 14
0.0
 24
0.0
 34
0.0
 15
2970.0
 25
2100.0
 35
0.0
146
0.0
 13
0.0
 23
0.0
 33
0.0
 16
1.0
 26
0.0
 36
0.0
 17
0.0
 27
1.0
 37
0.0
 76
     0
330
1F
331
29
  0
MATERIAL
  5
3D
102
{ACAD_REACTORS
330
3B
102
}
330
3B
100
AcDbMaterial
  1
ByBlock
  0
MATERIAL
  5
3C
102
{ACAD_REACTORS
330
3B
102
}
330
3B
100
AcDbMaterial
  1
ByLayer
  0
MATERIAL
  5
3E
102
{ACAD_REACTORS
330
3B
102
}
330
3B
100
AcDbMaterial
  1
Global
  0
MLINESTYLE
  5
18
102
{ACAD_REACTORS
330
17
102
}
330
17
100
AcDbMlineStyle
  2
Standard
 70
     0
  3

 62
   256
 51
90.0
 52
90.0
 71
     2
 49
0.5
 62
   256
  6
BYLAYER
 49
-0.5
 62
   256
  6
BYLAYER
  0
ACDBPLACEHOLDER
  5
F
102
{ACAD_REACTORS
330
E
102
}
330
E
  0
ENDSEC
  0
EOF
