  0
SECTION
  2
HEADER
  9
$ACADVER
  1
AC1018
  9
$ACADMAINTVER
 70
     0
  9
$DWGCODEPAGE
  3
ANSI_1252
  9
$INSBASE
 10
0.0
 20
0.0
 30
0.0
  9
$EXTMIN
 10
0.0
 20
0.0
 30
0.0
  9
$EXTMAX
 10
3564.0
 20
2520.0
 30
0.0
  9
$LIMMIN
 10
0.0
 20
0.0
  9
$LIMMAX
 10
3564.0
 20
2520.0
  9
$ORTHOMODE
 70
     0
  9
$REGENMODE
 70
     1
  9
$FILLMODE
 70
     1
  9
$QTEXTMODE
 70
     0
  9
$MIRRTEXT
 70
     1
  9
$LTSCALE
 40
12.0
  9
$ATTMODE
 70
     1
  9
$TEXTSIZE
 40
42.0
  9
$TRACEWID
 40
1.0
  9
$TEXTSTYLE
  7
Standard
  9
$CLAYER
  8
0
  9
$CELTYPE
  6
ByLayer
  9
$CECOLOR
 62
   256
  9
$CELTSCALE
 40
1.0
  9
$DISPSILH
 70
     0
  9
$DIMSCALE
 40
1.0
  9
$DIMASZ
 40
39.624
  9
$DIMEXO
 40
12.0
  9
$DIMDLI
 40
3.75
  9
$DIMRND
 40
0.0
  9
$DIMDLE
 40
0.0
  9
$DIMEXE
 40
12.0
  9
$DIMTP
 40
0.0
  9
$DIMTM
 40
0.0
  9
$DIMTXT
 40
42.0
  9
$DIMCEN
 40
2.5
  9
$DIMTSZ
 40
0.0
  9
$DIMTOL
 70
     0
  9
$DIMLIM
 70
     0
  9
$DIMTIH
 70
     1
  9
$DIMTOH
 70
     1
  9
$DIMSE1
 70
     0
  9
$DIMSE2
 70
     0
  9
$DIMTAD
 70
     1
  9
$DIMZIN
 70
     0
  9
$DIMBLK
  1

  9
$DIMASO
 70
     1
  9
$DIMSHO
 70
     1
  9
$DIMPOST
  1

  9
$DIMAPOST
  1

  9
$DIMALT
 70
     0
  9
$DIMALTD
 70
     3
  9
$DIMALTF
 40
0.0393700787
  9
$DIMLFAC
 40
1.0
  9
$DIMTOFL
 70
     1
  9
$DIMTVP
 40
0.0
  9
$DIMTIX
 70
     0
  9
$DIMSOXD
 70
     0
  9
$DIMSAH
 70
     0
  9
$DIMBLK1
  1

  9
$DIMBLK2
  1

  9
$DIMSTYLE
  2
ISO-25
  9
$DIMCLRD
 70
     0
  9
$DIMCLRE
 70
     0
  9
$DIMCLRT
 70
     0
  9
$DIMTFAC
 40
1.0
  9
$DIMGAP
 40
18.288
  9
$DIMJUST
 70
     0
  9
$DIMSD1
 70
     0
  9
$DIMSD2
 70
     0
  9
$DIMTOLJ
 70
     0
  9
$DIMTZIN
 70
     0
  9
$DIMALTZ
 70
     0
  9
$DIMALTTZ
 70
     0
  9
$DIMUPT
 70
     0
  9
$DIMDEC
 70
     2
  9
$DIMTDEC
 70
     2
  9
$DIMALTU
 70
     2
  9
$DIMALTTD
 70
     3
  9
$DIMTXSTY
  7
Standard
  9
$DIMAUNIT
 70
     0
  9
$DIMADEC
 70
     2
  9
$DIMALTRND
 40
0.0
  9
$DIMAZIN
 70
     0
  9
$DIMDSEP
 70
    44
  9
$DIMATFIT
 70
     3
  9
$DIMFRAC
 70
     0
  9
$DIMLDRBLK
  1

  9
$DIMLUNIT
 70
     2
  9
$DIMLWD
 70
    -2
  9
$DIMLWE
 70
    -2
  9
$DIMTMOVE
 70
     0
  9
$LUNITS
 70
     2
  9
$LUPREC
 70
     2
  9
$SKETCHINC
 40
1.0
  9
$FILLETRAD
 40
10.0
  9
$AUNITS
 70
     0
  9
$AUPREC
 70
     2
  9
$MENU
  1
.
  9
$ELEVATION
 40
0.0
  9
$PELEVATION
 40
0.0
  9
$THICKNESS
 40
0.0
  9
$LIMCHECK
 70
     0
  9
$CHAMFERA
 40
10.0
  9
$CHAMFERB
 40
10.0
  9
$CHAMFERC
 40
20.0
  9
$CHAMFERD
 40
0.0
  9
$SKPOLY
 70
     0
  9
$TDCREATE
 40
2456939.672022188
  9
$TDUCREATE
 40
2456939.630355521
  9
$TDUPDATE
 40
2456939.672022674
  9
$TDUUPDATE
 40
2456939.630356007
  9
$TDINDWG
 40
0.0000000116
  9
$TDUSRTIMER
 40
0.0000000116
  9
$USRTIMER
 70
     1
  9
$ANGBASE
 50
0.0
  9
$ANGDIR
 70
     0
  9
$PDMODE
 70
     0
  9
$PDSIZE
 40
-1.0
  9
$PLINEWID
 40
0.0
  9
$SPLFRAME
 70
     0
  9
$SPLINETYPE
 70
     6
  9
$SPLINESEGS
 70
     8
  9
$HANDSEED
  5
3A1
  9
$SURFTAB1
 70
     6
  9
$SURFTAB2
 70
     6
  9
$SURFTYPE
 70
     6
  9
$SURFU
 70
     6
  9
$SURFV
 70
     6
  9
$UCSBASE
  2

  9
$UCSNAME
  2

  9
$UCSORG
 10
0.0
 20
0.0
 30
0.0
  9
$UCSXDIR
 10
1.0
 20
0.0
 30
0.0
  9
$UCSYDIR
 10
0.0
 20
1.0
 30
0.0
  9
$UCSORTHOREF
  2

  9
$UCSORTHOVIEW
 70
     0
  9
$UCSORGTOP
 10
0.0
 20
0.0
 30
0.0
  9
$UCSORGBOTTOM
 10
0.0
 20
0.0
 30
0.0
  9
$UCSORGLEFT
 10
0.0
 20
0.0
 30
0.0
  9
$UCSORGRIGHT
 10
0.0
 20
0.0
 30
0.0
  9
$UCSORGFRONT
 10
0.0
 20
0.0
 30
0.0
  9
$UCSORGBACK
 10
0.0
 20
0.0
 30
0.0
  9
$PUCSBASE
  2

  9
$PUCSNAME
  2

  9
$PUCSORG
 10
0.0
 20
0.0
 30
0.0
  9
$PUCSXDIR
 10
1.0
 20
0.0
 30
0.0
  9
$PUCSYDIR
 10
0.0
 20
1.0
 30
0.0
  9
$PUCSORTHOREF
  2

  9
$PUCSORTHOVIEW
 70
     0
  9
$PUCSORGTOP
 10
0.0
 20
0.0
 30
0.0
  9
$PUCSORGBOTTOM
 10
0.0
 20
0.0
 30
0.0
  9
$PUCSORGLEFT
 10
0.0
 20
0.0
 30
0.0
  9
$PUCSORGRIGHT
 10
0.0
 20
0.0
 30
0.0
  9
$PUCSORGFRONT
 10
0.0
 20
0.0
 30
0.0
  9
$PUCSORGBACK
 10
0.0
 20
0.0
 30
0.0
  9
$USERI1
 70
     0
  9
$USERI2
 70
     0
  9
$USERI3
 70
     0
  9
$USERI4
 70
     0
  9
$USERI5
 70
     0
  9
$USERR1
 40
0.0
  9
$USERR2
 40
0.0
  9
$USERR3
 40
0.0
  9
$USERR4
 40
0.0
  9
$USERR5
 40
0.0
  9
$WORLDVIEW
 70
     1
  9
$SHADEDGE
 70
     3
  9
$SHADEDIF
 70
    70
  9
$TILEMODE
 70
     1
  9
$MAXACTVP
 70
    64
  9
$PINSBASE
 10
0.0
 20
0.0
 30
0.0
  9
$PLIMCHECK
 70
     0
  9
$PEXTMIN
 10
1.0000000000E+20
 20
1.0000000000E+20
 30
1.0000000000E+20
  9
$PEXTMAX
 10
-1.0000000000E+20
 20
-1.0000000000E+20
 30
-1.0000000000E+20
  9
$PLIMMIN
 10
0.0
 20
0.0
  9
$PLIMMAX
 10
420.0
 20
297.0
  9
$UNITMODE
 70
     0
  9
$VISRETAIN
 70
     1
  9
$PLINEGEN
 70
     0
  9
$PSLTSCALE
 70
     1
  9
$TREEDEPTH
 70
  3020
  9
$CMLSTYLE
  2
Standard
  9
$CMLJUST
 70
     0
  9
$CMLSCALE
 40
20.0
  9
$PROXYGRAPHICS
 70
     1
  9
$MEASUREMENT
 70
     1
  9
$CELWEIGHT
370
    -1
  9
$ENDCAPS
280
     0
  9
$JOINSTYLE
280
     0
  9
$LWDISPLAY
290
     1
  9
$INSUNITS
 70
     4
  9
$HYPERLINKBASE
  1

  9
$STYLESHEET
  1

  9
$XEDIT
290
     1
  9
$CEPSNTYPE
380
     0
  9
$PSTYLEMODE
290
     1
  9
$FINGERPRINTGUID
  2
{12B41DBD-C139-4195-A16E-FD680EE1444B}
  9
$VERSIONGUID
  2
{FAEB1C32-E019-11D5-929B-00C0DF256EC4}
  9
$EXTNAMES
290
     1
  9
$PSVPSCALE
 40
0.0
  9
$OLESTARTUP
290
     0
  9
$SORTENTS
280
   127
  9
$INDEXCTL
280
     0
  9
$HIDETEXT
280
     1
  9
$XCLIPFRAME
290
     0
  9
$HALOGAP
280
     0
  9
$OBSCOLOR
 70
   257
  9
$OBSLTYPE
280
     0
  9
$INTERSECTIONDISPLAY
280
     0
  9
$INTERSECTIONCOLOR
 70
   257
  9
$DIMASSOC
280
     2
  9
$PROJECTNAME
  1

  0
ENDSEC
  0
SECTION
  2
CLASSES
  0
CLASS
  1
ACDBDICTIONARYWDFLT
  2
AcDbDictionaryWithDefault
  3
ObjectDBX Classes
 90
        0
 91
        4
280
     0
281
     0
  0
CLASS
  1
VISUALSTYLE
  2
AcDbVisualStyle
  3
ObjectDBX Classes
 90
     4095
 91
        4
280
     0
281
     0
  0
CLASS
  1
MATERIAL
  2
AcDbMaterial
  3
ObjectDBX Classes
 90
     1153
 91
        4
280
     0
281
     0
  0
ENDSEC
  0
SECTION
  2
TABLES
  0
TABLE
  2
VPORT
  5
8
330
0
100
AcDbSymbolTable
 70
     1
  0
VPORT
  5
29
330
8
100
AcDbSymbolTableRecord
100
AcDbViewportTableRecord
  2
*Active
 70
     0
 10
0.0
 20
0.0
 11
1.0
 21
1.0
 12
1782.0
 22
1260.0
 13
0.0
 23
0.0
 14
10.0
 24
10.0
 15
10.0
 25
10.0
 16
0.0
 26
0.0
 36
1.0
 17
0.0
 27
0.0
 37
0.0
 40
2520.0
 41
1.4142857143
 42
50.0
 43
0.0
 44
0.0
 50
0.0
 51
0.0
 71
     0
 72
  2000
 73
     1
 74
     3
 75
     0
 76
     0
 77
     0
 78
     0
281
     0
 65
     1
110
0.0
120
0.0
130
0.0
111
1.0
121
0.0
131
0.0
112
0.0
122
1.0
132
0.0
 79
     0
146
0.0
  0
ENDTAB
  0
TABLE
  2
LTYPE
  5
5
330
0
100
AcDbSymbolTable
 70
     6
  0
LTYPE
  5
14
330
5
100
AcDbSymbolTableRecord
100
AcDbLinetypeTableRecord
  2
ByBlock
 70
     0
  3

 72
    65
 73
     0
 40
0.0
  0
LTYPE
  5
15
330
5
100
AcDbSymbolTableRecord
100
AcDbLinetypeTableRecord
  2
ByLayer
 70
     0
  3

 72
    65
 73
     0
 40
0.0
  0
LTYPE
  5
16
330
5
100
AcDbSymbolTableRecord
100
AcDbLinetypeTableRecord
  2
Continuous
 70
     0
  3
Solid line
 72
    65
 73
     0
 40
0.0
  0
LTYPE
  5
3F
330
5
100
AcDbSymbolTableRecord
100
AcDbLinetypeTableRecord
  2
HIDDEN
 70
     0
  3
Hidden __ __ __ __ __ __ __ __ __ __ __ __ __ __
 72
    65
 73
     2
 40
1.905
 49
1.27
 74
     0
 49
-0.635
 74
     0
  0
LTYPE
  5
40
330
5
100
AcDbSymbolTableRecord
100
AcDbLinetypeTableRecord
  2
PHANTOM
 70
     0
  3
Phantom ______  __  __  ______  __  __  ______
 72
    65
 73
     6
 40
12.7
 49
6.35
 74
     0
 49
-1.27
 74
     0
 49
1.27
 74
     0
 49
-1.27
 74
     0
 49
1.27
 74
     0
 49
-1.27
 74
     0
  0
LTYPE
  5
41
330
5
100
AcDbSymbolTableRecord
100
AcDbLinetypeTableRecord
  2
CENTER
 70
     0
  3
Center ____ _ ____ _ ____ _ ____ _ ____ _ ____
 72
    65
 73
     4
 40
10.16
 49
6.35
 74
     0
 49
-1.27
 74
     0
 49
1.27
 74
     0
 49
-1.27
 74
     0
  0
LTYPE
  5
42
330
5
100
AcDbSymbolTableRecord
100
AcDbLinetypeTableRecord
  2
CENTERX2
 70
     0
  3
Center (2x) ________  __  ________  __  _____
 72
    65
 73
     4
 40
20.32
 49
12.7
 74
     0
 49
-2.54
 74
     0
 49
2.54
 74
     0
 49
-2.54
 74
     0
  0
LTYPE
  5
43
330
5
100
AcDbSymbolTableRecord
100
AcDbLinetypeTableRecord
  2
DOT2
 70
     0
  3
Dot (.5x) ........................................
 72
    65
 73
     2
 40
0.635
 49
0.0
 74
     0
 49
-0.635
 74
     0
  0
ENDTAB
  0
TABLE
  2
LAYER
  5
2
330
0
100
AcDbSymbolTable
 70
     3
  0
LAYER
  5
10
330
2
100
AcDbSymbolTableRecord
100
AcDbLayerTableRecord
  2
0
 70
     0
 62
     7
  6
Continuous
370
    -3
390
F
  0
LAYER
  5
44
330
2
100
AcDbSymbolTableRecord
100
AcDbLayerTableRecord
  2
MEDIÇÕES
 70
     0
 62
     7
  6
Continuous
370
    -3
390
F
  0
LAYER
  5
45
330
2
100
AcDbSymbolTableRecord
100
AcDbLayerTableRecord
  2
ACABAMENTO
 70
     0
 62
     7
  6
Continuous
370
    80
390
F
  0
ENDTAB
  0
TABLE
  2
STYLE
  5
3
330
0
100
AcDbSymbolTable
 70
     4
  0
STYLE
  5
11
330
3
100
AcDbSymbolTableRecord
100
AcDbTextStyleTableRecord
  2
Standard
 70
     0
 40
0.0
 41
1.0
 50
0.0
 71
     0
 42
42.0
  3
txt
  4

  0
STYLE
  5
111
330
3
100
AcDbSymbolTableRecord
100
AcDbTextStyleTableRecord
  2
SLDTEXTSTYLE0
 70
     0
 40
0.0
 41
0.6875
 50
0.0
 71
     0
 42
0.2
  3
TXT
  4

  0
STYLE
  5
113
330
3
100
AcDbSymbolTableRecord
100
AcDbTextStyleTableRecord
  2
SLDTEXTSTYLE1
 70
     0
 40
0.0
 41
0.75
 50
0.0
 71
     0
 42
0.2
  3
TXT
  4

  0
STYLE
  5
115
330
3
100
AcDbSymbolTableRecord
100
AcDbTextStyleTableRecord
  2
SLDTEXTSTYLE2
 70
     0
 40
0.0
 41
0.605
 50
0.0
 71
     0
 42
0.2
  3
TXT
  4

  0
ENDTAB
  0
TABLE
  2
VIEW
  5
6
330
0
100
AcDbSymbolTable
 70
     0
  0
ENDTAB
  0
TABLE
  2
UCS
  5
7
330
0
100
AcDbSymbolTable
 70
     0
  0
ENDTAB
  0
TABLE
  2
APPID
  5
9
330
0
100
AcDbSymbolTable
 70
     1
  0
APPID
  5
12
330
9
100
AcDbSymbolTableRecord
100
AcDbRegAppTableRecord
  2
ACAD
 70
     0
  0
ENDTAB
  0
TABLE
  2
DIMSTYLE
  5
A
330
0
100
AcDbSymbolTable
 70
     3
100
AcDbDimStyleTable
  0
DIMSTYLE
105
27
330
A
100
AcDbSymbolTableRecord
100
AcDbDimStyleTableRecord
  2
ISO-25
 70
     0
 41
2.5
 42
0.625
 43
3.75
 44
1.25
 73
     0
 74
     0
 77
     1
 78
     8
140
2.5
141
2.5
143
0.0393700787
147
0.625
171
     3
172
     1
178
     0
271
     2
272
     2
274
     3
278
    44
283
     0
284
     8
340
11
  0
DIMSTYLE
105
17E
102
{ACAD_REACTORS
330
17D
330
28E
102
}
330
A
100
AcDbSymbolTableRecord
100
AcDbDimStyleTableRecord
  2
SLDDIMSTYLE0
 70
     0
 41
39.624
 44
0.0
 45
0.000000001
 73
     0
 74
     0
 77
     1
 78
    12
 79
     3
140
42.0
147
10.5
173
     1
178
     0
271
     1
272
     1
276
     2
284
    12
340
113
  0
DIMSTYLE
105
2CF
102
{ACAD_REACTORS
330
2CE
102
}
330
A
100
AcDbSymbolTableRecord
100
AcDbDimStyleTableRecord
  2
SLDDIMSTYLE1
 70
     0
 41
39.624
 44
0.0
 45
0.000000001
 73
     0
 74
     0
 77
     1
 78
    12
 79
     3
140
42.0
147
10.5
173
     1
178
     0
271
     2
272
     2
276
     2
284
    12
340
113
  0
ENDTAB
  0
TABLE
  2
BLOCK_RECORD
  5
1
330
0
100
AcDbSymbolTable
 70
     5
  0
BLOCK_RECORD
  5
1F
330
1
100
AcDbSymbolTableRecord
100
AcDbBlockTableRecord
  2
*Model_Space
340
22
  0
BLOCK_RECORD
  5
1B
330
1
100
AcDbSymbolTableRecord
100
AcDbBlockTableRecord
  2
*Paper_Space
340
1E
  0
BLOCK_RECORD
  5
23
330
1
100
AcDbSymbolTableRecord
100
AcDbBlockTableRecord
  2
*Paper_Space0
340
26
  0
BLOCK_RECORD
  5
46
330
1
100
AcDbSymbolTableRecord
100
AcDbBlockTableRecord
  2
Logo_Next.V3
340
0
102
{BLKREFS
331
110
102
}
  0
BLOCK_RECORD
  5
17F
330
1
100
AcDbSymbolTableRecord
100
AcDbBlockTableRecord
  2
_D
340
0
  0
BLOCK_RECORD
  5
28F
330
1
100
AcDbSymbolTableRecord
100
AcDbBlockTableRecord
  2
_D_1
340
0
  0
BLOCK_RECORD
  5
2D0
330
1
100
AcDbSymbolTableRecord
100
AcDbBlockTableRecord
  2
_D_2
340
0
  0
ENDTAB
  0
ENDSEC
  0
SECTION
  2
BLOCKS
  0
BLOCK
  5
20
330
1F
100
AcDbEntity
  8
0
100
AcDbBlockBegin
  2
*Model_Space
 70
     0
 10
0.0
 20
0.0
 30
0.0
  3
*Model_Space
  1

  0
ENDBLK
  5
21
330
1F
100
AcDbEntity
  8
0
100
AcDbBlockEnd
  0
BLOCK
  5
1C
330
1B
100
AcDbEntity
 67
     1
  8
0
100
AcDbBlockBegin
  2
*Paper_Space
 70
     0
 10
0.0
 20
0.0
 30
0.0
  3
*Paper_Space
  1

  0
ENDBLK
  5
1D
330
1B
100
AcDbEntity
 67
     1
  8
0
100
AcDbBlockEnd
  0
BLOCK
  5
24
330
23
100
AcDbEntity
  8
0
100
AcDbBlockBegin
  2
*Paper_Space0
 70
     0
 10
0.0
 20
0.0
 30
0.0
  3
*Paper_Space0
  1

  0
ENDBLK
  5
25
330
23
100
AcDbEntity
  8
0
100
AcDbBlockEnd
  0
BLOCK
  5
47
330
46
100
AcDbEntity
  8
0
100
AcDbBlockBegin
  2
Logo_Next.V3
 70
     0
 10
0.0
 20
0.0
 30
0.0
  3
Logo_Next.V3
  1

  0
ARC
  5
49
330
46
100
AcDbEntity
  8
0
  6
Continuous
 62
     7
370
     0
100
AcDbCircle
 10
-1904.6160867366
 20
507.2051566477
 30
0.0
 40
42.7531364201985
100
AcDbArc
 50
33.8993301947
 51
90.0
  0
ARC
  5
4A
330
46
100
AcDbEntity
  8
0
  6
Continuous
 62
     7
370
     0
100
AcDbCircle
 10
-1358.0222053958
 20
507.2051566477
 30
0.0
 40
42.75313642019813
100
AcDbArc
 50
90.0
 51
180.0
  0
ARC
  5
4B
330
46
100
AcDbEntity
  8
0
  6
Continuous
 62
     7
370
     0
100
AcDbCircle
 10
-1060.4004121011
 20
507.2051566477
 30
0.0
 40
42.75313642019842
100
AcDbArc
 50
0.0
 51
90.0
  0
ARC
  5
4C
330
46
100
AcDbEntity
  8
0
  6
Continuous
 62
     7
370
     0
100
AcDbCircle
 10
-1060.4004121011
 20
-507.2051566459
 30
0.0
 40
42.75313642019819
100
AcDbArc
 50
270.0
 51
0.0
  0
ARC
  5
4D
330
46
100
AcDbEntity
  8
0
  6
Continuous
 62
     7
370
     0
100
AcDbCircle
 10
-1456.354370875
 20
-507.2051566459
 30
0.0
 40
42.75313642019813
100
AcDbArc
 50
215.8239333713
 51
270.0
  0
ARC
  5
4E
330
46
100
AcDbEntity
  8
0
  6
Continuous
 62
     7
370
     0
100
AcDbCircle
 10
-2040.9538832755
 20
-507.2051566459
 30
0.0
 40
42.75313642019819
100
AcDbArc
 50
270.0
 51
0.0
  0
ARC
  5
4F
330
46
100
AcDbEntity
  8
0
  6
Continuous
 62
     7
370
     0
100
AcDbCircle
 10
-2130.2925317474
 20
-525.3948281162
 30
0.0
 40
24.56346494985314
100
AcDbArc
 50
180.0
 51
270.0
  0
ARC
  5
50
330
46
100
AcDbEntity
  8
0
  6
Continuous
 62
     7
370
     0
100
AcDbCircle
 10
-2130.2925317474
 20
525.3948281181
 30
0.0
 40
24.56346494985337
100
AcDbArc
 50
90.0
 51
180.0
  0
ARC
  5
51
330
46
100
AcDbEntity
  8
0
  6
Continuous
 62
     7
370
     0
100
AcDbCircle
 10
328.5005598539
 20
718.6337774747
 30
0.0
 40
42.75313642019817
100
AcDbArc
 50
38.8556584896
 51
105.8183764148
  0
ARC
  5
52
330
46
100
AcDbEntity
  8
0
  6
Continuous
 62
     7
370
     0
100
AcDbCircle
 10
725.1361325511
 20
832.6366948952
 30
0.0
 40
42.75313642019785
100
AcDbArc
 50
106.1668587455
 51
171.8012460536
  0
ARC
  5
53
330
46
100
AcDbEntity
  8
0
  6
Continuous
 62
     7
370
     0
100
AcDbCircle
 10
1086.8950853963
 20
937.5105124661
 30
0.0
 40
42.75313642019822
100
AcDbArc
 50
347.4974268902
 51
106.1668587455
  0
ARC
  5
54
330
46
100
AcDbEntity
  8
0
  6
Continuous
 62
     7
370
     0
100
AcDbCircle
 10
1174.7081655132
 20
349.936999053
 30
0.0
 40
42.75313642020865
100
AcDbArc
 50
180.0
 51
270.0
  0
ARC
  5
55
330
46
100
AcDbEntity
  8
0
  6
Continuous
 62
     7
370
     0
100
AcDbCircle
 10
1174.7081655132
 20
507.0051819608
 30
0.0
 40
42.75313642023525
100
AcDbArc
 50
90.0
 51
180.0
  0
ARC
  5
56
330
46
100
AcDbEntity
  8
0
  6
Continuous
 62
     7
370
     0
100
AcDbCircle
 10
2129.8480812878
 20
525.1948534311
 30
0.0
 40
24.56346494985314
100
AcDbArc
 50
0.0
 51
90.0
  0
ARC
  5
57
330
46
100
AcDbEntity
  8
0
  6
Continuous
 62
     7
370
     0
100
AcDbCircle
 10
2129.8480812878
 20
332.2159057627
 30
0.0
 40
24.56346494985308
100
AcDbArc
 50
270.0
 51
0.0
  0
ARC
  5
58
330
46
100
AcDbEntity
  8
0
  6
Continuous
 62
     7
370
     0
100
AcDbCircle
 10
1903.3537376203
 20
-508.3026330224
 30
0.0
 40
42.75313642019819
100
AcDbArc
 50
270.0
 51
0.0
  0
ARC
  5
59
330
46
100
AcDbEntity
  8
0
  6
Continuous
 62
     7
370
     0
100
AcDbCircle
 10
1197.3999430485
 20
-696.4323545302
 30
0.0
 40
42.7531364202368
100
AcDbArc
 50
219.5992848036
 51
286.1919412867
  0
ARC
  5
5A
330
46
100
AcDbEntity
  8
0
  6
Continuous
 62
     7
370
     0
100
AcDbCircle
 10
717.9497809155
 20
-832.5202644432
 30
0.0
 40
42.75313642019732
100
AcDbArc
 50
286.0985506514
 51
351.7882282766
  0
ARC
  5
5B
330
46
100
AcDbEntity
  8
0
  6
Continuous
 62
     7
370
     0
100
AcDbCircle
 10
333.7596465381
 20
-943.4005207095
 30
0.0
 40
42.75313642023528
100
AcDbArc
 50
166.6872067774
 51
286.0985506513
  0
ARC
  5
5C
330
46
100
AcDbEntity
  8
0
  6
Continuous
 62
     7
370
     0
100
AcDbCircle
 10
76.3095378404
 20
88.3055883535
 30
0.0
 40
42.75313642020558
100
AcDbArc
 50
0.0
 51
90.0
  0
ARC
  5
5D
330
46
100
AcDbEntity
  8
0
  6
Continuous
 62
     7
370
     0
100
AcDbCircle
 10
76.3095378404
 20
-61.8837780664
 30
0.0
 40
42.75313642020839
100
AcDbArc
 50
270.0
 51
0.0
  0
ARC
  5
5E
330
46
100
AcDbEntity
  8
0
  6
Continuous
 62
     7
370
     0
100
AcDbCircle
 10
262.9571007941
 20
-345.1183044144
 30
0.0
 40
42.75313642019819
100
AcDbArc
 50
0.0
 51
90.0
  0
ARC
  5
5F
330
46
100
AcDbEntity
  8
0
  6
Continuous
 62
     7
370
     0
100
AcDbCircle
 10
262.9571007941
 20
-508.4417196303
 30
0.0
 40
42.75313642018369
100
AcDbArc
 50
270.0
 51
0.0
  0
ARC
  5
60
330
46
100
AcDbEntity
  8
0
  6
Continuous
 62
     7
370
     0
100
AcDbCircle
 10
-860.1216033391
 20
-508.4417196303
 30
0.0
 40
42.75313642019853
100
AcDbArc
 50
180.0
 51
270.0
  0
ARC
  5
61
330
46
100
AcDbEntity
  8
0
  6
Continuous
 62
     7
370
     0
100
AcDbCircle
 10
-860.1216033391
 20
507.8160396053
 30
0.0
 40
42.75313642022024
100
AcDbArc
 50
90.0
 51
180.0
  0
ARC
  5
62
330
46
100
AcDbEntity
  8
0
  6
Continuous
 62
     7
370
     0
100
AcDbCircle
 10
901.4032443104
 20
100.9886741173
 30
0.0
 40
90.75313642067492
100
AcDbArc
 50
167.4974268903
 51
224.796493861
  0
ARC
  5
63
330
46
100
AcDbEntity
  8
0
  6
Continuous
 62
     7
370
     0
100
AcDbCircle
 10
805.8873227116
 20
-223.1628658451
 30
0.0
 40
90.75313642067512
100
AcDbArc
 50
39.5992848035
 51
171.7882282765
  0
ARC
  5
64
330
46
100
AcDbEntity
  8
0
  6
Continuous
 62
     7
370
     0
100
AcDbCircle
 10
557.3141815755
 20
1.3594174678
 30
0.0
 40
90.75313642070296
100
AcDbArc
 50
346.6872067774
 51
44.28188045
  0
ARC
  5
65
330
46
100
AcDbEntity
  8
0
  6
Continuous
 62
     7
370
     0
100
AcDbCircle
 10
651.0286003014
 20
318.286811599
 30
0.0
 40
90.75313642067508
100
AcDbArc
 50
218.8556584896
 51
351.8012460535
  0
ARC
  5
66
330
46
100
AcDbEntity
  8
0
  6
Continuous
 62
     7
370
     0
100
AcDbCircle
 10
-1060.4004121011
 20
-507.2051566459
 30
0.0
 40
66.75313642040192
100
AcDbArc
 50
270.0
 51
0.0
  0
ARC
  5
67
330
46
100
AcDbEntity
  8
0
  6
Continuous
 62
     7
370
     0
100
AcDbCircle
 10
-1456.354370875
 20
-507.2051566459
 30
0.0
 40
66.75313642040196
100
AcDbArc
 50
215.8239333713
 51
270.0
  0
ARC
  5
68
330
46
100
AcDbEntity
  8
0
  6
Continuous
 62
     7
370
     0
100
AcDbCircle
 10
-2040.9538832755
 20
-507.2051566459
 30
0.0
 40
66.75313642040192
100
AcDbArc
 50
270.0
 51
0.0
  0
ARC
  5
69
330
46
100
AcDbEntity
  8
0
  6
Continuous
 62
     7
370
     0
100
AcDbCircle
 10
-2130.2925317474
 20
-525.3948281162
 30
0.0
 40
48.56346495005721
100
AcDbArc
 50
180.0
 51
270.0
  0
ARC
  5
6A
330
46
100
AcDbEntity
  8
0
  6
Continuous
 62
     7
370
     0
100
AcDbCircle
 10
-2130.2925317474
 20
525.3948281181
 30
0.0
 40
48.5634649500571
100
AcDbArc
 50
90.0
 51
180.0
  0
ARC
  5
6B
330
46
100
AcDbEntity
  8
0
  6
Continuous
 62
     7
370
     0
100
AcDbCircle
 10
-1904.6160867366
 20
507.2051566477
 30
0.0
 40
66.75313642040231
100
AcDbArc
 50
33.8993301947
 51
90.0
  0
ARC
  5
6C
330
46
100
AcDbEntity
  8
0
  6
Continuous
 62
     7
370
     0
100
AcDbCircle
 10
-1358.0222053958
 20
507.2051566477
 30
0.0
 40
66.75313642040197
100
AcDbArc
 50
90.0
 51
180.0
  0
ARC
  5
6D
330
46
100
AcDbEntity
  8
0
  6
Continuous
 62
     7
370
     0
100
AcDbCircle
 10
-1060.4004121011
 20
507.2051566477
 30
0.0
 40
66.75313642040192
100
AcDbArc
 50
0.0
 51
90.0
  0
ARC
  5
6E
330
46
100
AcDbEntity
  8
0
  6
Continuous
 62
     7
370
     0
100
AcDbCircle
 10
901.4032443104
 20
100.9886741173
 30
0.0
 40
66.7531364204022
100
AcDbArc
 50
167.4974268903
 51
224.796493861
  0
ARC
  5
6F
330
46
100
AcDbEntity
  8
0
  6
Continuous
 62
     7
370
     0
100
AcDbCircle
 10
651.0286003014
 20
318.286811599
 30
0.0
 40
66.75313642040237
100
AcDbArc
 50
218.8556584895
 51
351.8012460535
  0
ARC
  5
70
330
46
100
AcDbEntity
  8
0
  6
Continuous
 62
     7
370
     0
100
AcDbCircle
 10
557.3141815755
 20
1.3594174678
 30
0.0
 40
66.7531364204205
100
AcDbArc
 50
346.6872067774
 51
44.2818804499
  0
ARC
  5
71
330
46
100
AcDbEntity
  8
0
  6
Continuous
 62
     7
370
     0
100
AcDbCircle
 10
805.8873227116
 20
-223.1628658451
 30
0.0
 40
66.75313642040197
100
AcDbArc
 50
39.5992848036
 51
171.7882282766
  0
ARC
  5
72
330
46
100
AcDbEntity
  8
0
  6
Continuous
 62
     7
370
     0
100
AcDbCircle
 10
262.9571007941
 20
-345.1183044144
 30
0.0
 40
66.75313642040186
100
AcDbArc
 50
0.0
 51
90.0
  0
ARC
  5
73
330
46
100
AcDbEntity
  8
0
  6
Continuous
 62
     7
370
     0
100
AcDbCircle
 10
76.3095378404
 20
-61.8837780664
 30
0.0
 40
66.75313642044173
100
AcDbArc
 50
270.0
 51
0.0
  0
ARC
  5
74
330
46
100
AcDbEntity
  8
0
  6
Continuous
 62
     7
370
     0
100
AcDbCircle
 10
76.3095378404
 20
88.3055883535
 30
0.0
 40
66.75313642044173
100
AcDbArc
 50
0.0
 51
90.0
  0
ARC
  5
75
330
46
100
AcDbEntity
  8
0
  6
Continuous
 62
     7
370
     0
100
AcDbCircle
 10
333.7596465381
 20
-943.4005207095
 30
0.0
 40
66.75313642043889
100
AcDbArc
 50
166.6872067774
 51
286.0985506513
  0
ARC
  5
76
330
46
100
AcDbEntity
  8
0
  6
Continuous
 62
     7
370
     0
100
AcDbCircle
 10
717.9497809155
 20
-832.5202644432
 30
0.0
 40
66.75313642040174
100
AcDbArc
 50
286.0985506514
 51
351.7882282766
  0
ARC
  5
77
330
46
100
AcDbEntity
  8
0
  6
Continuous
 62
     7
370
     0
100
AcDbCircle
 10
1197.3999430485
 20
-696.4323545302
 30
0.0
 40
66.75313642044287
100
AcDbArc
 50
219.5992848036
 51
286.1919412867
  0
ARC
  5
78
330
46
100
AcDbEntity
  8
0
  6
Continuous
 62
     7
370
     0
100
AcDbCircle
 10
1903.3537376203
 20
-508.3026330224
 30
0.0
 40
66.75313642040237
100
AcDbArc
 50
270.0
 51
0.0
  0
ARC
  5
79
330
46
100
AcDbEntity
  8
0
  6
Continuous
 62
     7
370
     0
100
AcDbCircle
 10
2129.8480812878
 20
332.2159057627
 30
0.0
 40
48.56346495005721
100
AcDbArc
 50
270.0
 51
0.0
  0
ARC
  5
7A
330
46
100
AcDbEntity
  8
0
  6
Continuous
 62
     7
370
     0
100
AcDbCircle
 10
2129.8480812878
 20
525.1948534311
 30
0.0
 40
48.56346495005732
100
AcDbArc
 50
0.0
 51
90.0
  0
ARC
  5
7B
330
46
100
AcDbEntity
  8
0
  6
Continuous
 62
     7
370
     0
100
AcDbCircle
 10
1174.7081655132
 20
507.0051819608
 30
0.0
 40
66.7531364204392
100
AcDbArc
 50
90.0
 51
180.0
  0
ARC
  5
7C
330
46
100
AcDbEntity
  8
0
  6
Continuous
 62
     7
370
     0
100
AcDbCircle
 10
1174.7081655132
 20
349.936999053
 30
0.0
 40
66.75313642043898
100
AcDbArc
 50
180.0
 51
270.0
  0
ARC
  5
7D
330
46
100
AcDbEntity
  8
0
  6
Continuous
 62
     7
370
     0
100
AcDbCircle
 10
1086.8950853963
 20
937.5105124661
 30
0.0
 40
66.75313642040197
100
AcDbArc
 50
347.4974268903
 51
106.1668587455
  0
ARC
  5
7E
330
46
100
AcDbEntity
  8
0
  6
Continuous
 62
     7
370
     0
100
AcDbCircle
 10
725.1361325511
 20
832.6366948952
 30
0.0
 40
66.7531364204019
100
AcDbArc
 50
106.1668587455
 51
171.8012460535
  0
ARC
  5
7F
330
46
100
AcDbEntity
  8
0
  6
Continuous
 62
     7
370
     0
100
AcDbCircle
 10
328.5005598539
 20
718.6337774747
 30
0.0
 40
66.75313642040162
100
AcDbArc
 50
38.8556584895
 51
105.8183764146
  0
ARC
  5
80
330
46
100
AcDbEntity
  8
0
  6
Continuous
 62
     7
370
     0
100
AcDbCircle
 10
-860.1216033391
 20
507.8160396053
 30
0.0
 40
66.75313642043926
100
AcDbArc
 50
90.0
 51
180.0
  0
ARC
  5
81
330
46
100
AcDbEntity
  8
0
  6
Continuous
 62
     7
370
     0
100
AcDbCircle
 10
-860.1216033391
 20
-508.4417196303
 30
0.0
 40
66.75313642040226
100
AcDbArc
 50
180.0
 51
270.0
  0
ARC
  5
82
330
46
100
AcDbEntity
  8
0
  6
Continuous
 62
     7
370
     0
100
AcDbCircle
 10
262.9571007941
 20
-508.4417196303
 30
0.0
 40
66.75313642043938
100
AcDbArc
 50
270.0
 51
0.0
  0
LINE
  5
83
330
46
100
AcDbEntity
  8
0
  6
Continuous
 62
     7
370
     0
100
AcDbLine
 10
-2130.2925317474
 20
549.9582930679
 30
0.0
 11
-1904.6160867366
 21
549.9582930679
 31
0.0
  0
LINE
  5
84
330
46
100
AcDbEntity
  8
0
  6
Continuous
 62
     7
370
     0
100
AcDbLine
 10
-1869.1301795244
 20
531.0500945401
 30
0.0
 11
-1400.775341816
 21
-165.9530341034
 31
0.0
  0
LINE
  5
85
330
46
100
AcDbEntity
  8
0
  6
Continuous
 62
     7
370
     0
100
AcDbLine
 10
-1400.775341816
 20
507.2051566477
 30
0.0
 11
-1400.775341816
 21
-165.9530341034
 31
0.0
  0
LINE
  5
86
330
46
100
AcDbEntity
  8
0
  6
Continuous
 62
     7
370
     0
100
AcDbLine
 10
-1358.0222053958
 20
549.9582930679
 30
0.0
 11
-1060.4004121011
 21
549.9582930679
 31
0.0
  0
LINE
  5
87
330
46
100
AcDbEntity
  8
0
  6
Continuous
 62
     7
370
     0
100
AcDbLine
 10
-1017.6472756809
 20
507.2051566477
 30
0.0
 11
-1017.6472756809
 21
-507.2051566459
 31
0.0
  0
LINE
  5
88
330
46
100
AcDbEntity
  8
0
  6
Continuous
 62
     7
370
     0
100
AcDbLine
 10
-1060.4004121011
 20
-549.9582930661
 30
0.0
 11
-1456.354370875
 21
-549.9582930661
 31
0.0
  0
LINE
  5
89
330
46
100
AcDbEntity
  8
0
  6
Continuous
 62
     7
370
     0
100
AcDbLine
 10
-1998.2007468553
 20
170.377014816
 30
0.0
 11
-1491.01944338
 21
-532.2284142673
 31
0.0
  0
LINE
  5
8A
330
46
100
AcDbEntity
  8
0
  6
Continuous
 62
     7
370
     0
100
AcDbLine
 10
-1998.2007468553
 20
-507.2051566459
 30
0.0
 11
-1998.2007468553
 21
170.377014816
 31
0.0
  0
LINE
  5
8B
330
46
100
AcDbEntity
  8
0
  6
Continuous
 62
     7
370
     0
100
AcDbLine
 10
-2130.2925317474
 20
-549.9582930661
 30
0.0
 11
-2040.9538832755
 21
-549.9582930661
 31
0.0
  0
LINE
  5
8C
330
46
100
AcDbEntity
  8
0
  6
Continuous
 62
     7
370
     0
100
AcDbLine
 10
-2154.8559966972
 20
-525.3948281162
 30
0.0
 11
-2154.8559966972
 21
525.3948281181
 31
0.0
  0
LINE
  5
8D
330
46
100
AcDbEntity
  8
0
  6
Continuous
 62
     7
370
     0
100
AcDbLine
 10
-860.1216033391
 20
550.5691760255
 30
0.0
 11
-33.0351390868
 21
550.5691760255
 31
0.0
  0
LINE
  5
8E
330
46
100
AcDbEntity
  8
0
  6
Continuous
 62
     7
370
     0
100
AcDbLine
 10
-33.0351390868
 20
550.5691760255
 30
0.0
 11
-118.8573213174
 21
636.3251698487
 31
0.0
  0
LINE
  5
8F
330
46
100
AcDbEntity
  8
0
  6
Continuous
 62
     7
370
     0
100
AcDbLine
 10
-118.8573213174
 20
636.3251698487
 30
0.0
 11
316.8465318116
 21
759.7678789497
 31
0.0
  0
LINE
  5
90
330
46
100
AcDbEntity
  8
0
  6
Continuous
 62
     7
370
     0
100
AcDbLine
 10
361.7936627239
 20
745.4554100695
 30
0.0
 11
622.7161837643
 21
421.5780210471
 31
0.0
  0
LINE
  5
91
330
46
100
AcDbEntity
  8
0
  6
Continuous
 62
     7
370
     0
100
AcDbLine
 10
622.7161837643
 20
421.5780210471
 30
0.0
 11
682.8199617215
 21
838.7336088758
 31
0.0
  0
LINE
  5
92
330
46
100
AcDbEntity
  8
0
  6
Continuous
 62
     7
370
     0
100
AcDbLine
 10
713.2321372542
 20
873.6991542679
 30
0.0
 11
1074.9910900994
 21
978.5729718388
 31
0.0
  0
LINE
  5
93
330
46
100
AcDbEntity
  8
0
  6
Continuous
 62
     7
370
     0
100
AcDbLine
 10
1128.6343861667
 20
928.2551656351
 30
0.0
 11
948.1991088698
 21
114.5371660554
 31
0.0
  0
LINE
  5
94
330
46
100
AcDbEntity
  8
0
  6
Continuous
 62
     7
370
     0
100
AcDbLine
 10
948.1991088698
 20
114.5371660554
 30
0.0
 11
1548.5151466919
 21
-490.0585581626
 31
0.0
  0
LINE
  5
95
330
46
100
AcDbEntity
  8
0
  6
Continuous
 62
     7
370
     0
100
AcDbLine
 10
1548.5151466919
 20
-490.0585581626
 30
0.0
 11
1548.5151466919
 21
307.1838626328
 31
0.0
  0
LINE
  5
96
330
46
100
AcDbEntity
  8
0
  6
Continuous
 62
     7
370
     0
100
AcDbLine
 10
1548.5151466919
 20
307.1838626328
 30
0.0
 11
1174.7081655132
 21
307.1838626328
 31
0.0
  0
LINE
  5
97
330
46
100
AcDbEntity
  8
0
  6
Continuous
 62
     7
370
     0
100
AcDbLine
 10
1131.955029093
 20
349.936999053
 30
0.0
 11
1131.955029093
 21
507.0051819608
 31
0.0
  0
LINE
  5
98
330
46
100
AcDbEntity
  8
0
  6
Continuous
 62
     7
370
     0
100
AcDbLine
 10
1174.7081655132
 20
549.758318381
 30
0.0
 11
2129.8480812878
 21
549.758318381
 31
0.0
  0
LINE
  5
99
330
46
100
AcDbEntity
  8
0
  6
Continuous
 62
     7
370
     0
100
AcDbLine
 10
2154.4115462376
 20
525.1948534311
 30
0.0
 11
2154.4115462376
 21
332.2159057627
 31
0.0
  0
LINE
  5
9A
330
46
100
AcDbEntity
  8
0
  6
Continuous
 62
     7
370
     0
100
AcDbLine
 10
2129.8480812878
 20
307.6524408128
 30
0.0
 11
1946.1068740405
 21
307.6524408128
 31
0.0
  0
LINE
  5
9B
330
46
100
AcDbEntity
  8
0
  6
Continuous
 62
     7
370
     0
100
AcDbLine
 10
1946.1068740405
 20
307.6524408128
 30
0.0
 11
1946.1068740405
 21
-508.3026330224
 31
0.0
  0
LINE
  5
9C
330
46
100
AcDbEntity
  8
0
  6
Continuous
 62
     7
370
     0
100
AcDbLine
 10
1903.3537376203
 20
-551.0557694426
 30
0.0
 11
1607.6034242198
 21
-551.0557694426
 31
0.0
  0
LINE
  5
9D
330
46
100
AcDbEntity
  8
0
  6
Continuous
 62
     7
370
     0
100
AcDbLine
 10
1607.6034242198
 20
-551.0557694426
 30
0.0
 11
1662.4909265788
 21
-605.9009455154
 31
0.0
  0
LINE
  5
9E
330
46
100
AcDbEntity
  8
0
  6
Continuous
 62
     7
370
     0
100
AcDbLine
 10
1662.4909265788
 20
-605.9009455154
 30
0.0
 11
1209.3219132371
 21
-737.4895987215
 31
0.0
  0
LINE
  5
9F
330
46
100
AcDbEntity
  8
0
  6
Continuous
 62
     7
370
     0
100
AcDbLine
 10
1164.4577450966
 20
-723.6838181215
 30
0.0
 11
834.4255319407
 21
-324.7332641508
 31
0.0
  0
LINE
  5
A0
330
46
100
AcDbEntity
  8
0
  6
Continuous
 62
     7
370
     0
100
AcDbLine
 10
834.4255319407
 20
-324.7332641508
 30
0.0
 11
760.2645654153
 21
-838.6267926303
 31
0.0
  0
LINE
  5
A1
330
46
100
AcDbEntity
  8
0
  6
Continuous
 62
     7
370
     0
100
AcDbLine
 10
729.8048130529
 20
-873.5968865875
 30
0.0
 11
345.6146786755
 21
-984.4771428538
 31
0.0
  0
LINE
  5
A2
330
46
100
AcDbEntity
  8
0
  6
Continuous
 62
     7
370
     0
100
AcDbLine
 10
292.1553945405
 20
-933.555883109
 30
0.0
 11
510.2983901283
 21
-11.6655578205
 31
0.0
  0
LINE
  5
A3
330
46
100
AcDbEntity
  8
0
  6
Continuous
 62
     7
370
     0
100
AcDbLine
 10
510.2983901283
 20
-11.6655578205
 30
0.0
 11
191.117549231
 21
315.618204202
 31
0.0
  0
LINE
  5
A4
330
46
100
AcDbEntity
  8
0
  6
Continuous
 62
     7
370
     0
100
AcDbLine
 10
-503.9721276286
 20
315.618204202
 30
0.0
 11
191.117549231
 21
315.618204202
 31
0.0
  0
LINE
  5
A5
330
46
100
AcDbEntity
  8
0
  6
Continuous
 62
     7
370
     0
100
AcDbLine
 10
-503.9721276286
 20
131.0587247737
 30
0.0
 11
-503.9721276286
 21
315.618204202
 31
0.0
  0
LINE
  5
A6
330
46
100
AcDbEntity
  8
0
  6
Continuous
 62
     7
370
     0
100
AcDbLine
 10
76.3095378405
 20
131.0587247737
 30
0.0
 11
-503.9721276286
 21
131.0587247737
 31
0.0
  0
LINE
  5
A7
330
46
100
AcDbEntity
  8
0
  6
Continuous
 62
     7
370
     0
100
AcDbLine
 10
119.0626742607
 20
-61.8837780664
 30
0.0
 11
119.0626742606
 21
88.3055883535
 31
0.0
  0
LINE
  5
A8
330
46
100
AcDbEntity
  8
0
  6
Continuous
 62
     7
370
     0
100
AcDbLine
 10
-503.9721276286
 20
-104.6369144866
 30
0.0
 11
76.3095378404
 21
-104.6369144866
 31
0.0
  0
LINE
  5
A9
330
46
100
AcDbEntity
  8
0
  6
Continuous
 62
     7
370
     0
100
AcDbLine
 10
-503.9721276286
 20
-302.3651679942
 30
0.0
 11
-503.9721276286
 21
-104.6369144866
 31
0.0
  0
LINE
  5
AA
330
46
100
AcDbEntity
  8
0
  6
Continuous
 62
     7
370
     0
100
AcDbLine
 10
262.9571007941
 20
-302.3651679942
 30
0.0
 11
-503.9721276286
 21
-302.3651679942
 31
0.0
  0
LINE
  5
AB
330
46
100
AcDbEntity
  8
0
  6
Continuous
 62
     7
370
     0
100
AcDbLine
 10
305.7102372143
 20
-508.4417196303
 30
0.0
 11
305.7102372143
 21
-345.1183044144
 31
0.0
  0
LINE
  5
AC
330
46
100
AcDbEntity
  8
0
  6
Continuous
 62
     7
370
     0
100
AcDbLine
 10
-860.1216033391
 20
-551.1948560505
 30
0.0
 11
262.9571007941
 21
-551.1948560505
 31
0.0
  0
LINE
  5
AD
330
46
100
AcDbEntity
  8
0
  6
Continuous
 62
     7
370
     0
100
AcDbLine
 10
-902.8747397593
 20
507.8160396053
 30
0.0
 11
-902.8747397593
 21
-508.4417196303
 31
0.0
  0
LINE
  5
AE
330
46
100
AcDbEntity
  8
0
  6
Continuous
 62
     7
370
     0
100
AcDbLine
 10
965.1597604606
 20
807.7297336507
 30
0.0
 11
812.8022018116
 21
120.6352269529
 31
0.0
  0
LINE
  5
AF
330
46
100
AcDbEntity
  8
0
  6
Continuous
 62
     7
370
     0
100
AcDbLine
 10
837.0035613796
 20
37.044850267
 30
0.0
 11
1410.1236963301
 21
-540.1610900362
 31
0.0
  0
LINE
  5
B0
330
46
100
AcDbEntity
  8
0
  6
Continuous
 62
     7
370
     0
100
AcDbLine
 10
1410.1236963301
 20
-540.1610900362
 30
0.0
 11
1229.333856178
 21
-592.6578205575
 31
0.0
  0
LINE
  5
B1
330
46
100
AcDbEntity
  8
0
  6
Continuous
 62
     7
370
     0
100
AcDbLine
 10
1229.333856178
 20
-592.6578205575
 30
0.0
 11
875.8145382341
 21
-165.3155124099
 31
0.0
  0
LINE
  5
B2
330
46
100
AcDbEntity
  8
0
  6
Continuous
 62
     7
370
     0
100
AcDbLine
 10
716.0646867165
 20
-210.2003879539
 30
0.0
 11
636.4952564971
 21
-761.5715090412
 31
0.0
  0
LINE
  5
B3
330
46
100
AcDbEntity
  8
0
  6
Continuous
 62
     7
370
     0
100
AcDbLine
 10
636.4952564971
 20
-761.5715090412
 30
0.0
 11
457.8438540903
 21
-813.1316911197
 31
0.0
  0
LINE
  5
B4
330
46
100
AcDbEntity
  8
0
  6
Continuous
 62
     7
370
     0
100
AcDbLine
 10
457.8438540903
 20
-813.1316911197
 30
0.0
 11
645.6285527156
 21
-19.5380374089
 31
0.0
  0
LINE
  5
B5
330
46
100
AcDbEntity
  8
0
  6
Continuous
 62
     7
370
     0
100
AcDbLine
 10
622.2855833517
 20
64.7222513803
 30
0.0
 11
131.0968556765
 21
568.3805981295
 31
0.0
  0
LINE
  5
B6
330
46
100
AcDbEntity
  8
0
  6
Continuous
 62
     7
370
     0
100
AcDbLine
 10
131.0968556765
 20
568.3805981295
 30
0.0
 11
295.4862519398
 21
614.9550598345
 31
0.0
  0
LINE
  5
B7
330
46
100
AcDbEntity
  8
0
  6
Continuous
 62
     7
370
     0
100
AcDbLine
 10
295.4862519398
 20
614.9550598345
 30
0.0
 11
580.3565102602
 21
261.3518710142
 31
0.0
  0
LINE
  5
B8
330
46
100
AcDbEntity
  8
0
  6
Continuous
 62
     7
370
     0
100
AcDbLine
 10
740.8541790929
 20
305.3447420209
 30
0.0
 11
806.6156188529
 21
761.7678320779
 31
0.0
  0
LINE
  5
B9
330
46
100
AcDbEntity
  8
0
  6
Continuous
 62
     7
370
     0
100
AcDbLine
 10
806.6156188529
 20
761.7678320779
 30
0.0
 11
965.1597604606
 21
807.7297336507
 31
0.0
  0
LINE
  5
BA
330
46
100
AcDbEntity
  8
0
  6
Continuous
 62
     7
370
     0
100
AcDbLine
 10
2346.2792567457
 20
573.7583183812
 30
0.0
 11
2383.5112465393
 21
573.7583183812
 31
0.0
  0
LINE
  5
BB
330
46
100
AcDbEntity
  8
0
  6
Continuous
 62
     7
370
     0
100
AcDbLine
 10
2383.5112465393
 20
573.7583183812
 30
0.0
 11
2383.5112465393
 21
283.6524408126
 31
0.0
  0
LINE
  5
BC
330
46
100
AcDbEntity
  8
0
  6
Continuous
 62
     7
370
     0
100
AcDbLine
 10
2346.2792567457
 20
283.6524408126
 30
0.0
 11
2383.5112465393
 21
283.6524408126
 31
0.0
  0
LINE
  5
BD
330
46
100
AcDbEntity
  8
0
  6
Continuous
 62
     7
370
     0
100
AcDbLine
 10
2346.2792567457
 20
573.7583183812
 30
0.0
 11
2346.2792567457
 21
283.6524408126
 31
0.0
  0
LINE
  5
BE
330
46
100
AcDbEntity
  8
0
  6
Continuous
 62
     7
370
     0
100
AcDbLine
 10
-2383.5112465395
 20
573.9582930681
 30
0.0
 11
-2383.5112465395
 21
-573.9582930663
 31
0.0
  0
LINE
  5
BF
330
46
100
AcDbEntity
  8
0
  6
Continuous
 62
     7
370
     0
100
AcDbLine
 10
-2346.2792567459
 20
-573.9582930663
 30
0.0
 11
-2383.5112465395
 21
-573.9582930663
 31
0.0
  0
LINE
  5
C0
330
46
100
AcDbEntity
  8
0
  6
Continuous
 62
     7
370
     0
100
AcDbLine
 10
-2346.2792567459
 20
573.9582930681
 30
0.0
 11
-2346.2792567459
 21
-573.9582930663
 31
0.0
  0
LINE
  5
C1
330
46
100
AcDbEntity
  8
0
  6
Continuous
 62
     7
370
     0
100
AcDbLine
 10
-2346.2792567459
 20
573.9582930681
 30
0.0
 11
-2383.5112465395
 21
573.9582930681
 31
0.0
  0
LINE
  5
C2
330
46
100
AcDbEntity
  8
0
  6
Continuous
 62
     7
370
     0
100
AcDbLine
 10
2250.7711090085
 20
573.7583183812
 30
0.0
 11
2250.7711090085
 21
283.6524408126
 31
0.0
  0
LINE
  5
C3
330
46
100
AcDbEntity
  8
0
  6
Continuous
 62
     7
370
     0
100
AcDbLine
 10
2213.053484564
 20
283.6524408126
 30
0.0
 11
2250.7711090085
 21
283.6524408126
 31
0.0
  0
LINE
  5
C4
330
46
100
AcDbEntity
  8
0
  6
Continuous
 62
     7
370
     0
100
AcDbLine
 10
2213.053484564
 20
573.7583183812
 30
0.0
 11
2213.053484564
 21
283.6524408126
 31
0.0
  0
LINE
  5
C5
330
46
100
AcDbEntity
  8
0
  6
Continuous
 62
     7
370
     0
100
AcDbLine
 10
2213.053484564
 20
573.7583183812
 30
0.0
 11
2250.7711090085
 21
573.7583183812
 31
0.0
  0
LINE
  5
C6
330
46
100
AcDbEntity
  8
0
  6
Continuous
 62
     7
370
     0
100
AcDbLine
 10
2279.9091879785
 20
573.7583183812
 30
0.0
 11
2317.1411777721
 21
573.7583183812
 31
0.0
  0
LINE
  5
C7
330
46
100
AcDbEntity
  8
0
  6
Continuous
 62
     7
370
     0
100
AcDbLine
 10
2317.1411777721
 20
573.7583183812
 30
0.0
 11
2317.1411777721
 21
283.6524408126
 31
0.0
  0
LINE
  5
C8
330
46
100
AcDbEntity
  8
0
  6
Continuous
 62
     7
370
     0
100
AcDbLine
 10
2279.9091879785
 20
283.6524408126
 30
0.0
 11
2317.1411777721
 21
283.6524408126
 31
0.0
  0
LINE
  5
C9
330
46
100
AcDbEntity
  8
0
  6
Continuous
 62
     7
370
     0
100
AcDbLine
 10
2279.9091879785
 20
573.7583183812
 30
0.0
 11
2279.9091879785
 21
283.6524408126
 31
0.0
  0
LINE
  5
CA
330
46
100
AcDbEntity
  8
0
  6
Continuous
 62
     7
370
     0
100
AcDbLine
 10
-993.6472756807
 20
507.2051566477
 30
0.0
 11
-993.6472756807
 21
-507.2051566459
 31
0.0
  0
LINE
  5
CB
330
46
100
AcDbEntity
  8
0
  6
Continuous
 62
     7
370
     0
100
AcDbLine
 10
-1060.4004121011
 20
-573.9582930663
 30
0.0
 11
-1456.354370875
 21
-573.9582930663
 31
0.0
  0
LINE
  5
CC
330
46
100
AcDbEntity
  8
0
  6
Continuous
 62
     7
370
     0
100
AcDbLine
 10
-1974.2007468551
 20
96.1246116184
 30
0.0
 11
-1510.4791090277
 21
-546.2755283086
 31
0.0
  0
LINE
  5
CD
330
46
100
AcDbEntity
  8
0
  6
Continuous
 62
     7
370
     0
100
AcDbLine
 10
-1974.2007468551
 20
-507.2051566459
 30
0.0
 11
-1974.2007468551
 21
96.1246116184
 31
0.0
  0
LINE
  5
CE
330
46
100
AcDbEntity
  8
0
  6
Continuous
 62
     7
370
     0
100
AcDbLine
 10
-2130.2925317474
 20
-573.9582930663
 30
0.0
 11
-2040.9538832755
 21
-573.9582930663
 31
0.0
  0
LINE
  5
CF
330
46
100
AcDbEntity
  8
0
  6
Continuous
 62
     7
370
     0
100
AcDbLine
 10
-2178.8559966974
 20
-525.3948281162
 30
0.0
 11
-2178.8559966974
 21
525.3948281181
 31
0.0
  0
LINE
  5
D0
330
46
100
AcDbEntity
  8
0
  6
Continuous
 62
     7
370
     0
100
AcDbLine
 10
-2130.2925317474
 20
573.9582930681
 30
0.0
 11
-1904.6160867366
 21
573.9582930681
 31
0.0
  0
LINE
  5
D1
330
46
100
AcDbEntity
  8
0
  6
Continuous
 62
     7
370
     0
100
AcDbLine
 10
-1849.2097281982
 20
544.4357442804
 30
0.0
 11
-1424.7753418163
 21
-87.2052069683
 31
0.0
  0
LINE
  5
D2
330
46
100
AcDbEntity
  8
0
  6
Continuous
 62
     7
370
     0
100
AcDbLine
 10
-1424.7753418163
 20
507.2051566477
 30
0.0
 11
-1424.7753418163
 21
-87.2052069683
 31
0.0
  0
LINE
  5
D3
330
46
100
AcDbEntity
  8
0
  6
Continuous
 62
     7
370
     0
100
AcDbLine
 10
-1358.0222053958
 20
573.9582930681
 30
0.0
 11
-1060.4004121011
 21
573.9582930681
 31
0.0
  0
LINE
  5
D4
330
46
100
AcDbEntity
  8
0
  6
Continuous
 62
     7
370
     0
100
AcDbLine
 10
1220.88881565
 20
-620.1013769303
 30
0.0
 11
857.3220294488
 21
-180.6134573319
 31
0.0
  0
LINE
  5
D5
330
46
100
AcDbEntity
  8
0
  6
Continuous
 62
     7
370
     0
100
AcDbLine
 10
1455.6369935895
 20
-551.9365296832
 30
0.0
 11
1220.88881565
 21
-620.1013769303
 31
0.0
  0
LINE
  5
D6
330
46
100
AcDbEntity
  8
0
  6
Continuous
 62
     7
370
     0
100
AcDbLine
 10
854.0342938844
 20
53.955029165
 30
0.0
 11
1455.6369935895
 21
-551.9365296832
 31
0.0
  0
LINE
  5
D7
330
46
100
AcDbEntity
  8
0
  6
Continuous
 62
     7
370
     0
100
AcDbLine
 10
997.3531139217
 20
842.0507369182
 30
0.0
 11
836.2330726758
 21
115.4396239506
 31
0.0
  0
LINE
  5
D8
330
46
100
AcDbEntity
  8
0
  6
Continuous
 62
     7
370
     0
100
AcDbLine
 10
785.0680696618
 20
780.5093629463
 30
0.0
 11
997.3531139217
 21
842.0507369182
 31
0.0
  0
LINE
  5
D9
330
46
100
AcDbEntity
  8
0
  6
Continuous
 62
     7
370
     0
100
AcDbLine
 10
717.0994751119
 20
308.7673198196
 30
0.0
 11
785.0680696618
 21
780.5093629463
 31
0.0
  0
LINE
  5
DA
330
46
100
AcDbEntity
  8
0
  6
Continuous
 62
     7
370
     0
100
AcDbLine
 10
304.2170068343
 20
642.3732772272
 30
0.0
 11
599.0460038457
 21
276.4085250094
 31
0.0
  0
LINE
  5
DB
330
46
100
AcDbEntity
  8
0
  6
Continuous
 62
     7
370
     0
100
AcDbLine
 10
85.7701321206
 20
580.483363205
 30
0.0
 11
304.2170068343
 21
642.3732772272
 31
0.0
  0
LINE
  5
DC
330
46
100
AcDbEntity
  8
0
  6
Continuous
 62
     7
370
     0
100
AcDbLine
 10
605.1036577001
 20
47.9657174036
 30
0.0
 11
85.7701321206
 21
580.483363205
 31
0.0
  0
LINE
  5
DD
330
46
100
AcDbEntity
  8
0
  6
Continuous
 62
     7
370
     0
100
AcDbLine
 10
425.0293300005
 20
-847.5817612057
 30
0.0
 11
622.2734931443
 21
-14.0116287708
 31
0.0
  0
LINE
  5
DE
330
46
100
AcDbEntity
  8
0
  6
Continuous
 62
     7
370
     0
100
AcDbLine
 10
658.0362044273
 20
-780.334167797
 30
0.0
 11
425.0293300005
 21
-847.5817612057
 31
0.0
  0
LINE
  5
DF
330
46
100
AcDbEntity
  8
0
  6
Continuous
 62
     7
370
     0
100
AcDbLine
 10
739.8186124642
 20
-213.6283628061
 30
0.0
 11
658.0362044273
 21
-780.334167797
 31
0.0
  0
LINE
  5
E0
330
46
100
AcDbEntity
  8
0
  6
Continuous
 62
     7
370
     0
100
AcDbLine
 10
-2213.5391192172
 20
-573.9582930663
 30
0.0
 11
-2250.7711090109
 21
-573.9582930663
 31
0.0
  0
LINE
  5
E1
330
46
100
AcDbEntity
  8
0
  6
Continuous
 62
     7
370
     0
100
AcDbLine
 10
-2250.7711090109
 20
573.9582930681
 30
0.0
 11
-2250.7711090109
 21
-573.9582930663
 31
0.0
  0
LINE
  5
E2
330
46
100
AcDbEntity
  8
0
  6
Continuous
 62
     7
370
     0
100
AcDbLine
 10
-2213.5391192172
 20
573.9582930681
 30
0.0
 11
-2250.7711090109
 21
573.9582930681
 31
0.0
  0
LINE
  5
E3
330
46
100
AcDbEntity
  8
0
  6
Continuous
 62
     7
370
     0
100
AcDbLine
 10
-2213.5391192172
 20
573.9582930681
 30
0.0
 11
-2213.5391192172
 21
-573.9582930663
 31
0.0
  0
LINE
  5
E4
330
46
100
AcDbEntity
  8
0
  6
Continuous
 62
     7
370
     0
100
AcDbLine
 10
-2317.1411777759
 20
573.9582930681
 30
0.0
 11
-2317.1411777759
 21
-573.9582930663
 31
0.0
  0
LINE
  5
E5
330
46
100
AcDbEntity
  8
0
  6
Continuous
 62
     7
370
     0
100
AcDbLine
 10
-2279.9091879822
 20
-573.9582930663
 30
0.0
 11
-2317.1411777759
 21
-573.9582930663
 31
0.0
  0
LINE
  5
E6
330
46
100
AcDbEntity
  8
0
  6
Continuous
 62
     7
370
     0
100
AcDbLine
 10
-2279.9091879822
 20
573.9582930681
 30
0.0
 11
-2279.9091879822
 21
-573.9582930663
 31
0.0
  0
LINE
  5
E7
330
46
100
AcDbEntity
  8
0
  6
Continuous
 62
     7
370
     0
100
AcDbLine
 10
-2279.9091879822
 20
573.9582930681
 30
0.0
 11
-2317.1411777759
 21
573.9582930681
 31
0.0
  0
LINE
  5
E8
330
46
100
AcDbEntity
  8
0
  6
Continuous
 62
     7
370
     0
100
AcDbLine
 10
329.7102372145
 20
-508.4417196303
 30
0.0
 11
329.7102372145
 21
-345.1183044144
 31
0.0
  0
LINE
  5
E9
330
46
100
AcDbEntity
  8
0
  6
Continuous
 62
     7
370
     0
100
AcDbLine
 10
262.9571007941
 20
-278.365167994
 30
0.0
 11
-479.9721276284
 21
-278.365167994
 31
0.0
  0
LINE
  5
EA
330
46
100
AcDbEntity
  8
0
  6
Continuous
 62
     7
370
     0
100
AcDbLine
 10
-479.9721276284
 20
-278.365167994
 30
0.0
 11
-479.9721276284
 21
-128.6369144868
 31
0.0
  0
LINE
  5
EB
330
46
100
AcDbEntity
  8
0
  6
Continuous
 62
     7
370
     0
100
AcDbLine
 10
-479.9721276284
 20
-128.6369144868
 30
0.0
 11
76.3095378404
 21
-128.6369144868
 31
0.0
  0
LINE
  5
EC
330
46
100
AcDbEntity
  8
0
  6
Continuous
 62
     7
370
     0
100
AcDbLine
 10
143.0626742609
 20
-61.8837780664
 30
0.0
 11
143.0626742609
 21
88.3055883535
 31
0.0
  0
LINE
  5
ED
330
46
100
AcDbEntity
  8
0
  6
Continuous
 62
     7
370
     0
100
AcDbLine
 10
76.3095378404
 20
155.0587247739
 30
0.0
 11
-479.9721276284
 21
155.0587247739
 31
0.0
  0
LINE
  5
EE
330
46
100
AcDbEntity
  8
0
  6
Continuous
 62
     7
370
     0
100
AcDbLine
 10
-479.9721276284
 20
155.0587247739
 30
0.0
 11
-479.9721276284
 21
291.6182042017
 31
0.0
  0
LINE
  5
EF
330
46
100
AcDbEntity
  8
0
  6
Continuous
 62
     7
370
     0
100
AcDbLine
 10
-479.9721276284
 20
291.6182042017
 30
0.0
 11
180.9997552128
 21
291.6182042017
 31
0.0
  0
LINE
  5
F0
330
46
100
AcDbEntity
  8
0
  6
Continuous
 62
     7
370
     0
100
AcDbLine
 10
483.9054961977
 20
-18.9772882126
 30
0.0
 11
180.9997552128
 21
291.6182042017
 31
0.0
  0
LINE
  5
F1
330
46
100
AcDbEntity
  8
0
  6
Continuous
 62
     7
370
     0
100
AcDbLine
 10
268.8003349693
 20
-928.0294744709
 30
0.0
 11
483.9054961977
 21
-18.9772882126
 31
0.0
  0
LINE
  5
F2
330
46
100
AcDbEntity
  8
0
  6
Continuous
 62
     7
370
     0
100
AcDbLine
 10
736.4597814394
 20
-896.6557546383
 30
0.0
 11
352.269647062
 21
-1007.5360109046
 31
0.0
  0
LINE
  5
F3
330
46
100
AcDbEntity
  8
0
  6
Continuous
 62
     7
370
     0
100
AcDbLine
 10
850.4458073837
 20
-381.7510589482
 30
0.0
 11
784.018491163
 21
-842.0547674823
 31
0.0
  0
LINE
  5
F4
330
46
100
AcDbEntity
  8
0
  6
Continuous
 62
     7
370
     0
100
AcDbLine
 10
1145.9652363113
 20
-738.9817630434
 30
0.0
 11
850.4458073837
 21
-381.7510589482
 31
0.0
  0
LINE
  5
F5
330
46
100
AcDbEntity
  8
0
  6
Continuous
 62
     7
370
     0
100
AcDbLine
 10
1708.1789140283
 20
-617.625659612
 30
0.0
 11
1216.0144581236
 21
-760.5375887196
 31
0.0
  0
LINE
  5
F6
330
46
100
AcDbEntity
  8
0
  6
Continuous
 62
     7
370
     0
100
AcDbLine
 10
1665.5761709176
 20
-575.0557694428
 30
0.0
 11
1708.1789140283
 21
-617.625659612
 31
0.0
  0
LINE
  5
F7
330
46
100
AcDbEntity
  8
0
  6
Continuous
 62
     7
370
     0
100
AcDbLine
 10
1903.3537376203
 20
-575.0557694428
 30
0.0
 11
1665.5761709176
 21
-575.0557694428
 31
0.0
  0
LINE
  5
F8
330
46
100
AcDbEntity
  8
0
  6
Continuous
 62
     7
370
     0
100
AcDbLine
 10
1970.1068740407
 20
283.6524408126
 30
0.0
 11
1970.1068740407
 21
-508.3026330224
 31
0.0
  0
LINE
  5
F9
330
46
100
AcDbEntity
  8
0
  6
Continuous
 62
     7
370
     0
100
AcDbLine
 10
2129.8480812878
 20
283.6524408126
 30
0.0
 11
1970.1068740407
 21
283.6524408126
 31
0.0
  0
LINE
  5
FA
330
46
100
AcDbEntity
  8
0
  6
Continuous
 62
     7
370
     0
100
AcDbLine
 10
2178.4115462378
 20
525.1948534311
 30
0.0
 11
2178.4115462378
 21
332.2159057627
 31
0.0
  0
LINE
  5
FB
330
46
100
AcDbEntity
  8
0
  6
Continuous
 62
     7
370
     0
100
AcDbLine
 10
1174.7081655132
 20
573.7583183812
 30
0.0
 11
2129.8480812878
 21
573.7583183812
 31
0.0
  0
LINE
  5
FC
330
46
100
AcDbEntity
  8
0
  6
Continuous
 62
     7
370
     0
100
AcDbLine
 10
1107.9550290928
 20
349.936999053
 30
0.0
 11
1107.9550290928
 21
507.0051819608
 31
0.0
  0
LINE
  5
FD
330
46
100
AcDbEntity
  8
0
  6
Continuous
 62
     7
370
     0
100
AcDbLine
 10
1524.5151466923
 20
283.1838626326
 30
0.0
 11
1174.7081655132
 21
283.1838626326
 31
0.0
  0
LINE
  5
FE
330
46
100
AcDbEntity
  8
0
  6
Continuous
 62
     7
370
     0
100
AcDbLine
 10
1524.5151466923
 20
-431.8251363873
 30
0.0
 11
1524.5151466923
 21
283.1838626326
 31
0.0
  0
LINE
  5
FF
330
46
100
AcDbEntity
  8
0
  6
Continuous
 62
     7
370
     0
100
AcDbLine
 10
974.4685441328
 20
122.1427789703
 30
0.0
 11
1524.5151466923
 21
-431.8251363873
 31
0.0
  0
LINE
  5
100
330
46
100
AcDbEntity
  8
0
  6
Continuous
 62
     7
370
     0
100
AcDbLine
 10
1152.0652570309
 20
923.0595626328
 30
0.0
 11
974.4685441328
 21
122.1427789703
 31
0.0
  0
LINE
  5
101
330
46
100
AcDbEntity
  8
0
  6
Continuous
 62
     7
370
     0
100
AcDbLine
 10
706.5496827948
 20
896.7500718723
 30
0.0
 11
1068.30863564
 21
1001.6238894432
 31
0.0
  0
LINE
  5
102
330
46
100
AcDbEntity
  8
0
  6
Continuous
 62
     7
370
     0
100
AcDbLine
 10
606.8226598307
 20
479.5618143845
 30
0.0
 11
659.0652577406
 21
842.1561866746
 31
0.0
  0
LINE
  5
103
330
46
100
AcDbEntity
  8
0
  6
Continuous
 62
     7
370
     0
100
AcDbLine
 10
380.4831563096
 20
760.5120640643
 30
0.0
 11
606.8226598307
 21
479.5618143845
 31
0.0
  0
LINE
  5
104
330
46
100
AcDbEntity
  8
0
  6
Continuous
 62
     7
370
     0
100
AcDbLine
 10
-164.7602723046
 20
648.2646793677
 30
0.0
 11
310.3043995511
 21
782.8590137312
 31
0.0
  0
LINE
  5
105
330
46
100
AcDbEntity
  8
0
  6
Continuous
 62
     7
370
     0
100
AcDbLine
 10
-91.0078891147
 20
574.5691760257
 30
0.0
 11
-164.7602723046
 21
648.2646793677
 31
0.0
  0
LINE
  5
106
330
46
100
AcDbEntity
  8
0
  6
Continuous
 62
     7
370
     0
100
AcDbLine
 10
-860.1216033391
 20
574.5691760257
 30
0.0
 11
-91.0078891147
 21
574.5691760257
 31
0.0
  0
LINE
  5
107
330
46
100
AcDbEntity
  8
0
  6
Continuous
 62
     7
370
     0
100
AcDbLine
 10
-926.8747397595
 20
507.8160396053
 30
0.0
 11
-926.8747397595
 21
-508.4417196303
 31
0.0
  0
LINE
  5
108
330
46
100
AcDbEntity
  8
0
  6
Continuous
 62
     7
370
     0
100
AcDbLine
 10
-860.1216033391
 20
-575.1948560507
 30
0.0
 11
262.9571007941
 21
-575.1948560508
 31
0.0
  0
ENDBLK
  5
48
330
46
100
AcDbEntity
  8
0
100
AcDbBlockEnd
  0
BLOCK
  5
180
330
17F
100
AcDbEntity
  8
0
100
AcDbBlockBegin
  2
_D
 70
     0
 10
0.0
 20
0.0
 30
0.0
  3
_D
  1

  0
SOLID
  5
182
330
17F
100
AcDbEntity
  8
MEDIÇÕES
100
AcDbTrace
 10
918.1327726245
 20
362.7363786311
 30
0.0
 11
957.7567726245
 21
356.6403786311
 31
0.0
 12
957.7567726245
 22
368.8323786311
 32
0.0
 13
957.7567726245
 23
368.8323786311
 33
0.0
  0
SOLID
  5
183
330
17F
100
AcDbEntity
  8
MEDIÇÕES
100
AcDbTrace
 10
1377.3863282502
 20
362.7363786311
 30
0.0
 11
1337.7623282502
 21
368.8323786311
 31
0.0
 12
1337.7623282502
 22
356.6403786311
 32
0.0
 13
1337.7623282502
 23
356.6403786311
 33
0.0
  0
LINE
  5
184
330
17F
100
AcDbEntity
  8
MEDIÇÕES
100
AcDbLine
 10
918.1327726245
 20
486.0643527473
 30
0.0
 11
918.1327726245
 21
350.7363786311
 31
0.0
  0
LINE
  5
185
330
17F
100
AcDbEntity
  8
MEDIÇÕES
100
AcDbLine
 10
1377.3863282502
 20
486.0643527473
 30
0.0
 11
1377.3863282502
 21
350.7363786311
 31
0.0
  0
LINE
  5
186
330
17F
100
AcDbEntity
  8
MEDIÇÕES
100
AcDbLine
 10
918.1327726245
 20
362.7363786311
 30
0.0
 11
1377.3863282502
 21
362.7363786311
 31
0.0
  0
MTEXT
  5
187
330
17F
100
AcDbEntity
  8
MEDIÇÕES
100
AcDbMText
 10
1060.8720492572
 20
416.8772216061
 30
-29.4
 40
42.0
 41
0.0
 71
     1
 72
     1
  1
459,3
  7
SLDTEXTSTYLE1
 73
     1
 44
1.0
  0
ENDBLK
  5
181
330
17F
100
AcDbEntity
  8
0
100
AcDbBlockEnd
  0
BLOCK
  5
290
330
28F
100
AcDbEntity
  8
0
100
AcDbBlockBegin
  2
_D_1
 70
     0
 10
0.0
 20
0.0
 30
0.0
  3
_D_1
  1

  0
SOLID
  5
292
330
28F
100
AcDbEntity
  8
MEDIÇÕES
100
AcDbTrace
 10
1728.9542308486
 20
488.1392734704
 30
0.0
 11
1735.0502308486
 21
527.7632734704
 31
0.0
 12
1722.8582308486
 22
527.7632734704
 32
0.0
 13
1722.8582308486
 23
527.7632734704
 33
0.0
  0
SOLID
  5
293
330
28F
100
AcDbEntity
  8
MEDIÇÕES
100
AcDbTrace
 10
1728.9542308486
 20
1220.5643527473
 30
0.0
 11
1722.8582308486
 21
1180.9403527473
 31
0.0
 12
1735.0502308486
 22
1180.9403527473
 32
0.0
 13
1735.0502308486
 23
1180.9403527473
 33
0.0
  0
LINE
  5
294
330
28F
100
AcDbEntity
  8
MEDIÇÕES
100
AcDbLine
 10
1881.6490302575
 20
488.1392734704
 30
0.0
 11
1716.9542308486
 21
488.1392734704
 31
0.0
  0
LINE
  5
295
330
28F
100
AcDbEntity
  8
MEDIÇÕES
100
AcDbLine
 10
1891.7393252035
 20
1220.5643527473
 30
0.0
 11
1716.9542308486
 21
1220.5643527473
 31
0.0
  0
LINE
  5
296
330
28F
100
AcDbEntity
  8
MEDIÇÕES
100
AcDbLine
 10
1728.9542308486
 20
488.1392734704
 30
0.0
 11
1728.9542308486
 21
1220.5643527473
 31
0.0
  0
MTEXT
  5
297
330
28F
100
AcDbEntity
  8
MEDIÇÕES
100
AcDbMText
 10
1674.8133878737
 20
767.4492038606
 30
0.1
 40
42.0
 41
0.0
 71
     1
 72
     1
  1
732,4
  7
SLDTEXTSTYLE1
 11
6.123233995736766E-17
 21
1.0
 31
0.0
 73
     1
 44
1.0
  0
ENDBLK
  5
291
330
28F
100
AcDbEntity
  8
0
100
AcDbBlockEnd
  0
BLOCK
  5
2D1
330
2D0
100
AcDbEntity
  8
0
100
AcDbBlockBegin
  2
_D_2
 70
     0
 10
0.0
 20
0.0
 30
0.0
  3
_D_2
  1

  0
SOLID
  5
2D3
330
2D0
100
AcDbEntity
  8
MEDIÇÕES
100
AcDbTrace
 10
841.0867162623
 20
1974.0616092206
 30
0.0
 11
834.9907162623
 21
1934.4376092206
 31
0.0
 12
847.1827162623
 22
1934.4376092206
 32
0.0
 13
847.1827162623
 23
1934.4376092206
 33
0.0
  0
SOLID
  5
2D4
330
2D0
100
AcDbEntity
  8
MEDIÇÕES
100
AcDbTrace
 10
841.0867162623
 20
1570.0616092206
 30
0.0
 11
847.1827162623
 21
1609.6856092206
 31
0.0
 12
834.9907162623
 22
1609.6856092206
 32
0.0
 13
834.9907162623
 23
1609.6856092206
 33
0.0
  0
LINE
  5
2D5
330
2D0
100
AcDbEntity
  8
MEDIÇÕES
100
AcDbLine
 10
1007.2922571373
 20
1974.0616092206
 30
0.0
 11
829.0867162623
 21
1974.0616092206
 31
0.0
  0
LINE
  5
2D6
330
2D0
100
AcDbEntity
  8
MEDIÇÕES
100
AcDbLine
 10
1135.7595504374
 20
1570.0616092206
 30
0.0
 11
829.0867162623
 21
1570.0616092206
 31
0.0
  0
LINE
  5
2D7
330
2D0
100
AcDbEntity
  8
MEDIÇÕES
100
AcDbLine
 10
841.0867162623
 20
1974.0616092206
 30
0.0
 11
841.0867162623
 21
1570.0616092206
 31
0.0
  0
MTEXT
  5
2D8
330
2D0
100
AcDbEntity
  8
MEDIÇÕES
100
AcDbMText
 10
786.9458732874
 20
1712.5116463223
 30
4.0139870581
 40
42.0
 41
0.0
 71
     1
 72
     1
  1
404
  7
SLDTEXTSTYLE1
 11
-7.044195017643634E-15
 21
1.0
 31
0.0
 73
     1
 44
1.0
  0
ENDBLK
  5
2D2
330
2D0
100
AcDbEntity
  8
0
100
AcDbBlockEnd
  0
ENDSEC
  0
SECTION
  2
ENTITIES
  0
LINE
  5
109
330
1F
100
AcDbEntity
  8
0
  6
Continuous
 62
     7
370
     0
100
AcDbLine
 10
88.3783462741
 20
2418.3055754494
 30
0.0
 11
3490.011651142
 21
2418.3055754494
 31
0.0
  0
LINE
  5
10A
330
1F
100
AcDbEntity
  8
0
  6
Continuous
 62
     7
370
     0
100
AcDbLine
 10
88.3783462741
 20
2418.3055754494
 30
0.0
 11
88.3783462741
 21
62.4074583834
 31
0.0
  0
LINE
  5
10B
330
1F
100
AcDbEntity
  8
0
  6
Continuous
 62
     7
370
     0
100
AcDbLine
 10
88.3783462741
 20
62.4074583834
 30
0.0
 11
3490.011651142
 21
62.4074583834
 31
0.0
  0
LINE
  5
10C
330
1F
100
AcDbEntity
  8
0
  6
Continuous
 62
     8
420
  8421504
370
    40
100
AcDbLine
 10
2478.3644152595
 20
347.5327559785
 30
0.0
 11
3490.011651142
 21
347.5327559785
 31
0.0
  0
LINE
  5
10D
330
1F
100
AcDbEntity
  8
0
  6
Continuous
 62
     7
370
     0
100
AcDbLine
 10
3490.011651142
 20
2418.3055754494
 30
0.0
 11
3490.011651142
 21
62.4074583834
 31
0.0
  0
LINE
  5
10E
330
1F
100
AcDbEntity
  8
0
  6
Continuous
 62
     8
420
  8421504
370
    40
100
AcDbLine
 10
2478.3644152595
 20
292.8323994482
 30
0.0
 11
3490.011651142
 21
292.8323994482
 31
0.0
  0
LINE
  5
10F
330
1F
100
AcDbEntity
  8
0
  6
Continuous
 62
     8
420
  8421504
370
    40
100
AcDbLine
 10
2478.3644152595
 20
125.3823284372
 30
0.0
 11
3490.011651142
 21
125.3823284372
 31
0.0
  0
INSERT
  5
110
330
1F
100
AcDbEntity
  8
0
  6
Continuous
 62
     7
100
AcDbBlockReference
  2
Logo_Next.V3
 10
3039.940011983
 20
462.1635052567
 30
0.0
 41
0.088
 42
0.088
 43
0.088
  0
MTEXT
  5
112
330
1F
100
AcDbEntity
  8
0
  6
Continuous
 62
     7
370
     0
100
AcDbMText
 10
3342.0
 20
101.203217891
 30
0.0
 40
18.0
 41
0.0
 71
     1
 72
     1
  1
SHEET 1 OF 1
  7
SLDTEXTSTYLE0
 73
     1
 44
1.0
  0
MTEXT
  5
114
330
1F
100
AcDbEntity
  8
0
  6
Continuous
 62
     7
370
     0
100
AcDbMText
 10
2484.1606114075
 20
323.2972836088
 30
0.0
 40
15.875
 41
0.0
 71
     1
 72
     1
  1
TITLE:
  7
SLDTEXTSTYLE1
 73
     1
 44
1.0
  0
MTEXT
  5
116
330
1F
100
AcDbEntity
  8
0
  6
Continuous
 62
     7
370
     0
100
AcDbMText
 10
2626.8229768291
 20
223.6837645739
 30
0.0
 40
31.75
 41
0.0
 71
     1
 72
     1
  1
NC00754
  7
SLDTEXTSTYLE2
 73
     1
 44
1.0
  0
MTEXT
  5
117
330
1F
100
AcDbEntity
  8
0
  6
Continuous
 62
     7
370
     0
100
AcDbMText
 10
3312.0454294709
 20
159.0799434284
 30
0.0
 40
25.4
 41
0.0
 71
     1
 72
     1
  1
08-10-2014
  7
SLDTEXTSTYLE2
 73
     1
 44
1.0
  0
MTEXT
  5
118
330
1F
100
AcDbEntity
  8
0
  6
Continuous
 62
     7
370
     0
100
AcDbMText
 10
2484.1606114075
 20
207.5413415231
 30
0.0
 40
15.875
 41
0.0
 71
     1
 72
     1
  1
Reference :
  7
SLDTEXTSTYLE1
 73
     1
 44
1.0
  0
MTEXT
  5
119
330
1F
100
AcDbEntity
  8
0
  6
Continuous
 62
     7
370
     0
100
AcDbMText
 10
3270.06798473
 20
149.3239333913
 30
0.0
 40
15.875
 41
0.0
 71
     2
 72
     1
  1
Date:
  7
SLDTEXTSTYLE1
 73
     1
 44
1.0
  0
MTEXT
  5
11A
330
1F
100
AcDbEntity
  8
0
  6
Continuous
 62
     7
370
     0
100
AcDbMText
 10
2484.1606114075
 20
271.4018657695
 30
0.0
 40
15.875
 41
0.0
 71
     1
 72
     1
  1
REVISION:
  7
SLDTEXTSTYLE1
 73
     1
 44
1.0
  0
MTEXT
  5
11B
330
1F
100
AcDbEntity
  8
0
  6
Continuous
 62
     7
370
     0
100
AcDbMText
 10
2626.8229768291
 20
280.8756543328
 30
0.0
 40
25.4
 41
0.0
 71
     1
 72
     1
  1
V2
  7
SLDTEXTSTYLE1
 73
     1
 44
1.0
  0
MTEXT
  5
11C
330
1F
100
AcDbEntity
  8
0
  6
Continuous
 62
     7
370
     0
100
AcDbMText
 10
3038.2164173603
 20
333.9259306346
 30
0.0
 40
25.4
 41
0.0
 71
     2
 72
     1
  1
NEXT X15 - Passive Full-Range Speaker/Monitor
  7
SLDTEXTSTYLE1
 73
     1
 44
1.0
  0
MTEXT
  5
11D
330
1F
100
AcDbEntity
  8
MEDIÇÕES
100
AcDbMText
 10
2896.9076258299
 20
101.9475723304
 30
0.0
 40
19.05
 41
0.0
 71
     1
 72
     1
  1
All dimensions in mm
  7
SLDTEXTSTYLE1
 73
     1
 44
1.0
  0
MTEXT
  5
11E
330
1F
100
AcDbEntity
  8
0
  6
Continuous
 62
     7
370
     0
100
AcDbMText
 10
2827.4700693022
 20
409.5791116492
 30
0.0
 40
38.4
 41
0.0
 71
     1
 72
     1
  1
proaudio
  7
SLDTEXTSTYLE1
 73
     1
 44
1.0
  0
LINE
  5
11F
330
1F
100
AcDbEntity
  8
0
  6
Continuous
 62
     7
370
    15
100
AcDbLine
 10
1337.9413720221
 20
490.5643432105
 30
0.0
 11
1338.5696347803
 21
488.1392686332
 31
0.0
  0
LINE
  5
120
330
1F
100
AcDbEntity
  8
0
  6
Continuous
 62
     7
370
    15
100
AcDbLine
 10
1354.6084549279
 20
488.1392686332
 30
0.0
 11
1355.2367325873
 21
490.5643432105
 31
0.0
  0
ARC
  5
121
330
1F
100
AcDbEntity
  8
0
  6
Continuous
 62
     7
370
    15
100
AcDbCircle
 10
1354.5116561404
 20
488.1643527473
 30
0.0
 40
0.100000000000125
100
AcDbArc
 50
270.0
 51
345.4755709219
  0
ARC
  5
122
330
1F
100
AcDbEntity
  8
0
  6
Continuous
 62
     7
370
    15
100
AcDbCircle
 10
1338.6664444991
 20
488.1643527473
 30
0.0
 40
0.0999999999999659
100
AcDbArc
 50
194.5244290781
 51
270.0
  0
LINE
  5
123
330
1F
100
AcDbEntity
  8
0
  6
Continuous
 62
     7
370
    15
100
AcDbLine
 10
1027.5257688016
 20
490.5643432105
 30
0.0
 11
1028.1540390105
 21
488.1392686332
 31
0.0
  0
LINE
  5
124
330
1F
100
AcDbEntity
  8
0
  6
Continuous
 62
     7
370
    15
100
AcDbLine
 10
1044.192859158
 20
488.1392686332
 30
0.0
 11
1044.8211293668
 21
490.5643432105
 31
0.0
  0
ARC
  5
125
330
1F
100
AcDbEntity
  8
0
  6
Continuous
 62
     7
370
    15
100
AcDbCircle
 10
1044.0960566935
 20
488.1643527473
 30
0.0
 40
0.0999999999999659
100
AcDbArc
 50
270.0
 51
345.4755709219
  0
ARC
  5
126
330
1F
100
AcDbEntity
  8
0
  6
Continuous
 62
     7
370
    15
100
AcDbCircle
 10
1028.2508450522
 20
488.1643527473
 30
0.0
 40
0.1000000000001108
100
AcDbArc
 50
194.524429078
 51
270.0
  0
LINE
  5
127
330
1F
100
AcDbEntity
  8
0
  6
Continuous
 62
     7
370
    15
100
AcDbLine
 10
1246.8026589603
 20
490.5643432105
 30
0.0
 11
1247.4309291691
 21
488.1392686332
 31
0.0
  0
LINE
  5
128
330
1F
100
AcDbEntity
  8
0
  6
Continuous
 62
     7
370
    15
100
AcDbLine
 10
1263.4697493166
 20
488.1392686332
 30
0.0
 11
1264.098026976
 21
490.5643432105
 31
0.0
  0
ARC
  5
129
330
1F
100
AcDbEntity
  8
0
  6
Continuous
 62
     7
370
    15
100
AcDbCircle
 10
1263.3729484382
 20
488.1643527473
 30
0.0
 40
0.1000000000000227
100
AcDbArc
 50
270.0
 51
345.4755709219
  0
ARC
  5
12A
330
1F
100
AcDbEntity
  8
0
  6
Continuous
 62
     7
370
    15
100
AcDbCircle
 10
1247.5277367969
 20
488.1643527473
 30
0.0
 40
0.1000000000000227
100
AcDbArc
 50
194.5244290781
 51
270.0
  0
LINE
  5
12B
330
1F
100
AcDbEntity
  8
0
  6
Continuous
 62
     7
370
    15
100
AcDbLine
 10
940.2823682875
 20
490.5643432105
 30
0.0
 11
940.9106459469
 21
488.1392686332
 31
0.0
  0
LINE
  5
12C
330
1F
100
AcDbEntity
  8
0
  6
Continuous
 62
     7
370
    15
100
AcDbLine
 10
956.9494660944
 20
488.1392686332
 30
0.0
 11
957.5777288527
 21
490.5643432105
 31
0.0
  0
ARC
  5
12D
330
1F
100
AcDbEntity
  8
0
  6
Continuous
 62
     7
370
    15
100
AcDbCircle
 10
956.8526563757
 20
488.1643527473
 30
0.0
 40
0.1000000000001108
100
AcDbArc
 50
270.0
 51
345.475570922
  0
ARC
  5
12E
330
1F
100
AcDbEntity
  8
0
  6
Continuous
 62
     7
370
    15
100
AcDbCircle
 10
941.0074447344
 20
488.1643527473
 30
0.0
 40
0.1000000000000227
100
AcDbArc
 50
194.524429078
 51
270.0
  0
LINE
  5
12F
330
1F
100
AcDbEntity
  8
0
  6
Continuous
 62
     7
370
    15
100
AcDbLine
 10
925.1327749342
 20
1205.5643467868
 30
0.0
 11
925.1327749342
 21
505.5643587077
 31
0.0
  0
LINE
  5
130
330
1F
100
AcDbEntity
  8
0
  6
Continuous
 62
     7
370
    15
100
AcDbLine
 10
1370.3863259405
 20
505.5643587077
 30
0.0
 11
1370.3863259405
 21
1205.5643467868
 31
0.0
  0
LINE
  5
131
330
1F
100
AcDbEntity
  8
0
  6
Continuous
 62
     7
370
    15
100
AcDbLine
 10
921.155506
 20
1203.5643427337
 30
0.0
 11
921.155506
 21
507.5643627608
 31
0.0
  0
LINE
  5
132
330
1F
100
AcDbEntity
  8
0
  6
Continuous
 62
     7
370
    15
100
AcDbLine
 10
1374.3635948748
 20
507.5643627608
 30
0.0
 11
1374.3635948748
 21
1203.5643427337
 31
0.0
  0
ARC
  5
133
330
1F
100
AcDbEntity
  8
0
  6
Continuous
 62
     7
370
    15
100
AcDbCircle
 10
920.1327726245
 20
1207.5643527473
 30
0.0
 40
2.0
100
AcDbArc
 50
180.0
 51
270.0
  0
ARC
  5
134
330
1F
100
AcDbEntity
  8
0
  6
Continuous
 62
     7
370
    15
100
AcDbCircle
 10
925.9327726245
 20
1212.7643527473
 30
0.0
 40
7.799999999999955
100
AcDbArc
 50
90.0
 51
180.0
  0
LINE
  5
135
330
1F
100
AcDbEntity
  8
0
  6
Continuous
 62
     7
370
    15
100
AcDbLine
 10
918.1327756495
 20
1212.7643494571
 30
0.0
 11
918.1327756495
 21
1207.5643508399
 31
0.0
  0
LINE
  5
136
330
1F
100
AcDbEntity
  8
0
  6
Continuous
 62
     7
370
    15
100
AcDbLine
 10
1377.3863252253
 20
1207.5643508399
 30
0.0
 11
1377.3863252253
 21
1212.7643494571
 31
0.0
  0
ARC
  5
137
330
1F
100
AcDbEntity
  8
0
  6
Continuous
 62
     7
370
    15
100
AcDbCircle
 10
1375.3863282502
 20
1207.5643527473
 30
0.0
 40
2.0
100
AcDbArc
 50
270.0
 51
0.0
  0
ARC
  5
138
330
1F
100
AcDbEntity
  8
0
  6
Continuous
 62
     7
370
    15
100
AcDbCircle
 10
1369.5863282502
 20
1212.7643527473
 30
0.0
 40
7.799999999999955
100
AcDbArc
 50
0.0
 51
90.0
  0
LINE
  5
139
330
1F
100
AcDbEntity
  8
0
  6
Continuous
 62
     7
370
    15
100
AcDbLine
 10
918.1327756495
 20
502.5643675292
 30
0.0
 11
918.1327756495
 21
498.0643658603
 31
0.0
  0
ARC
  5
13A
330
1F
100
AcDbEntity
  8
0
  6
Continuous
 62
     7
370
    15
100
AcDbCircle
 10
921.1327726245
 20
502.5643527473
 30
0.0
 40
3.0
100
AcDbArc
 50
90.0
 51
180.0
  0
ARC
  5
13B
330
1F
100
AcDbEntity
  8
0
  6
Continuous
 62
     7
370
    15
100
AcDbCircle
 10
925.6327726245
 20
498.0643527473
 30
0.0
 40
7.500000000000057
100
AcDbArc
 50
180.0
 51
270.0
  0
LINE
  5
13C
330
1F
100
AcDbEntity
  8
0
  6
Continuous
 62
     7
370
    15
100
AcDbLine
 10
1377.3863252253
 20
498.0643658603
 30
0.0
 11
1377.3863252253
 21
502.5643675292
 31
0.0
  0
ARC
  5
13D
330
1F
100
AcDbEntity
  8
0
  6
Continuous
 62
     7
370
    15
100
AcDbCircle
 10
1369.8863282502
 20
498.0643527473
 30
0.0
 40
7.500000000000227
100
AcDbArc
 50
270.0
 51
0.0
  0
ARC
  5
13E
330
1F
100
AcDbEntity
  8
0
  6
Continuous
 62
     7
370
    15
100
AcDbCircle
 10
1374.3863282502
 20
502.5643527473
 30
0.0
 40
3.0
100
AcDbArc
 50
0.0
 51
90.0
  0
LINE
  5
13F
330
1F
100
AcDbEntity
  8
0
  6
Continuous
 62
     7
370
    15
100
AcDbLine
 10
1354.1910436005
 20
488.0643455947
 30
0.0
 11
1338.6664476246
 21
488.0643455947
 31
0.0
  0
LINE
  5
140
330
1F
100
AcDbEntity
  8
0
  6
Continuous
 62
     7
370
    15
100
AcDbLine
 10
1354.5116569847
 20
488.0643455947
 30
0.0
 11
1354.1910436005
 21
488.0643455947
 31
0.0
  0
LINE
  5
141
330
1F
100
AcDbEntity
  8
0
  6
Continuous
 62
     7
370
    15
100
AcDbLine
 10
1043.77544038
 20
488.0643455947
 30
0.0
 11
1028.2508444042
 21
488.0643455947
 31
0.0
  0
LINE
  5
142
330
1F
100
AcDbEntity
  8
0
  6
Continuous
 62
     7
370
    15
100
AcDbLine
 10
1044.0960537643
 20
488.0643455947
 30
0.0
 11
1043.77544038
 21
488.0643455947
 31
0.0
  0
LINE
  5
143
330
1F
100
AcDbEntity
  8
0
  6
Continuous
 62
     7
370
    15
100
AcDbLine
 10
1263.0523305387
 20
488.0643455947
 30
0.0
 11
1247.5277345628
 21
488.0643455947
 31
0.0
  0
LINE
  5
144
330
1F
100
AcDbEntity
  8
0
  6
Continuous
 62
     7
370
    15
100
AcDbLine
 10
1263.3729513735
 20
488.0643455947
 30
0.0
 11
1263.0523305387
 21
488.0643455947
 31
0.0
  0
LINE
  5
145
330
1F
100
AcDbEntity
  8
0
  6
Continuous
 62
     7
370
    15
100
AcDbLine
 10
956.5320398659
 20
488.0643455947
 30
0.0
 11
941.00744389
 21
488.0643455947
 31
0.0
  0
LINE
  5
146
330
1F
100
AcDbEntity
  8
0
  6
Continuous
 62
     7
370
    15
100
AcDbLine
 10
956.8526532502
 20
488.0643455947
 30
0.0
 11
956.5320398659
 21
488.0643455947
 31
0.0
  0
ARC
  5
147
330
1F
100
AcDbEntity
  8
0
  6
Continuous
 62
     7
370
    15
100
AcDbCircle
 10
923.1554999393
 20
507.5643527473
 30
0.0
 40
2.000000000000114
100
AcDbArc
 50
180.0
 51
270.0
  0
ARC
  5
148
330
1F
100
AcDbEntity
  8
0
  6
Continuous
 62
     7
370
    15
100
AcDbCircle
 10
923.1554999393
 20
1203.5643527473
 30
0.0
 40
2.000000000000114
100
AcDbArc
 50
90.0
 51
180.0
  0
ARC
  5
149
330
1F
100
AcDbEntity
  8
0
  6
Continuous
 62
     7
370
    15
100
AcDbCircle
 10
1372.3636009355
 20
1203.5643527473
 30
0.0
 40
2.000000000000227
100
AcDbArc
 50
0.0
 51
90.0
  0
ARC
  5
14A
330
1F
100
AcDbEntity
  8
0
  6
Continuous
 62
     7
370
    15
100
AcDbCircle
 10
1372.3636009355
 20
507.5643527473
 30
0.0
 40
2.000000000000227
100
AcDbArc
 50
270.0
 51
0.0
  0
LINE
  5
14B
330
1F
100
AcDbEntity
  8
0
  6
Continuous
 62
     7
370
    15
100
AcDbLine
 10
1358.0014493317
 20
1212.7643494571
 30
0.0
 11
937.5176515431
 21
1212.7643494571
 31
0.0
  0
LINE
  5
14C
330
1F
100
AcDbEntity
  8
0
  6
Continuous
 62
     7
370
    15
100
AcDbLine
 10
1358.0014493317
 20
1212.7643494571
 30
0.0
 11
1358.0014493317
 21
1207.5643508399
 31
0.0
  0
LINE
  5
14D
330
1F
100
AcDbEntity
  8
0
  6
Continuous
 62
     7
370
    15
100
AcDbLine
 10
937.5176515431
 20
1207.5643508399
 30
0.0
 11
1358.0014493317
 21
1207.5643508399
 31
0.0
  0
LINE
  5
14E
330
1F
100
AcDbEntity
  8
0
  6
Continuous
 62
     7
370
    15
100
AcDbLine
 10
937.5176515431
 20
1212.7643494571
 30
0.0
 11
937.5176515431
 21
1207.5643508399
 31
0.0
  0
LINE
  5
14F
330
1F
100
AcDbEntity
  8
0
  6
Continuous
 62
     7
370
    15
100
AcDbLine
 10
1357.5838889927
 20
1205.5643467868
 30
0.0
 11
937.9352118821
 21
1205.5643467868
 31
0.0
  0
ARC
  5
150
330
1F
100
AcDbEntity
  8
0
  6
Continuous
 62
     7
370
    15
100
AcDbCircle
 10
940.2257211579
 20
1207.0861498299
 30
0.0
 40
2.749966771517574
100
AcDbArc
 50
169.9857340414
 51
213.5998666986
  0
ARC
  5
151
330
1F
100
AcDbEntity
  8
0
  6
Continuous
 62
     7
370
    15
100
AcDbCircle
 10
1355.2933797169
 20
1207.0861498299
 30
0.0
 40
2.749966771518022
100
AcDbArc
 50
326.4001333014
 51
10.0142659586
  0
LWPOLYLINE
  5
152
330
1F
100
AcDbEntity
  8
0
  6
Continuous
 62
     7
370
    15
100
AcDbPolyline
 90
        9
 70
   128
 43
0.0
 10
937.5176515431
 20
1212.7643494571
 10
937.5489439816
 20
1214.2860560382
 10
937.641614303
 20
1215.7492904628
 10
937.7921011299
 20
1217.0977859462
 10
937.9946228117
 20
1218.2797758544
 10
938.2414009423
 20
1219.2498116458
 10
938.5229434819
 20
1219.9706106151
 10
938.8284321875
 20
1220.4144864047
 10
939.1461398453
 20
1220.564362284
  0
LINE
  5
153
330
1F
100
AcDbEntity
  8
0
  6
Continuous
 62
     7
370
    15
100
AcDbLine
 10
939.1461398453
 20
1220.564362284
 30
0.0
 11
1356.3729610295
 21
1220.564362284
 31
0.0
  0
LWPOLYLINE
  5
154
330
1F
100
AcDbEntity
  8
0
  6
Continuous
 62
     7
370
    15
100
AcDbPolyline
 90
        9
 70
   128
 43
0.0
 10
1358.0014493317
 20
1212.7643494571
 10
1357.9701568932
 20
1214.2860560382
 10
1357.8774865717
 20
1215.7492904628
 10
1357.7269997448
 20
1217.0977859462
 10
1357.524478063
 20
1218.2797758544
 10
1357.2776999325
 20
1219.2498116458
 10
1356.9961573929
 20
1219.9706106151
 10
1356.6906686873
 20
1220.4144864047
 10
1356.3729610295
 20
1220.564362284
  0
LINE
  5
155
330
1F
100
AcDbEntity
  8
0
  6
Continuous
 62
     7
370
    15
100
AcDbLine
 10
937.9352118821
 20
1205.5643467868
 30
0.0
 11
920.1327797026
 21
1205.5643467868
 31
0.0
  0
LINE
  5
156
330
1F
100
AcDbEntity
  8
0
  6
Continuous
 62
     7
370
    15
100
AcDbLine
 10
925.9327735752
 20
1220.564362284
 30
0.0
 11
939.1461398453
 21
1220.564362284
 31
0.0
  0
LINE
  5
157
330
1F
100
AcDbEntity
  8
0
  6
Continuous
 62
     7
370
    15
100
AcDbLine
 10
1375.3863211722
 20
1205.5643467868
 30
0.0
 11
1357.5838889927
 21
1205.5643467868
 31
0.0
  0
LINE
  5
158
330
1F
100
AcDbEntity
  8
0
  6
Continuous
 62
     7
370
    15
100
AcDbLine
 10
1356.3729610295
 20
1220.564362284
 30
0.0
 11
1369.5863272995
 21
1220.564362284
 31
0.0
  0
LINE
  5
159
330
1F
100
AcDbEntity
  8
0
  6
Continuous
 62
     7
370
    15
100
AcDbLine
 10
937.5176515431
 20
498.0643658603
 30
0.0
 11
1358.0014493317
 21
498.0643658603
 31
0.0
  0
LWPOLYLINE
  5
15A
330
1F
100
AcDbEntity
  8
0
  6
Continuous
 62
     7
370
    15
100
AcDbPolyline
 90
        9
 70
   128
 43
0.0
 10
1356.43559061
 20
490.5643432105
 10
1356.7410793156
 20
490.7084672416
 10
1357.0348259062
 20
491.1352663005
 10
1357.3055353016
 20
491.8283193076
 10
1357.5428213925
 20
492.7610425914
 10
1357.737549767
 20
493.897583958
 10
1357.8822549433
 20
495.1942234004
 10
1357.9713638872
 20
496.601161238
 10
1358.0014493317
 20
498.0643658603
  0
LINE
  5
15B
330
1F
100
AcDbEntity
  8
0
  6
Continuous
 62
     7
370
    15
100
AcDbLine
 10
1356.43559061
 20
490.5643432105
 30
0.0
 11
939.0835102648
 21
490.5643432105
 31
0.0
  0
LWPOLYLINE
  5
15C
330
1F
100
AcDbEntity
  8
0
  6
Continuous
 62
     7
370
    15
100
AcDbPolyline
 90
        9
 70
   128
 43
0.0
 10
937.5176515431
 20
498.0643658603
 10
937.5477369875
 20
496.601161238
 10
937.6368459315
 20
495.1942234004
 10
937.7815511078
 20
493.897583958
 10
937.9762794823
 20
492.7610425914
 10
938.2135655732
 20
491.8283193076
 10
938.4842749686
 20
491.1352663005
 10
938.7780215592
 20
490.7084672416
 10
939.0835102648
 20
490.5643432105
  0
LINE
  5
15D
330
1F
100
AcDbEntity
  8
0
  6
Continuous
 62
     7
370
    15
100
AcDbLine
 10
1358.0014493317
 20
502.5643675292
 30
0.0
 11
937.5176515431
 21
502.5643675292
 31
0.0
  0
ARC
  5
15E
330
1F
100
AcDbEntity
  8
0
  6
Continuous
 62
     7
370
    15
100
AcDbCircle
 10
941.5798191241
 20
503.2816445196
 30
0.0
 40
4.125008089346604
100
AcDbArc
 50
146.4005074361
 51
190.0137779533
  0
LINE
  5
15F
330
1F
100
AcDbEntity
  8
0
  6
Continuous
 62
     7
370
    15
100
AcDbLine
 10
938.1439920515
 20
505.5643587077
 30
0.0
 11
1357.3751088232
 21
505.5643587077
 31
0.0
  0
ARC
  5
160
330
1F
100
AcDbEntity
  8
0
  6
Continuous
 62
     7
370
    15
100
AcDbCircle
 10
1353.9392817507
 20
503.2816445196
 30
0.0
 40
4.125008089344585
100
AcDbArc
 50
349.9862220467
 51
33.5994925639
  0
LINE
  5
161
330
1F
100
AcDbEntity
  8
0
  6
Continuous
 62
     7
370
    15
100
AcDbLine
 10
937.5176515431
 20
498.0643658603
 30
0.0
 11
937.5176515431
 21
502.5643675292
 31
0.0
  0
LINE
  5
162
330
1F
100
AcDbEntity
  8
0
  6
Continuous
 62
     7
370
    15
100
AcDbLine
 10
1358.0014493317
 20
498.0643658603
 30
0.0
 11
1358.0014493317
 21
502.5643675292
 31
0.0
  0
LINE
  5
163
330
1F
100
AcDbEntity
  8
0
  6
Continuous
 62
     7
370
    15
100
AcDbLine
 10
921.132766828
 20
505.5643587077
 30
0.0
 11
938.1439920515
 21
505.5643587077
 31
0.0
  0
LINE
  5
164
330
1F
100
AcDbEntity
  8
0
  6
Continuous
 62
     7
370
    15
100
AcDbLine
 10
939.0835102648
 20
490.5643432105
 30
0.0
 11
925.6327684969
 21
490.5643432105
 31
0.0
  0
LINE
  5
165
330
1F
100
AcDbEntity
  8
0
  6
Continuous
 62
     7
370
    15
100
AcDbLine
 10
1369.8863323778
 20
490.5643432105
 30
0.0
 11
1356.43559061
 21
490.5643432105
 31
0.0
  0
LINE
  5
166
330
1F
100
AcDbEntity
  8
0
  6
Continuous
 62
     7
370
    15
100
AcDbLine
 10
1357.3751088232
 20
505.5643587077
 30
0.0
 11
1374.3863340468
 21
505.5643587077
 31
0.0
  0
LINE
  5
167
330
1F
100
AcDbEntity
  8
0
  6
Continuous
 62
     8
370
    15
100
AcDbLine
 10
1338.5696347803
 20
488.1392686332
 30
0.0
 11
1354.6084549279
 21
488.1392686332
 31
0.0
  0
LINE
  5
168
330
1F
100
AcDbEntity
  8
0
  6
Continuous
 62
     8
370
    15
100
AcDbLine
 10
1028.1540390105
 20
488.1392686332
 30
0.0
 11
1044.192859158
 21
488.1392686332
 31
0.0
  0
LINE
  5
169
330
1F
100
AcDbEntity
  8
0
  6
Continuous
 62
     8
370
    15
100
AcDbLine
 10
1247.4309291691
 20
488.1392686332
 30
0.0
 11
1263.4697493166
 21
488.1392686332
 31
0.0
  0
LINE
  5
16A
330
1F
100
AcDbEntity
  8
0
  6
Continuous
 62
     8
370
    15
100
AcDbLine
 10
940.9106459469
 20
488.1392686332
 30
0.0
 11
956.9494660944
 21
488.1392686332
 31
0.0
  0
LINE
  5
16B
330
1F
100
AcDbEntity
  8
0
  6
Continuous
 62
     8
370
    15
100
AcDbLine
 10
938.9791127295
 20
1205.5643467868
 30
0.0
 11
938.9791127295
 21
505.5643587077
 31
0.0
  0
LINE
  5
16C
330
1F
100
AcDbEntity
  8
0
  6
Continuous
 62
     8
370
    15
100
AcDbLine
 10
1356.5399881453
 20
1205.5643467868
 30
0.0
 11
1356.5399881453
 21
505.5643587077
 31
0.0
  0
LWPOLYLINE
  5
16D
330
1F
100
AcDbEntity
  8
0
  6
Continuous
 62
     8
370
    15
100
AcDbPolyline
 90
        9
 70
   128
 43
0.0
 10
921.155506
 20
1203.5643427337
 10
921.2314572186
 20
1203.5187749827
 10
921.4570309967
 20
1203.3834426368
 10
921.8253728003
 20
1203.162428614
 10
922.325276956
 20
1202.8624980414
 10
922.9415591807
 20
1202.4927108253
 10
923.6555036158
 20
1202.0643620456
 10
924.4453992695
 20
1201.5904157127
 10
925.1327749342
 20
1201.1779813731
  0
LWPOLYLINE
  5
16E
330
1F
100
AcDbEntity
  8
0
  6
Continuous
 62
     8
370
    15
100
AcDbPolyline
 90
        8
 70
   128
 43
0.0
 10
921.155506
 20
507.5643627608
 10
921.2515737862
 20
507.6220004523
 10
921.536096558
 20
507.792708155
 10
921.9981517643
 20
508.0699293578
 10
922.6199623198
 20
508.4430246318
 10
923.377641663
 20
508.8976292575
 10
924.2420878262
 20
509.4163088763
 10
925.1327749342
 20
509.9507241214
  0
LWPOLYLINE
  5
16F
330
1F
100
AcDbEntity
  8
0
  6
Continuous
 62
     8
370
    15
100
AcDbPolyline
 90
        8
 70
   128
 43
0.0
 10
923.1554951519
 20
505.5643587077
 10
923.2131477446
 20
505.6604115928
 10
923.3838554472
 20
505.9449641669
 10
923.6610915512
 20
506.4070193732
 10
924.0341868252
 20
507.0288150275
 10
924.4887914509
 20
507.7865092719
 10
925.0074561686
 20
508.6509256328
 10
925.1327749342
 20
508.8598101104
  0
LWPOLYLINE
  5
170
330
1F
100
AcDbEntity
  8
0
  6
Continuous
 62
     8
370
    15
100
AcDbPolyline
 90
        9
 70
   128
 43
0.0
 10
923.1554951519
 20
1205.5643467868
 10
923.201077804
 20
1205.488380667
 10
923.3364250511
 20
1205.2628068889
 10
923.5574241728
 20
1204.8944799865
 10
923.8573696465
 20
1204.3945758308
 10
924.2271419615
 20
1203.7782936061
 10
924.6555056424
 20
1203.064349171
 10
925.1294370741
 20
1202.2744386161
 10
925.1327749342
 20
1202.2688953841
  0
LWPOLYLINE
  5
171
330
1F
100
AcDbEntity
  8
0
  6
Continuous
 62
     8
370
    15
100
AcDbPolyline
 90
        8
 70
   128
 43
0.0
 10
1370.3863259405
 20
508.8598101104
 10
1370.5116447062
 20
508.6509256328
 10
1371.0303094239
 20
507.7865092719
 10
1371.4849140496
 20
507.0288150275
 10
1371.8580093235
 20
506.4070193732
 10
1372.1352454275
 20
505.9449641669
 10
1372.3059531302
 20
505.6604115928
 10
1372.3636057228
 20
505.5643587077
  0
LWPOLYLINE
  5
172
330
1F
100
AcDbEntity
  8
0
  6
Continuous
 62
     8
370
    15
100
AcDbPolyline
 90
        8
 70
   128
 43
0.0
 10
1370.3863259405
 20
509.9507241214
 10
1371.2770130486
 20
509.4163088763
 10
1372.1414592118
 20
508.8976292575
 10
1372.899138555
 20
508.4430246318
 10
1373.5209491104
 20
508.0699293578
 10
1373.9830043167
 20
507.792708155
 10
1374.2675270886
 20
507.6220004523
 10
1374.3635948748
 20
507.5643627608
  0
LWPOLYLINE
  5
173
330
1F
100
AcDbEntity
  8
0
  6
Continuous
 62
     8
370
    15
100
AcDbPolyline
 90
        8
 70
   128
 43
0.0
 10
1370.3863259405
 20
1201.1779813731
 10
1371.2770130486
 20
1201.7123966182
 10
1372.1414592118
 20
1202.231076237
 10
1372.899138555
 20
1202.6856808627
 10
1373.5209491104
 20
1203.0587761367
 10
1373.9830043167
 20
1203.3359973395
 10
1374.2675270886
 20
1203.5067050422
 10
1374.3635948748
 20
1203.5643427337
  0
LWPOLYLINE
  5
174
330
1F
100
AcDbEntity
  8
0
  6
Continuous
 62
     8
370
    15
100
AcDbPolyline
 90
        8
 70
   128
 43
0.0
 10
1370.3863259405
 20
1202.2688953841
 10
1370.5116447062
 20
1202.4777798617
 10
1371.0303094239
 20
1203.3421962226
 10
1371.4849140496
 20
1204.099890467
 10
1371.8580093235
 20
1204.7216861213
 10
1372.1352454275
 20
1205.1837413276
 10
1372.3059531302
 20
1205.4682939017
 10
1372.3636057228
 20
1205.5643467868
  0
LINE
  5
175
330
1F
100
AcDbEntity
  8
0
  6
Continuous
 62
     8
370
    15
100
AcDbLine
 10
918.1327756495
 20
1207.5643508399
 30
0.0
 11
937.5176515431
 21
1207.5643508399
 31
0.0
  0
LINE
  5
176
330
1F
100
AcDbEntity
  8
0
  6
Continuous
 62
     8
370
    15
100
AcDbLine
 10
937.5176515431
 20
1212.7643494571
 30
0.0
 11
918.1327756495
 21
1212.7643494571
 31
0.0
  0
LINE
  5
177
330
1F
100
AcDbEntity
  8
0
  6
Continuous
 62
     8
370
    15
100
AcDbLine
 10
1377.3863252253
 20
1212.7643494571
 30
0.0
 11
1358.0014493317
 21
1212.7643494571
 31
0.0
  0
LINE
  5
178
330
1F
100
AcDbEntity
  8
0
  6
Continuous
 62
     8
370
    15
100
AcDbLine
 10
1358.0014493317
 20
1207.5643508399
 30
0.0
 11
1377.3863252253
 21
1207.5643508399
 31
0.0
  0
LINE
  5
179
330
1F
100
AcDbEntity
  8
0
  6
Continuous
 62
     8
370
    15
100
AcDbLine
 10
918.1327756495
 20
498.0643658603
 30
0.0
 11
937.5176515431
 21
498.0643658603
 31
0.0
  0
LINE
  5
17A
330
1F
100
AcDbEntity
  8
0
  6
Continuous
 62
     8
370
    15
100
AcDbLine
 10
937.5176515431
 20
502.5643675292
 30
0.0
 11
918.1327756495
 21
502.5643675292
 31
0.0
  0
LINE
  5
17B
330
1F
100
AcDbEntity
  8
0
  6
Continuous
 62
     8
370
    15
100
AcDbLine
 10
1358.0014493317
 20
498.0643658603
 30
0.0
 11
1377.3863252253
 21
498.0643658603
 31
0.0
  0
LINE
  5
17C
330
1F
100
AcDbEntity
  8
0
  6
Continuous
 62
     8
370
    15
100
AcDbLine
 10
1377.3863252253
 20
502.5643675292
 30
0.0
 11
1358.0014493317
 21
502.5643675292
 31
0.0
  0
DIMENSION
  5
17D
330
1F
100
AcDbEntity
  8
MEDIÇÕES
100
AcDbDimension
  2
_D
 10
1377.3863282502
 20
362.7363786311
 30
0.0
 11
1147.7595504374
 21
362.7363786311
 31
0.0
 70
   160
  1
<>
 71
     2
 42
-1.0
  3
SLDDIMSTYLE0
100
AcDbAlignedDimension
 13
918.1327726245
 23
498.0643527473
 33
0.0
 14
1377.3863282502
 24
498.0643527473
 34
0.0
100
AcDbRotatedDimension
  0
LINE
  5
188
330
1F
100
AcDbEntity
  8
0
  6
Continuous
 62
     7
370
    15
100
AcDbLine
 10
1893.0207662124
 20
490.5643432105
 30
0.0
 11
1893.6490289707
 21
488.1392686332
 31
0.0
  0
LINE
  5
189
330
1F
100
AcDbEntity
  8
0
  6
Continuous
 62
     7
370
    15
100
AcDbLine
 10
1909.6878491182
 20
488.1392686332
 30
0.0
 11
1910.3161267776
 21
490.5643432105
 31
0.0
  0
ARC
  5
18A
330
1F
100
AcDbEntity
  8
0
  6
Continuous
 62
     7
370
    15
100
AcDbCircle
 10
1909.5910459786
 20
488.1643527473
 30
0.0
 40
0.0999999999999659
100
AcDbArc
 50
270.0
 51
345.4755709219
  0
ARC
  5
18B
330
1F
100
AcDbEntity
  8
0
  6
Continuous
 62
     7
370
    15
100
AcDbCircle
 10
1893.7458343373
 20
488.1643527473
 30
0.0
 40
0.0999999999999659
100
AcDbArc
 50
194.5244290781
 51
270.0
  0
LINE
  5
18C
330
1F
100
AcDbEntity
  8
0
  6
Continuous
 62
     7
370
    15
100
AcDbLine
 10
2119.9343003173
 20
1172.1366910899
 30
0.0
 11
2121.7323079545
 21
1172.8187470401
 31
0.0
  0
LINE
  5
18D
330
1F
100
AcDbEntity
  8
0
  6
Continuous
 62
     7
370
    15
100
AcDbLine
 10
2121.7323079545
 20
1188.3099644149
 30
0.0
 11
2119.9343003173
 21
1188.9920203651
 31
0.0
  0
LINE
  5
18E
330
1F
100
AcDbEntity
  8
0
  6
Continuous
 62
     7
370
    15
100
AcDbLine
 10
2117.4877643425
 20
1171.0643439258
 30
0.0
 11
2117.912030204
 21
1171.0643439258
 31
0.0
  0
LINE
  5
18F
330
1F
100
AcDbEntity
  8
0
  6
Continuous
 62
     7
370
    15
100
AcDbLine
 10
2117.912030204
 20
1190.0643675292
 30
0.0
 11
2117.4877643425
 21
1190.0643675292
 31
0.0
  0
LINE
  5
190
330
1F
100
AcDbEntity
  8
0
  6
Continuous
 62
     7
370
    15
100
AcDbLine
 10
2240.9734450121
 20
522.1366851295
 30
0.0
 11
2242.771448924
 21
522.8187410796
 31
0.0
  0
LINE
  5
191
330
1F
100
AcDbEntity
  8
0
  6
Continuous
 62
     7
370
    15
100
AcDbLine
 10
2242.771448924
 20
538.3099584544
 30
0.0
 11
2240.9734450121
 21
538.9920144046
 31
0.0
  0
LINE
  5
192
330
1F
100
AcDbEntity
  8
0
  6
Continuous
 62
     7
370
    15
100
AcDbLine
 10
2238.5269127626
 20
521.0643379653
 30
0.0
 11
2238.9511786241
 21
521.0643379653
 31
0.0
  0
LINE
  5
193
330
1F
100
AcDbEntity
  8
0
  6
Continuous
 62
     7
370
    15
100
AcDbLine
 10
2238.9511786241
 20
540.0643615687
 30
0.0
 11
2238.5269127626
 21
540.0643615687
 31
0.0
  0
LINE
  5
194
330
1F
100
AcDbEntity
  8
0
  6
Continuous
 62
     7
370
    15
100
AcDbLine
 10
2240.9734450121
 20
1172.1366910899
 30
0.0
 11
2242.771448924
 21
1172.8187470401
 31
0.0
  0
LINE
  5
195
330
1F
100
AcDbEntity
  8
0
  6
Continuous
 62
     7
370
    15
100
AcDbLine
 10
2242.771448924
 20
1188.3099644149
 30
0.0
 11
2240.9734450121
 21
1188.9920203651
 31
0.0
  0
LINE
  5
196
330
1F
100
AcDbEntity
  8
0
  6
Continuous
 62
     7
370
    15
100
AcDbLine
 10
2238.5269127626
 20
1171.0643439258
 30
0.0
 11
2238.9511786241
 21
1171.0643439258
 31
0.0
  0
LINE
  5
197
330
1F
100
AcDbEntity
  8
0
  6
Continuous
 62
     7
370
    15
100
AcDbLine
 10
2238.9511786241
 20
1190.0643675292
 30
0.0
 11
2238.5269127626
 21
1190.0643675292
 31
0.0
  0
LINE
  5
198
330
1F
100
AcDbEntity
  8
0
  6
Continuous
 62
     7
370
    15
100
AcDbLine
 10
2119.9343003173
 20
522.1366851295
 30
0.0
 11
2121.7323079545
 21
522.8187410796
 31
0.0
  0
LINE
  5
199
330
1F
100
AcDbEntity
  8
0
  6
Continuous
 62
     7
370
    15
100
AcDbLine
 10
2121.7323079545
 20
538.3099584544
 30
0.0
 11
2119.9343003173
 21
538.9920144046
 31
0.0
  0
LINE
  5
19A
330
1F
100
AcDbEntity
  8
0
  6
Continuous
 62
     7
370
    15
100
AcDbLine
 10
2117.4877643425
 20
521.0643379653
 30
0.0
 11
2117.912030204
 21
521.0643379653
 31
0.0
  0
LINE
  5
19B
330
1F
100
AcDbEntity
  8
0
  6
Continuous
 62
     7
370
    15
100
AcDbLine
 10
2117.912030204
 20
540.0643615687
 30
0.0
 11
2117.4877643425
 21
540.0643615687
 31
0.0
  0
LINE
  5
19C
330
1F
100
AcDbEntity
  8
0
  6
Continuous
 62
     7
370
    15
100
AcDbLine
 10
2218.6175606985
 20
490.5643432105
 30
0.0
 11
2219.2458383579
 21
488.1392686332
 31
0.0
  0
LINE
  5
19D
330
1F
100
AcDbEntity
  8
0
  6
Continuous
 62
     7
370
    15
100
AcDbLine
 10
2235.2846585054
 20
488.1392686332
 30
0.0
 11
2235.9129212637
 21
490.5643432105
 31
0.0
  0
ARC
  5
19E
330
1F
100
AcDbEntity
  8
0
  6
Continuous
 62
     7
370
    15
100
AcDbCircle
 10
2235.1878485899
 20
488.1643527473
 30
0.0
 40
0.0999999999999659
100
AcDbArc
 50
270.0
 51
345.4755709219
  0
ARC
  5
19F
330
1F
100
AcDbEntity
  8
0
  6
Continuous
 62
     7
370
    15
100
AcDbCircle
 10
2219.3426369486
 20
488.1643527473
 30
0.0
 40
0.0999999999999659
100
AcDbArc
 50
194.5244290781
 51
270.0
  0
LINE
  5
1A0
330
1F
100
AcDbEntity
  8
0
  6
Continuous
 62
     7
370
    15
100
AcDbLine
 10
2118.6175629336
 20
490.5643432105
 30
0.0
 11
2119.2458331425
 21
488.1392686332
 31
0.0
  0
LINE
  5
1A1
330
1F
100
AcDbEntity
  8
0
  6
Continuous
 62
     7
370
    15
100
AcDbLine
 10
2135.28465329
 20
488.1392686332
 30
0.0
 11
2135.9129234988
 21
490.5643432105
 31
0.0
  0
ARC
  5
1A2
330
1F
100
AcDbEntity
  8
0
  6
Continuous
 62
     7
370
    15
100
AcDbCircle
 10
2135.1878485899
 20
488.1643527473
 30
0.0
 40
0.1000000000000227
100
AcDbArc
 50
270.0
 51
345.4755709219
  0
ARC
  5
1A3
330
1F
100
AcDbEntity
  8
0
  6
Continuous
 62
     7
370
    15
100
AcDbCircle
 10
2119.3426369486
 20
488.1643527473
 30
0.0
 40
0.1000000000000227
100
AcDbArc
 50
194.5244290781
 51
270.0
  0
LINE
  5
1A4
330
1F
100
AcDbEntity
  8
0
  6
Continuous
 62
     7
370
    15
100
AcDbLine
 10
1860.2652422924
 20
1205.5643467868
 30
0.0
 11
1860.2652422924
 21
505.5643587077
 31
0.0
  0
SPLINE
  5
1A5
330
1F
100
AcDbEntity
  8
0
  6
Continuous
 62
     7
370
    15
100
AcDbSpline
210
0.0
220
0.0
230
1.0
 70
     8
 71
     3
 72
    23
 73
    19
 74
     0
 42
0.00000001
 43
0.00000001
 12
1.0
 22
0.0
 32
0.0
 13
1.0
 23
0.0
 33
0.0
 40
0.0
 40
0.0
 40
0.0
 40
0.0
 40
0.026619477576764
 40
0.0938808383397673
 40
0.1605935343228477
 40
0.2265744653192801
 40
0.291957234090384
 40
0.356902529258632
 40
0.4215740418885106
 40
0.4861324673300772
 40
0.5506971617875464
 40
0.6154215618567368
 40
0.6804764662728787
 40
0.7460353440912
 40
0.8122589819803415
 40
0.8792627767049382
 40
0.9470668586425526
 40
1.0
 40
1.0
 40
1.0
 40
1.0
 10
1973.378794624291
 20
871.0454485083206
 30
0.0
 10
1973.188692712042
 20
871.1595305264314
 30
0.0
 10
1972.518246538164
 20
871.5618718371819
 30
0.0
 10
1971.460170258587
 20
872.4269172995921
 30
0.0
 10
1970.32618232272
 20
873.7341127294949
 30
0.0
 10
1969.429612378416
 20
875.233409189903
 30
0.0
 10
1968.796295991772
 20
876.8707935833597
 30
0.0
 10
1968.443901538923
 20
878.5958490677693
 30
0.0
 10
1968.380842072679
 20
880.3550053327507
 30
0.0
 10
1968.606903766534
 20
882.0943591773058
 30
0.0
 10
1969.112835016696
 20
883.7612130779651
 30
0.0
 10
1969.881178486811
 20
885.3059639827533
 30
0.0
 10
1970.887472572877
 20
886.6841822805351
 30
0.0
 10
1972.101728039997
 20
887.8558008014628
 30
0.0
 10
1973.489508193587
 20
888.7904692627408
 30
0.0
 10
1975.01278033001
 20
889.4479895360079
 30
0.0
 10
1976.505827310222
 20
889.8210380456471
 30
0.0
 10
1977.483227389078
 20
889.8270544384106
 30
0.0
 10
1977.91173531004
 20
889.8296921218022
 30
0.0
  0
SPLINE
  5
1A6
330
1F
100
AcDbEntity
  8
0
  6
Continuous
 62
     7
370
    15
100
AcDbSpline
210
0.0
220
0.0
230
1.0
 70
     8
 71
     3
 72
    14
 73
    10
 74
     0
 42
0.00000001
 43
0.00000001
 12
1.0
 22
0.0
 32
0.0
 13
1.0
 23
0.0
 33
0.0
 40
0.0
 40
0.0
 40
0.0
 40
0.0
 40
0.0136480618261585
 40
0.1858899734938745
 40
0.3581146540559888
 40
0.5303161511460063
 40
0.702488895256108
 40
0.874628383186661
 40
1.0
 40
1.0
 40
1.0
 40
1.0
 10
2001.877839102231
 20
860.8182428108736
 30
0.0
 10
2001.741353179502
 20
860.8378215822164
 30
0.0
 10
1999.882381196413
 20
861.1044892843662
 30
0.0
 10
1996.345007411104
 20
861.9104096120475
 30
0.0
 10
1991.291670812578
 20
863.2557183670639
 30
0.0
 10
1986.328170271183
 20
864.9368213218443
 30
0.0
 10
1981.468427139268
 20
866.9109657284031
 30
0.0
 10
1977.148913797668
 20
868.9577873887049
 30
0.0
 10
1974.496518078692
 20
870.426521707621
 30
0.0
 10
1973.378794624291
 20
871.0454485083206
 30
0.0
  0
LINE
  5
1A7
330
1F
100
AcDbEntity
  8
0
  6
Continuous
 62
     7
370
    15
100
AcDbLine
 10
2014.9053133864
 20
887.5643542672
 30
0.0
 11
2016.4582229991
 21
887.5643542672
 31
0.0
  0
SPLINE
  5
1A8
330
1F
100
AcDbEntity
  8
0
  6
Continuous
 62
     7
370
    15
100
AcDbSpline
210
0.0
220
0.0
230
1.0
 70
     8
 71
     3
 72
     9
 73
     5
 74
     0
 42
0.00000001
 43
0.00000001
 12
1.0
 22
0.0
 32
0.0
 13
1.0
 23
0.0
 33
0.0
 40
0.0
 40
0.0
 40
0.0
 40
0.0
 40
0.6371934822660814
 40
0.9999999999999999
 40
0.9999999999999999
 40
0.9999999999999999
 40
0.9999999999999999
 10
2054.050371407352
 20
889.7955498362168
 30
0.0
 10
2054.264537535807
 20
889.8221401455755
 30
0.0
 10
2054.600646009003
 20
889.863870499226
 30
0.0
 10
2054.937622945768
 20
889.8393432693158
 30
0.0
 10
2055.059880374752
 20
889.8304446304425
 30
0.0
  0
ARC
  5
1A9
330
1F
100
AcDbEntity
  8
0
  6
Continuous
 62
     7
370
    15
100
AcDbCircle
 10
1861.0652427692
 20
1212.7643527473
 30
0.0
 40
7.799999999999955
100
AcDbArc
 50
90.0
 51
180.0
  0
LINE
  5
1AA
330
1F
100
AcDbEntity
  8
0
  6
Continuous
 62
     7
370
    15
100
AcDbLine
 10
1853.2652430076
 20
1212.7643494571
 30
0.0
 11
1853.2652430076
 21
1207.5643508399
 31
0.0
  0
ARC
  5
1AB
330
1F
100
AcDbEntity
  8
0
  6
Continuous
 62
     7
370
    15
100
AcDbCircle
 10
1855.2652427692
 20
1207.5643527473
 30
0.0
 40
2.0
100
AcDbArc
 50
180.0
 51
270.0
  0
ARC
  5
1AC
330
1F
100
AcDbEntity
  8
0
  6
Continuous
 62
     7
370
    15
100
AcDbCircle
 10
1860.7652427692
 20
498.0643527473
 30
0.0
 40
7.500000000000227
100
AcDbArc
 50
180.0
 51
270.0
  0
LINE
  5
1AD
330
1F
100
AcDbEntity
  8
0
  6
Continuous
 62
     7
370
    15
100
AcDbLine
 10
1853.2652430076
 20
502.5643675292
 30
0.0
 11
1853.2652430076
 21
498.0643658603
 31
0.0
  0
ARC
  5
1AE
330
1F
100
AcDbEntity
  8
0
  6
Continuous
 62
     7
370
    15
100
AcDbCircle
 10
1856.2652427692
 20
502.5643527473
 30
0.0
 40
3.0
100
AcDbArc
 50
90.0
 51
180.0
  0
LINE
  5
1AF
330
1F
100
AcDbEntity
  8
0
  6
Continuous
 62
     7
370
    15
100
AcDbLine
 10
1899.4374148388
 20
488.0643455947
 30
0.0
 11
1893.7458269138
 21
488.0643455947
 31
0.0
  0
LINE
  5
1B0
330
1F
100
AcDbEntity
  8
0
  6
Continuous
 62
     7
370
    15
100
AcDbLine
 10
1909.5910511751
 20
488.0643455947
 30
0.0
 11
1899.4374148388
 21
488.0643455947
 31
0.0
  0
LINE
  5
1B1
330
1F
100
AcDbEntity
  8
0
  6
Continuous
 62
     7
370
    15
100
AcDbLine
 10
2125.8773341615
 20
1179.4354884589
 30
0.0
 11
2125.6448238928
 21
1178.0369846786
 31
0.0
  0
LWPOLYLINE
  5
1B2
330
1F
100
AcDbEntity
  8
0
  6
Continuous
 62
     7
370
    15
100
AcDbPolyline
 90
       27
 70
   128
 43
0.0
 10
2121.7323079545
 20
1172.8187470401
 10
2121.2389156062
 20
1172.6645498241
 10
2120.0561992664
 20
1172.55028772
 10
2118.8825279314
 20
1172.786292311
 10
2117.769202574
 20
1173.3622221912
 10
2116.7648754854
 20
1174.2529242004
 10
2115.9134417612
 20
1175.4194765056
 10
2115.2521151889
 20
1176.8108575309
 10
2114.8097984333
 20
1178.3663003409
 10
2114.605820163
 20
1180.0178258384
 10
2114.649098723
 20
1181.6932229961
 10
2114.9377416659
 20
1183.3192675078
 10
2115.4591314334
 20
1184.8249404395
 10
2116.1904841501
 20
1186.1443786586
 10
2117.0998349626
 20
1187.2199444736
 10
2118.1474387486
 20
1188.004639622
 10
2119.2875154156
 20
1188.4641616309
 10
2120.4702317555
 20
1188.578423735
 10
2121.6439030904
 20
1188.342419144
 10
2122.7572284479
 20
1187.7664892638
 10
2123.7615555365
 20
1186.8757872546
 10
2124.6129892606
 20
1185.7092349494
 10
2125.2743176956
 20
1184.3178539241
 10
2125.7166325886
 20
1182.762411114
 10
2125.9206108589
 20
1181.1108856166
 10
2125.8773341615
 20
1179.4354884589
 10
2125.8773341615
 20
1179.4354884589
  0
LWPOLYLINE
  5
1B3
330
1F
100
AcDbEntity
  8
0
  6
Continuous
 62
     7
370
    15
100
AcDbPolyline
 90
       30
 70
   128
 43
0.0
 10
2114.7698446948
 20
1181.6795735324
 10
2114.7299934018
 20
1179.9673407043
 10
2114.9513445634
 20
1178.2830326522
 10
2115.4235511858
 20
1176.7053573096
 10
2116.1245316107
 20
1175.3081648315
 10
2117.021510734
 20
1174.1567223037
 10
2118.0725417871
 20
1173.3048825229
 10
2119.2284881909
 20
1172.7925209964
 10
2120.4352922577
 20
1172.6435391868
 10
2121.6365270156
 20
1172.8649406398
 10
2122.7760262627
 20
1173.4463243449
 10
2123.8005034465
 20
1174.3605701888
 10
2124.6620587844
 20
1175.5649118388
 10
2125.3204069872
 20
1177.0029931033
 10
2125.7447659809
 20
1178.6076097453
 10
2125.915287419
 20
1180.3037195171
 10
2125.8240029056
 20
1182.0120184386
 10
2125.4751816232
 20
1183.6526064838
 10
2124.8851291675
 20
1185.1488320792
 10
2124.0814387638
 20
1186.4306597674
 10
2123.1016874153
 20
1187.4381868804
 10
2121.9916924674
 20
1188.1243257487
 10
2120.8033509392
 20
1188.4569494689
 10
2119.5922329862
 20
1188.420531031
 10
2118.4149630208
 20
1188.0167691672
 10
2117.3265971083
 20
1187.2645287479
 10
2116.378018989
 20
1186.1990063155
 10
2115.6135838319
 20
1184.870001551
 10
2115.0690395225
 20
1183.3396820987
 10
2114.7698446948
 20
1181.6795735324
  0
ARC
  5
1B4
330
1F
100
AcDbEntity
  8
0
  6
Continuous
 62
     7
370
    15
100
AcDbCircle
 10
2117.9316850976
 20
1176.3665002412
 30
0.0
 40
5.261721423951411
100
AcDbArc
 50
227.8409724016
 51
320.1611838503
  0
ARC
  5
1B5
330
1F
100
AcDbEntity
  8
0
  6
Continuous
 62
     7
370
    15
100
AcDbCircle
 10
2117.9249511474
 20
1184.7561055129
 30
0.0
 40
5.261735573953863
100
AcDbArc
 50
41.828466555
 51
132.0600467384
  0
LWPOLYLINE
  5
1B6
330
1F
100
AcDbEntity
  8
0
  6
Continuous
 62
     7
370
    15
100
AcDbPolyline
 90
        3
 70
   128
 43
0.0
 10
2115.7199986119
 20
1171.3992028201
 10
2116.5421701808
 20
1171.158936497
 10
2117.4877643425
 20
1171.0643439258
  0
ARC
  5
1B7
330
1F
100
AcDbEntity
  8
0
  6
Continuous
 62
     7
370
    15
100
AcDbCircle
 10
2117.5044393258
 20
1185.1427704906
 30
0.0
 40
4.921625286977966
100
AcDbArc
 50
90.1941244891
 51
111.2582005155
  0
LINE
  5
1B8
330
1F
100
AcDbEntity
  8
0
  6
Continuous
 62
     7
370
    15
100
AcDbLine
 10
2246.916475131
 20
529.4354824985
 30
0.0
 11
2246.6839723129
 21
528.0370085204
 31
0.0
  0
LWPOLYLINE
  5
1B9
330
1F
100
AcDbEntity
  8
0
  6
Continuous
 62
     7
370
    15
100
AcDbPolyline
 90
       27
 70
   128
 43
0.0
 10
2242.771448924
 20
522.8187410796
 10
2242.2780714769
 20
522.6645438636
 10
2241.0953514118
 20
522.5502817596
 10
2239.9216763515
 20
522.7862863505
 10
2238.8083509941
 20
523.3622162307
 10
2237.8040276308
 20
524.2529182399
 10
2236.9525901813
 20
525.4194705451
 10
2236.2912617464
 20
526.8108515704
 10
2235.8489505787
 20
528.3662943805
 10
2235.6449685831
 20
530.0178198779
 10
2235.6882415552
 20
531.6932170356
 10
2235.9768919487
 20
533.3192615474
 10
2236.4982835788
 20
534.8249344791
 10
2237.2296325702
 20
536.1443726981
 10
2238.1389759321
 20
537.2199385131
 10
2239.1865871687
 20
538.0046336616
 10
2240.3266601104
 20
538.4641556705
 10
2241.5093801756
 20
538.5784177745
 10
2242.6830552358
 20
538.3424131835
 10
2243.7963805933
 20
537.7664833034
 10
2244.8007039566
 20
536.8757812942
 10
2245.652141406
 20
535.7092289889
 10
2246.313469841
 20
534.3178479636
 10
2246.7557810087
 20
532.7624051536
 10
2246.9597630043
 20
531.1108796561
 10
2246.916475131
 20
529.4354824985
 10
2246.916475131
 20
529.4354824985
  0
LWPOLYLINE
  5
1BA
330
1F
100
AcDbEntity
  8
0
  6
Continuous
 62
     7
370
    15
100
AcDbPolyline
 90
       30
 70
   128
 43
0.0
 10
2235.8089856643
 20
531.6795973743
 10
2235.7691399593
 20
529.9673347438
 10
2235.9904967088
 20
528.2830266917
 10
2236.4626996059
 20
526.7053513492
 10
2237.1636800308
 20
525.308158871
 10
2238.0606554288
 20
524.1567163432
 10
2239.1116939325
 20
523.3049063647
 10
2240.2676366109
 20
522.7925150359
 10
2241.4744369526
 20
522.6435332263
 10
2242.675679161
 20
522.8649346793
 10
2243.8151709575
 20
523.4463481868
 10
2244.8396555919
 20
524.3605642284
 10
2245.7012109298
 20
525.5649058784
 10
2246.3595591325
 20
527.0029871429
 10
2246.783914401
 20
528.6076037849
 10
2246.9544432897
 20
530.3037135566
 10
2246.8631587762
 20
532.0120124782
 10
2246.5143225927
 20
533.6526303256
 10
2245.9242813129
 20
535.1488261188
 10
2245.1205871839
 20
536.430653807
 10
2244.1408358354
 20
537.4381809199
 10
2243.0308334369
 20
538.1243197883
 10
2241.842495634
 20
538.4569435084
 10
2240.6313739557
 20
538.4205250705
 10
2239.4541077156
 20
538.0167632068
 10
2238.3657418031
 20
537.2645227874
 10
2237.4171636839
 20
536.1990003551
 10
2236.6527341146
 20
534.8699955905
 10
2236.1081860799
 20
533.3396761382
 10
2235.8089856643
 20
531.6795973743
  0
ARC
  5
1BB
330
1F
100
AcDbEntity
  8
0
  6
Continuous
 62
     7
370
    15
100
AcDbCircle
 10
2238.9708265772
 20
526.3665810877
 30
0.0
 40
5.261782364718174
100
AcDbArc
 50
227.8416478288
 51
320.1605064609
  0
ARC
  5
1BC
330
1F
100
AcDbEntity
  8
0
  6
Continuous
 62
     7
370
    15
100
AcDbCircle
 10
2238.9640954311
 20
534.7561120804
 30
0.0
 40
5.261724749428045
100
AcDbArc
 50
41.8283889704
 51
132.060119745
  0
LWPOLYLINE
  5
1BD
330
1F
100
AcDbEntity
  8
0
  6
Continuous
 62
     7
370
    15
100
AcDbPolyline
 90
        3
 70
   128
 43
0.0
 10
2236.7591433067
 20
521.3991968597
 10
2237.5813148756
 20
521.1589305366
 10
2238.5269127626
 20
521.0643379653
  0
ARC
  5
1BE
330
1F
100
AcDbEntity
  8
0
  6
Continuous
 62
     7
370
    15
100
AcDbCircle
 10
2238.5433936629
 20
535.1437692711
 30
0.0
 40
4.920619897943926
100
AcDbArc
 50
90.1919042346
 51
111.2603766115
  0
LINE
  5
1BF
330
1F
100
AcDbEntity
  8
0
  6
Continuous
 62
     7
370
    15
100
AcDbLine
 10
2246.916475131
 20
1179.4354884589
 30
0.0
 11
2246.6839723129
 21
1178.0369846786
 31
0.0
  0
LWPOLYLINE
  5
1C0
330
1F
100
AcDbEntity
  8
0
  6
Continuous
 62
     7
370
    15
100
AcDbPolyline
 90
       27
 70
   128
 43
0.0
 10
2242.771448924
 20
1172.8187470401
 10
2242.2780714769
 20
1172.6645498241
 10
2241.0953514118
 20
1172.55028772
 10
2239.9216763515
 20
1172.786292311
 10
2238.8083509941
 20
1173.3622221912
 10
2237.8040276308
 20
1174.2529242004
 10
2236.9525901813
 20
1175.4194765056
 10
2236.2912617464
 20
1176.8108575309
 10
2235.8489505787
 20
1178.3663003409
 10
2235.6449685831
 20
1180.0178258384
 10
2235.6882415552
 20
1181.6932229961
 10
2235.9768919487
 20
1183.3192675078
 10
2236.4982835788
 20
1184.8249404395
 10
2237.2296325702
 20
1186.1443786586
 10
2238.1389759321
 20
1187.2199444736
 10
2239.1865871687
 20
1188.004639622
 10
2240.3266601104
 20
1188.4641616309
 10
2241.5093801756
 20
1188.578423735
 10
2242.6830552358
 20
1188.342419144
 10
2243.7963805933
 20
1187.7664892638
 10
2244.8007039566
 20
1186.8757872546
 10
2245.652141406
 20
1185.7092349494
 10
2246.313469841
 20
1184.3178539241
 10
2246.7557810087
 20
1182.762411114
 10
2246.9597630043
 20
1181.1108856166
 10
2246.916475131
 20
1179.4354884589
 10
2246.916475131
 20
1179.4354884589
  0
LWPOLYLINE
  5
1C1
330
1F
100
AcDbEntity
  8
0
  6
Continuous
 62
     7
370
    15
100
AcDbPolyline
 90
       30
 70
   128
 43
0.0
 10
2235.8089856643
 20
1181.6795735324
 10
2235.7691399593
 20
1179.9673407043
 10
2235.9904967088
 20
1178.2830326522
 10
2236.4626996059
 20
1176.7053573096
 10
2237.1636800308
 20
1175.3081648315
 10
2238.0606554288
 20
1174.1567223037
 10
2239.1116939325
 20
1173.3048825229
 10
2240.2676366109
 20
1172.7925209964
 10
2241.4744369526
 20
1172.6435391868
 10
2242.675679161
 20
1172.8649406398
 10
2243.8151709575
 20
1173.4463243449
 10
2244.8396555919
 20
1174.3605701888
 10
2245.7012109298
 20
1175.5649118388
 10
2246.3595591325
 20
1177.0029931033
 10
2246.783914401
 20
1178.6076097453
 10
2246.9544432897
 20
1180.3037195171
 10
2246.8631587762
 20
1182.0120184386
 10
2246.5143225927
 20
1183.6526064838
 10
2245.9242813129
 20
1185.1488320792
 10
2245.1205871839
 20
1186.4306597674
 10
2244.1408358354
 20
1187.4381868804
 10
2243.0308334369
 20
1188.1243257487
 10
2241.842495634
 20
1188.4569494689
 10
2240.6313739557
 20
1188.420531031
 10
2239.4541077156
 20
1188.0167691672
 10
2238.3657418031
 20
1187.2645287479
 10
2237.4171636839
 20
1186.1990063155
 10
2236.6527341146
 20
1184.870001551
 10
2236.1081860799
 20
1183.3396820987
 10
2235.8089856643
 20
1181.6795735324
  0
ARC
  5
1C2
330
1F
100
AcDbEntity
  8
0
  6
Continuous
 62
     7
370
    15
100
AcDbCircle
 10
2238.9708321824
 20
1176.3665069112
 30
0.0
 40
5.26172672225757
100
AcDbArc
 50
227.8410168939
 51
320.1611373959
  0
ARC
  5
1C3
330
1F
100
AcDbEntity
  8
0
  6
Continuous
 62
     7
370
    15
100
AcDbCircle
 10
2238.9640954311
 20
1184.7561180409
 30
0.0
 40
5.261724749427742
100
AcDbArc
 50
41.8283889704
 51
132.060119745
  0
LWPOLYLINE
  5
1C4
330
1F
100
AcDbEntity
  8
0
  6
Continuous
 62
     7
370
    15
100
AcDbPolyline
 90
        3
 70
   128
 43
0.0
 10
2236.7591433067
 20
1171.3992028201
 10
2237.5813148756
 20
1171.158936497
 10
2238.5269127626
 20
1171.0643439258
  0
ARC
  5
1C5
330
1F
100
AcDbEntity
  8
0
  6
Continuous
 62
     7
370
    15
100
AcDbCircle
 10
2238.5436391879
 20
1185.1424790688
 30
0.0
 40
4.921916881628287
100
AcDbArc
 50
90.1947118255
 51
111.2575690206
  0
LINE
  5
1C6
330
1F
100
AcDbEntity
  8
0
  6
Continuous
 62
     7
370
    15
100
AcDbLine
 10
2125.8773341615
 20
529.4354824985
 30
0.0
 11
2125.6448238928
 21
528.0370085204
 31
0.0
  0
LWPOLYLINE
  5
1C7
330
1F
100
AcDbEntity
  8
0
  6
Continuous
 62
     7
370
    15
100
AcDbPolyline
 90
       27
 70
   128
 43
0.0
 10
2121.7323079545
 20
522.8187410796
 10
2121.2389156062
 20
522.6645438636
 10
2120.0561992664
 20
522.5502817596
 10
2118.8825279314
 20
522.7862863505
 10
2117.769202574
 20
523.3622162307
 10
2116.7648754854
 20
524.2529182399
 10
2115.9134417612
 20
525.4194705451
 10
2115.2521151889
 20
526.8108515704
 10
2114.8097984333
 20
528.3662943805
 10
2114.605820163
 20
530.0178198779
 10
2114.649098723
 20
531.6932170356
 10
2114.9377416659
 20
533.3192615474
 10
2115.4591314334
 20
534.8249344791
 10
2116.1904841501
 20
536.1443726981
 10
2117.0998349626
 20
537.2199385131
 10
2118.1474387486
 20
538.0046336616
 10
2119.2875154156
 20
538.4641556705
 10
2120.4702317555
 20
538.5784177745
 10
2121.6439030904
 20
538.3424131835
 10
2122.7572284479
 20
537.7664833034
 10
2123.7615555365
 20
536.8757812942
 10
2124.6129892606
 20
535.7092289889
 10
2125.2743176956
 20
534.3178479636
 10
2125.7166325886
 20
532.7624051536
 10
2125.9206108589
 20
531.1108796561
 10
2125.8773341615
 20
529.4354824985
 10
2125.8773341615
 20
529.4354824985
  0
LWPOLYLINE
  5
1C8
330
1F
100
AcDbEntity
  8
0
  6
Continuous
 62
     7
370
    15
100
AcDbPolyline
 90
       30
 70
   128
 43
0.0
 10
2114.7698446948
 20
531.6795973743
 10
2114.7299934018
 20
529.9673347438
 10
2114.9513445634
 20
528.2830266917
 10
2115.4235511858
 20
526.7053513492
 10
2116.1245316107
 20
525.308158871
 10
2117.021510734
 20
524.1567163432
 10
2118.0725417871
 20
523.3049063647
 10
2119.2284881909
 20
522.7925150359
 10
2120.4352922577
 20
522.6435332263
 10
2121.6365270156
 20
522.8649346793
 10
2122.7760262627
 20
523.4463481868
 10
2123.8005034465
 20
524.3605642284
 10
2124.6620587844
 20
525.5649058784
 10
2125.3204069872
 20
527.0029871429
 10
2125.7447659809
 20
528.6076037849
 10
2125.915287419
 20
530.3037135566
 10
2125.8240029056
 20
532.0120124782
 10
2125.4751816232
 20
533.6526303256
 10
2124.8851291675
 20
535.1488261188
 10
2124.0814387638
 20
536.430653807
 10
2123.1016874153
 20
537.4381809199
 10
2121.9916924674
 20
538.1243197883
 10
2120.8033509392
 20
538.4569435084
 10
2119.5922329862
 20
538.4205250705
 10
2118.4149630208
 20
538.0167632068
 10
2117.3265971083
 20
537.2645227874
 10
2116.378018989
 20
536.1990003551
 10
2115.6135838319
 20
534.8699955905
 10
2115.0690395225
 20
533.3396761382
 10
2114.7698446948
 20
531.6795973743
  0
ARC
  5
1C9
330
1F
100
AcDbEntity
  8
0
  6
Continuous
 62
     7
370
    15
100
AcDbCircle
 10
2117.9316794924
 20
526.3665744177
 30
0.0
 40
5.261777066396448
100
AcDbArc
 50
227.8416033381
 51
320.1605529138
  0
ARC
  5
1CA
330
1F
100
AcDbEntity
  8
0
  6
Continuous
 62
     7
370
    15
100
AcDbCircle
 10
2117.9249511474
 20
534.7560995524
 30
0.0
 40
5.26173557395409
100
AcDbArc
 50
41.828466555
 51
132.0600467384
  0
LWPOLYLINE
  5
1CB
330
1F
100
AcDbEntity
  8
0
  6
Continuous
 62
     7
370
    15
100
AcDbPolyline
 90
        3
 70
   128
 43
0.0
 10
2115.7199986119
 20
521.3991968597
 10
2116.5421701808
 20
521.1589305366
 10
2117.4877643425
 20
521.0643379653
  0
ARC
  5
1CC
330
1F
100
AcDbEntity
  8
0
  6
Continuous
 62
     7
370
    15
100
AcDbCircle
 10
2117.5041938066
 20
535.1440606596
 30
0.0
 40
4.920328339012506
100
AcDbArc
 50
90.191316643
 51
111.2610083616
  0
LINE
  5
1CD
330
1F
100
AcDbEntity
  8
0
  6
Continuous
 62
     7
370
    15
100
AcDbLine
 10
2225.0342093248
 20
488.0643455947
 30
0.0
 11
2219.342636301
 21
488.0643455947
 31
0.0
  0
LINE
  5
1CE
330
1F
100
AcDbEntity
  8
0
  6
Continuous
 62
     7
370
    15
100
AcDbLine
 10
2235.1878456611
 20
488.0643455947
 30
0.0
 11
2225.0342093248
 21
488.0643455947
 31
0.0
  0
LINE
  5
1CF
330
1F
100
AcDbEntity
  8
0
  6
Continuous
 62
     7
370
    15
100
AcDbLine
 10
2125.0342152853
 20
488.0643455947
 30
0.0
 11
2119.3426385362
 21
488.0643455947
 31
0.0
  0
LINE
  5
1D0
330
1F
100
AcDbEntity
  8
0
  6
Continuous
 62
     7
370
    15
100
AcDbLine
 10
2135.1878478963
 20
488.0643455947
 30
0.0
 11
2125.0342152853
 21
488.0643455947
 31
0.0
  0
LINE
  5
1D1
330
1F
100
AcDbEntity
  8
0
  6
Continuous
 62
     7
370
    15
100
AcDbLine
 10
1907.2652481336
 20
1205.5643467868
 30
0.0
 11
1907.2652481336
 21
505.5643587077
 31
0.0
  0
LINE
  5
1D2
330
1F
100
AcDbEntity
  8
0
  6
Continuous
 62
     7
370
    15
100
AcDbLine
 10
2257.2652421732
 20
1203.5643427337
 30
0.0
 11
2256.6562764186
 21
1203.5643427337
 31
0.0
  0
ARC
  5
1D3
330
1F
100
AcDbEntity
  8
0
  6
Continuous
 62
     7
370
    15
100
AcDbCircle
 10
2254.7292723739
 20
1203.6375804399
 30
0.0
 40
1.928395278522068
100
AcDbArc
 50
357.8234644529
 51
87.6448335638
  0
LINE
  5
1D4
330
1F
100
AcDbEntity
  8
0
  6
Continuous
 62
     7
370
    15
100
AcDbLine
 10
2254.8085175295
 20
1205.5643467868
 30
0.0
 11
2255.26523812
 21
1205.5643467868
 31
0.0
  0
ARC
  5
1D5
330
1F
100
AcDbEntity
  8
0
  6
Continuous
 62
     7
370
    15
100
AcDbCircle
 10
2255.2652427692
 20
1203.5643527473
 30
0.0
 40
2.0
100
AcDbArc
 50
0.0
 51
90.0
  0
LINE
  5
1D6
330
1F
100
AcDbEntity
  8
0
  6
Continuous
 62
     7
370
    15
100
AcDbLine
 10
2256.6562764186
 20
507.5643627608
 30
0.0
 11
2257.2652421732
 21
507.5643627608
 31
0.0
  0
ARC
  5
1D7
330
1F
100
AcDbEntity
  8
0
  6
Continuous
 62
     7
370
    15
100
AcDbCircle
 10
2255.2652427692
 20
507.5643527473
 30
0.0
 40
2.0
100
AcDbArc
 50
270.0
 51
0.0
  0
LINE
  5
1D8
330
1F
100
AcDbEntity
  8
0
  6
Continuous
 62
     7
370
    15
100
AcDbLine
 10
2255.26523812
 20
505.5643587077
 30
0.0
 11
2254.8085175295
 21
505.5643587077
 31
0.0
  0
ARC
  5
1D9
330
1F
100
AcDbEntity
  8
0
  6
Continuous
 62
     7
370
    15
100
AcDbCircle
 10
2254.7292723739
 20
507.4911250546
 30
0.0
 40
1.928395278522073
100
AcDbArc
 50
272.3551664362
 51
2.1765355471
  0
LINE
  5
1DA
330
1F
100
AcDbEntity
  8
0
  6
Continuous
 62
     7
370
    15
100
AcDbLine
 10
2256.6562764186
 20
507.5643627608
 30
0.0
 11
2256.6562764186
 21
1203.5643427337
 31
0.0
  0
LINE
  5
1DB
330
1F
100
AcDbEntity
  8
0
  6
Continuous
 62
     7
370
    15
100
AcDbLine
 10
2257.2652421732
 20
1203.5643427337
 30
0.0
 11
2257.2652421732
 21
507.5643627608
 31
0.0
  0
LINE
  5
1DC
330
1F
100
AcDbEntity
  8
0
  6
Continuous
 62
     7
370
    15
100
AcDbLine
 10
2100.7296521057
 20
507.5643627608
 30
0.0
 11
2102.3865066309
 21
507.5643627608
 31
0.0
  0
ARC
  5
1DD
330
1F
100
AcDbEntity
  8
0
  6
Continuous
 62
     7
370
    15
100
AcDbCircle
 10
2100.6187498928
 20
507.3143522794
 30
0.0
 40
1.785348460585409
100
AcDbArc
 50
281.4214219158
 51
8.0498459364
  0
LINE
  5
1DE
330
1F
100
AcDbEntity
  8
0
  6
Continuous
 62
     7
370
    15
100
AcDbLine
 10
2100.9722914387
 20
505.5643587077
 30
0.0
 11
2099.7296519417
 21
505.5643587077
 31
0.0
  0
LWPOLYLINE
  5
1DF
330
1F
100
AcDbEntity
  8
0
  6
Continuous
 62
     7
370
    15
100
AcDbPolyline
 90
        9
 70
   128
 43
0.0
 10
2099.7296519417
 20
505.5643587077
 10
2099.9247416694
 20
505.6027739013
 10
2100.1123351816
 20
505.7165889705
 10
2100.2852221791
 20
505.9014229739
 10
2100.4367586065
 20
506.1501531566
 10
2100.5611218352
 20
506.4532129729
 10
2100.6535313863
 20
506.7989795173
 10
2100.7104370583
 20
507.1741609538
 10
2100.7296521057
 20
507.5643627608
  0
LWPOLYLINE
  5
1E0
330
1F
100
AcDbEntity
  8
0
  6
Continuous
 62
     7
370
    15
100
AcDbPolyline
 90
        9
 70
   128
 43
0.0
 10
2100.7296521057
 20
1203.5643427337
 10
2100.7104370583
 20
1203.9545445407
 10
2100.6535313863
 20
1204.3297259772
 10
2100.5611218352
 20
1204.6754925216
 10
2100.4367586065
 20
1204.9785523379
 10
2100.2852221791
 20
1205.2272825206
 10
2100.1123351816
 20
1205.412116524
 10
2099.9247416694
 20
1205.5259315932
 10
2099.7296519417
 20
1205.5643467868
  0
LINE
  5
1E1
330
1F
100
AcDbEntity
  8
0
  6
Continuous
 62
     7
370
    15
100
AcDbLine
 10
2100.7296521057
 20
507.5643627608
 30
0.0
 11
2100.7296521057
 21
1203.5643427337
 31
0.0
  0
LINE
  5
1E2
330
1F
100
AcDbEntity
  8
0
  6
Continuous
 62
     7
370
    15
100
AcDbLine
 10
2102.3865066309
 20
1203.5643427337
 30
0.0
 11
2100.7296521057
 21
1203.5643427337
 31
0.0
  0
LINE
  5
1E3
330
1F
100
AcDbEntity
  8
0
  6
Continuous
 62
     7
370
    15
100
AcDbLine
 10
2099.7296519417
 20
1205.5643467868
 30
0.0
 11
2100.9722914387
 21
1205.5643467868
 31
0.0
  0
ARC
  5
1E4
330
1F
100
AcDbEntity
  8
0
  6
Continuous
 62
     7
370
    15
100
AcDbCircle
 10
2100.6187498928
 20
1203.8143532151
 30
0.0
 40
1.785348460585417
100
AcDbArc
 50
351.9501540636
 51
78.5785780842
  0
LINE
  5
1E5
330
1F
100
AcDbEntity
  8
0
  6
Continuous
 62
     7
370
    15
100
AcDbLine
 10
2102.3865066309
 20
1203.5643427337
 30
0.0
 11
2102.3865066309
 21
507.5643627608
 31
0.0
  0
LINE
  5
1E6
330
1F
100
AcDbEntity
  8
0
  6
Continuous
 62
     7
370
    15
100
AcDbLine
 10
2254.9220941801
 20
1203.5643427337
 30
0.0
 11
2102.3865066309
 21
1203.5643427337
 31
0.0
  0
LINE
  5
1E7
330
1F
100
AcDbEntity
  8
0
  6
Continuous
 62
     7
370
    15
100
AcDbLine
 10
2100.9722914387
 20
1205.5643467868
 30
0.0
 11
2253.5078845758
 21
1205.5643467868
 31
0.0
  0
ARC
  5
1E8
330
1F
100
AcDbEntity
  8
0
  6
Continuous
 62
     7
370
    15
100
AcDbCircle
 10
2253.1543508149
 20
1203.8143636589
 30
0.0
 40
1.78533668202844
100
AcDbArc
 50
351.9497621016
 51
78.5787566028
  0
LINE
  5
1E9
330
1F
100
AcDbEntity
  8
0
  6
Continuous
 62
     7
370
    15
100
AcDbLine
 10
2254.9220941801
 20
1203.5643427337
 30
0.0
 11
2254.9220941801
 21
507.5643627608
 31
0.0
  0
LINE
  5
1EA
330
1F
100
AcDbEntity
  8
0
  6
Continuous
 62
     7
370
    15
100
AcDbLine
 10
2102.3865066309
 20
507.5643627608
 30
0.0
 11
2254.9220941801
 21
507.5643627608
 31
0.0
  0
LWPOLYLINE
  5
1EB
330
1F
100
AcDbEntity
  8
0
  6
Continuous
 62
     7
370
    15
100
AcDbPolyline
 90
       30
 70
   128
 43
0.0
 10
2124.6089473207
 20
535.7160835231
 10
2124.496987446
 20
535.9707741702
 10
2123.665998115
 20
537.4651520217
 10
2122.6500481207
 20
538.7101142371
 10
2121.4858539242
 20
539.6606593097
 10
2120.2154926796
 20
540.282454964
 10
2118.8848823149
 20
540.5530302489
 10
2117.5421088774
 20
540.4625802005
 10
2116.2357054491
 20
540.0143532718
 10
2115.0128919471
 20
539.2246215308
 10
2113.9178614903
 20
538.1218461955
 10
2112.9901915629
 20
536.7459325755
 10
2112.2634097774
 20
535.1466207469
 10
2111.7637850184
 20
533.3816676105
 10
2111.5093756307
 20
531.5149097407
 10
2111.5093756307
 20
529.6137897933
 10
2111.7637850184
 20
527.7470319236
 10
2112.2634097774
 20
525.9820787871
 10
2112.9901915629
 20
524.3827669585
 10
2113.9178614903
 20
523.0068533385
 10
2115.0128919471
 20
521.9041078055
 10
2116.2357054491
 20
521.1143462623
 10
2117.5421088774
 20
520.6661491359
 10
2118.8848823149
 20
520.5756692851
 10
2120.2154926796
 20
520.8462445701
 10
2121.4858539242
 20
521.4680402244
 10
2122.6500481207
 20
522.4185852969
 10
2123.665998115
 20
523.6635773147
 10
2124.496987446
 20
525.1579551662
 10
2124.6977545161
 20
525.6276099647
  0
LWPOLYLINE
  5
1EC
330
1F
100
AcDbEntity
  8
0
  6
Continuous
 62
     7
370
    15
100
AcDbPolyline
 90
       30
 70
   128
 43
0.0
 10
2124.6089473207
 20
1185.7160596812
 10
2124.496987446
 20
1185.9707503284
 10
2123.665998115
 20
1187.4651281798
 10
2122.6500481207
 20
1188.7101201976
 10
2121.4858539242
 20
1189.6606652701
 10
2120.2154926796
 20
1190.2824609244
 10
2118.8848823149
 20
1190.5530362094
 10
2117.5421088774
 20
1190.4625563586
 10
2116.2357054491
 20
1190.0143592322
 10
2115.0128919471
 20
1189.224597689
 10
2113.9178614903
 20
1188.121852156
 10
2112.9901915629
 20
1186.745938536
 10
2112.2634097774
 20
1185.1466267074
 10
2111.7637850184
 20
1183.3816735709
 10
2111.5093756307
 20
1181.5149157012
 10
2111.5093756307
 20
1179.6137957538
 10
2111.7637850184
 20
1177.7470378841
 10
2112.2634097774
 20
1175.9820847476
 10
2112.9901915629
 20
1174.382772919
 10
2113.9178614903
 20
1173.006859299
 10
2115.0128919471
 20
1171.9040839637
 10
2116.2357054491
 20
1171.1143522227
 10
2117.5421088774
 20
1170.666125294
 10
2118.8848823149
 20
1170.5756752456
 10
2120.2154926796
 20
1170.8462505305
 10
2121.4858539242
 20
1171.4680461848
 10
2122.6500481207
 20
1172.4185912574
 10
2123.665998115
 20
1173.6635534728
 10
2124.496987446
 20
1175.1579313243
 10
2124.6977545161
 20
1175.6275861228
  0
LWPOLYLINE
  5
1ED
330
1F
100
AcDbEntity
  8
0
  6
Continuous
 62
     7
370
    15
100
AcDbPolyline
 90
       30
 70
   128
 43
0.0
 10
2245.6480882902
 20
1185.7160596812
 10
2245.5361358661
 20
1185.9707503284
 10
2244.7051428098
 20
1187.4651281798
 10
2243.6891965408
 20
1188.7101201976
 10
2242.524998619
 20
1189.6606652701
 10
2241.2546448249
 20
1190.2824609244
 10
2239.924030735
 20
1190.5530362094
 10
2238.5812572975
 20
1190.4625563586
 10
2237.2748575945
 20
1190.0143592322
 10
2236.0520385046
 20
1189.224597689
 10
2234.9570117731
 20
1188.121852156
 10
2234.0293399829
 20
1186.745938536
 10
2233.3025507469
 20
1185.1466267074
 10
2232.8029297132
 20
1183.3816735709
 10
2232.5485221881
 20
1181.5149157012
 10
2232.5485221881
 20
1179.6137957538
 10
2232.8029297132
 20
1177.7470378841
 10
2233.3025507469
 20
1175.9820847476
 10
2234.0293399829
 20
1174.382772919
 10
2234.9570117731
 20
1173.006859299
 10
2236.0520385046
 20
1171.9040839637
 10
2237.2748575945
 20
1171.1143522227
 10
2238.5812572975
 20
1170.666125294
 10
2239.924030735
 20
1170.5756752456
 10
2241.2546448249
 20
1170.8462505305
 10
2242.524998619
 20
1171.4680461848
 10
2243.6891965408
 20
1172.4185912574
 10
2244.7051428098
 20
1173.6635534728
 10
2245.5361358661
 20
1175.1579313243
 10
2245.7368992109
 20
1175.6275861228
  0
LWPOLYLINE
  5
1EE
330
1F
100
AcDbEntity
  8
0
  6
Continuous
 62
     7
370
    15
100
AcDbPolyline
 90
       30
 70
   128
 43
0.0
 10
2245.6480882902
 20
535.7160835231
 10
2245.5361358661
 20
535.9707741702
 10
2244.7051428098
 20
537.4651520217
 10
2243.6891965408
 20
538.7101142371
 10
2242.524998619
 20
539.6606593097
 10
2241.2546448249
 20
540.282454964
 10
2239.924030735
 20
540.5530302489
 10
2238.5812572975
 20
540.4625802005
 10
2237.2748575945
 20
540.0143532718
 10
2236.0520385046
 20
539.2246215308
 10
2234.9570117731
 20
538.1218461955
 10
2234.0293399829
 20
536.7459325755
 10
2233.3025507469
 20
535.1466207469
 10
2232.8029297132
 20
533.3816676105
 10
2232.5485221881
 20
531.5149097407
 10
2232.5485221881
 20
529.6137897933
 10
2232.8029297132
 20
527.7470319236
 10
2233.3025507469
 20
525.9820787871
 10
2234.0293399829
 20
524.3827669585
 10
2234.9570117731
 20
523.0068533385
 10
2236.0520385046
 20
521.9041078055
 10
2237.2748575945
 20
521.1143462623
 10
2238.5812572975
 20
520.6661491359
 10
2239.924030735
 20
520.5756692851
 10
2241.2546448249
 20
520.8462445701
 10
2242.524998619
 20
521.4680402244
 10
2243.6891965408
 20
522.4185852969
 10
2244.7051428098
 20
523.6635773147
 10
2245.5361358661
 20
525.1579551662
 10
2245.7368992109
 20
525.6276099647
  0
LINE
  5
1EF
330
1F
100
AcDbEntity
  8
0
  6
Continuous
 62
     7
370
    15
100
AcDbLine
 10
2253.5078845758
 20
505.5643587077
 30
0.0
 11
2100.9722914387
 21
505.5643587077
 31
0.0
  0
ARC
  5
1F0
330
1F
100
AcDbEntity
  8
0
  6
Continuous
 62
     7
370
    15
100
AcDbCircle
 10
2253.1543508149
 20
507.3143418357
 30
0.0
 40
1.785336682028251
100
AcDbArc
 50
281.4212433973
 51
8.0502378984
  0
ARC
  5
1F1
330
1F
100
AcDbEntity
  8
0
  6
Continuous
 62
     7
370
    15
100
AcDbCircle
 10
2117.1144302569
 20
1184.3165521831
 30
0.0
 40
6.284950739243287
100
AcDbArc
 50
37.6557154676
 51
81.7332127334
  0
ARC
  5
1F2
330
1F
100
AcDbEntity
  8
0
  6
Continuous
 62
     7
370
    15
100
AcDbCircle
 10
2117.1002184986
 20
1176.8505403152
 30
0.0
 40
6.324982152837204
100
AcDbArc
 50
278.3441985263
 51
323.6263115297
  0
ARC
  5
1F3
330
1F
100
AcDbEntity
  8
0
  6
Continuous
 62
     7
370
    15
100
AcDbCircle
 10
2117.1143384968
 20
534.3163411485
 30
0.0
 40
6.285166876285871
100
AcDbArc
 50
37.656899577
 51
81.7326537333
  0
ARC
  5
1F4
330
1F
100
AcDbEntity
  8
0
  6
Continuous
 62
     7
370
    15
100
AcDbCircle
 10
2117.1002184986
 20
526.8505343547
 30
0.0
 40
6.324982152837644
100
AcDbArc
 50
278.3441985263
 51
323.6263115297
  0
ARC
  5
1F5
330
1F
100
AcDbEntity
  8
0
  6
Continuous
 62
     7
370
    15
100
AcDbCircle
 10
2238.15347935
 20
534.3163359904
 30
0.0
 40
6.285173068899964
100
AcDbArc
 50
37.6569154084
 51
81.7325922315
  0
ARC
  5
1F6
330
1F
100
AcDbEntity
  8
0
  6
Continuous
 62
     7
370
    15
100
AcDbCircle
 10
2238.1393472731
 20
526.8505670695
 30
0.0
 40
6.325017372286355
100
AcDbArc
 50
278.3443315975
 51
323.6261784585
  0
ARC
  5
1F7
330
1F
100
AcDbEntity
  8
0
  6
Continuous
 62
     7
370
    15
100
AcDbCircle
 10
2238.1535711104
 20
1184.3165470255
 30
0.0
 40
6.284956931216495
100
AcDbArc
 50
37.655731299
 51
81.7331512315
  0
ARC
  5
1F8
330
1F
100
AcDbEntity
  8
0
  6
Continuous
 62
     7
370
    15
100
AcDbCircle
 10
2238.1393472731
 20
1176.85057303
 30
0.0
 40
6.325017372286153
100
AcDbArc
 50
278.3443315975
 51
323.6261784585
  0
LINE
  5
1F9
330
1F
100
AcDbEntity
  8
0
  6
Continuous
 62
     7
370
    15
100
AcDbLine
 10
2256.6562764186
 20
1203.5643427337
 30
0.0
 11
2254.9220941801
 21
1203.5643427337
 31
0.0
  0
LINE
  5
1FA
330
1F
100
AcDbEntity
  8
0
  6
Continuous
 62
     7
370
    15
100
AcDbLine
 10
2253.5078845758
 20
1205.5643467868
 30
0.0
 11
2254.8085175295
 21
1205.5643467868
 31
0.0
  0
LINE
  5
1FB
330
1F
100
AcDbEntity
  8
0
  6
Continuous
 62
     7
370
    15
100
AcDbLine
 10
2254.9220941801
 20
507.5643627608
 30
0.0
 11
2256.6562764186
 21
507.5643627608
 31
0.0
  0
LINE
  5
1FC
330
1F
100
AcDbEntity
  8
0
  6
Continuous
 62
     7
370
    15
100
AcDbLine
 10
2254.8085175295
 20
505.5643587077
 30
0.0
 11
2253.5078845758
 21
505.5643587077
 31
0.0
  0
LINE
  5
1FD
330
1F
100
AcDbEntity
  8
0
  6
Continuous
 62
     7
370
    15
100
AcDbLine
 10
1913.2652453918
 20
507.5643627608
 30
0.0
 11
1914.5593367357
 21
507.5643627608
 31
0.0
  0
ARC
  5
1FE
330
1F
100
AcDbEntity
  8
0
  6
Continuous
 62
     7
370
    15
100
AcDbCircle
 10
1912.239342367
 20
507.097829683
 30
0.0
 40
2.366437614561907
100
AcDbArc
 50
319.6084036359
 51
11.3700986722
  0
LINE
  5
1FF
330
1F
100
AcDbEntity
  8
0
  6
Continuous
 62
     7
370
    15
100
AcDbLine
 10
1914.0417001981
 20
505.5643587077
 30
0.0
 11
1913.2652453918
 21
505.5643587077
 31
0.0
  0
LINE
  5
200
330
1F
100
AcDbEntity
  8
0
  6
Continuous
 62
     7
370
    15
100
AcDbLine
 10
1913.2652453918
 20
505.5643587077
 30
0.0
 11
1913.2652453918
 21
507.5643627608
 31
0.0
  0
ELLIPSE
  5
201
330
1F
100
AcDbEntity
  8
0
  6
Continuous
 62
     7
370
    15
100
AcDbEllipse
 10
1913.2652427692
 20
510.5643527473
 30
0.0
 11
5.0
 21
0.0
 31
0.0
210
0.0
220
0.0
230
1.0
 40
0.6
 41
3.141592653589793
 42
4.712388980384699
  0
LINE
  5
202
330
1F
100
AcDbEntity
  8
0
  6
Continuous
 62
     7
370
    15
100
AcDbLine
 10
1908.2652501602
 20
510.5643539394
 30
0.0
 11
1908.2652501602
 21
1200.5643515552
 31
0.0
  0
ELLIPSE
  5
203
330
1F
100
AcDbEntity
  8
0
  6
Continuous
 62
     7
370
    15
100
AcDbEllipse
 10
1913.2652427692
 20
1200.5643527473
 30
0.0
 11
5.0
 21
0.0
 31
0.0
210
0.0
220
0.0
230
1.0
 40
0.6
 41
1.570796326794897
 42
3.141592653589793
  0
LINE
  5
204
330
1F
100
AcDbEntity
  8
0
  6
Continuous
 62
     7
370
    15
100
AcDbLine
 10
1914.5593367357
 20
1203.5643427337
 30
0.0
 11
1913.2652453918
 21
1203.5643427337
 31
0.0
  0
LINE
  5
205
330
1F
100
AcDbEntity
  8
0
  6
Continuous
 62
     7
370
    15
100
AcDbLine
 10
1914.5593367357
 20
1203.5643427337
 30
0.0
 11
1914.5593367357
 21
507.5643627608
 31
0.0
  0
LINE
  5
206
330
1F
100
AcDbEntity
  8
0
  6
Continuous
 62
     7
370
    15
100
AcDbLine
 10
1913.2652453918
 20
1203.5643427337
 30
0.0
 11
1913.2652453918
 21
1205.5643467868
 31
0.0
  0
ARC
  5
207
330
1F
100
AcDbEntity
  8
0
  6
Continuous
 62
     7
370
    15
100
AcDbCircle
 10
1912.239342367
 20
1204.0308758115
 30
0.0
 40
2.36643761456198
100
AcDbArc
 50
348.6299013278
 51
40.3915963641
  0
ARC
  5
208
330
1F
100
AcDbEntity
  8
0
  6
Continuous
 62
     7
370
    15
100
AcDbCircle
 10
1913.2652427692
 20
1200.5643527473
 30
0.0
 40
5.0
100
AcDbArc
 50
90.0
 51
180.0
  0
ARC
  5
209
330
1F
100
AcDbEntity
  8
0
  6
Continuous
 62
     7
370
    15
100
AcDbCircle
 10
1913.2652427692
 20
510.5643527473
 30
0.0
 40
5.0
100
AcDbArc
 50
180.0
 51
270.0
  0
ARC
  5
20A
330
1F
100
AcDbEntity
  8
0
  6
Continuous
 62
     7
370
    15
100
AcDbCircle
 10
2096.4801464491
 20
1204.0308577493
 30
0.0
 40
2.36649611315462
100
AcDbArc
 50
348.6306322013
 51
40.3909655119
  0
LINE
  5
20B
330
1F
100
AcDbEntity
  8
0
  6
Continuous
 62
     7
370
    15
100
AcDbLine
 10
2098.8002041195
 20
1203.5643427337
 30
0.0
 11
1914.5593367357
 21
1203.5643427337
 31
0.0
  0
LINE
  5
20C
330
1F
100
AcDbEntity
  8
0
  6
Continuous
 62
     7
370
    15
100
AcDbLine
 10
1914.0417001981
 20
1205.5643467868
 30
0.0
 11
2098.2825657193
 21
1205.5643467868
 31
0.0
  0
LINE
  5
20D
330
1F
100
AcDbEntity
  8
0
  6
Continuous
 62
     7
370
    15
100
AcDbLine
 10
2098.8002041195
 20
1203.5643427337
 30
0.0
 11
2098.8002041195
 21
507.5643627608
 31
0.0
  0
LINE
  5
20E
330
1F
100
AcDbEntity
  8
0
  6
Continuous
 62
     7
370
    15
100
AcDbLine
 10
1914.5593367357
 20
507.5643627608
 30
0.0
 11
2098.8002041195
 21
507.5643627608
 31
0.0
  0
LWPOLYLINE
  5
20F
330
1F
100
AcDbEntity
  8
0
  6
Continuous
 62
     7
370
    15
100
AcDbPolyline
 90
       26
 70
   128
 43
0.0
 10
2030.949524029
 20
545.5643503631
 10
2031.1316013176
 20
547.0564930404
 10
2031.6663965423
 20
548.4548776115
 10
2032.5203038592
 20
549.6716468299
 10
2033.6396679122
 20
550.6303279365
 10
2034.9541552205
 20
551.2706904376
 10
2036.3811723728
 20
551.5525011981
 10
2037.8310590822
 20
551.4580874408
 10
2039.212705924
 20
550.9933202232
 10
2040.4393061835
 20
550.1874356235
 10
2041.4337836046
 20
549.0910677875
 10
2042.1336501677
 20
547.7730898822
 10
2042.4949362714
 20
546.3163523639
 10
2042.4949362714
 20
544.8123483623
 10
2042.1336501677
 20
543.355610844
 10
2041.4337836046
 20
542.0376329387
 10
2040.4393061835
 20
540.9412651027
 10
2039.212705924
 20
540.135380503
 10
2037.8310590822
 20
539.6706430877
 10
2036.3811723728
 20
539.576199528
 10
2034.9541552205
 20
539.8580102885
 10
2033.6396679122
 20
540.4983727897
 10
2032.5203038592
 20
541.4570836986
 10
2031.6663965423
 20
542.6738231147
 10
2031.1316013176
 20
544.0722076858
 10
2030.949524029
 20
545.5643503631
  0
LWPOLYLINE
  5
210
330
1F
100
AcDbEntity
  8
0
  6
Continuous
 62
     7
370
    15
100
AcDbPolyline
 90
       26
 70
   128
 43
0.0
 10
2030.949524029
 20
1180.5643408263
 10
2031.1316013176
 20
1182.0564835036
 10
2031.6663965423
 20
1183.4548680747
 10
2032.5203038592
 20
1184.6716372932
 10
2033.6396679122
 20
1185.6303183997
 10
2034.9541552205
 20
1186.2706809009
 10
2036.3811723728
 20
1186.5525214637
 10
2037.8310590822
 20
1186.458077904
 10
2039.212705924
 20
1185.9933106864
 10
2040.4393061835
 20
1185.1874260867
 10
2041.4337836046
 20
1184.0910582507
 10
2042.1336501677
 20
1182.7731101478
 10
2042.4949362714
 20
1181.3163428271
 10
2042.4949362714
 20
1179.8123388255
 10
2042.1336501677
 20
1178.3556013072
 10
2041.4337836046
 20
1177.0376532043
 10
2040.4393061835
 20
1175.9412853683
 10
2039.212705924
 20
1175.1354007686
 10
2037.8310590822
 20
1174.6706335509
 10
2036.3811723728
 20
1174.5761899913
 10
2034.9541552205
 20
1174.8580007518
 10
2033.6396679122
 20
1175.4983930553
 10
2032.5203038592
 20
1176.4570741618
 10
2031.6663965423
 20
1177.6738433803
 10
2031.1316013176
 20
1179.0722279513
 10
2030.949524029
 20
1180.5643408263
  0
LWPOLYLINE
  5
211
330
1F
100
AcDbEntity
  8
0
  6
Continuous
 62
     7
370
    15
100
AcDbPolyline
 90
       20
 70
   128
 43
0.0
 10
1971.6029636402
 20
864.5313053096
 10
1969.5513568658
 20
865.9112496937
 10
1967.713663711
 20
867.5833499694
 10
1966.1283738751
 20
869.5125781635
 10
1964.8286945958
 20
871.6585195327
 10
1963.8418502946
 20
873.9762200678
 10
1963.1885237832
 20
876.4171271289
 10
1962.8823943276
 20
878.9301073814
 10
1962.9298694272
 20
881.4625150228
 10
1963.3299656052
 20
883.9613037819
 10
1964.0743009586
 20
886.3741240168
 10
1965.1472739715
 20
888.6504328514
 10
1966.5264136929
 20
890.7425409818
 10
1968.1828342218
 20
892.6066278184
 10
1970.0818233032
 20
894.2036374176
 10
1972.1836022873
 20
895.5001166726
 10
1974.4441456933
 20
896.468908217
 10
1976.8161050815
 20
897.0897166694
 10
1979.2497776289
 20
897.349533316
 10
1981.6941864628
 20
897.2429192329
  0
ARC
  5
212
330
1F
100
AcDbEntity
  8
0
  6
Continuous
 62
     7
370
    15
100
AcDbCircle
 10
2018.3993711907
 20
946.2058954619
 30
0.0
 40
94.13098552652058
100
AcDbArc
 50
240.1889455966
 51
299.8110544034
  0
LWPOLYLINE
  5
213
330
1F
100
AcDbEntity
  8
0
  6
Continuous
 62
     7
370
    15
100
AcDbPolyline
 90
       20
 70
   128
 43
0.0
 10
2055.1045503307
 20
897.2429192329
 10
2057.54896289
 20
897.349533316
 10
2059.9826373
 20
897.0897166694
 10
2062.3545911003
 20
896.468908217
 10
2064.615136369
 20
895.5001166726
 10
2066.7169190783
 20
894.2036374176
 10
2068.6159081597
 20
892.6066278184
 10
2070.2723221693
 20
890.7425409818
 10
2071.6514618907
 20
888.6504328514
 10
2072.7244367663
 20
886.3741240168
 10
2073.4687693257
 20
883.9613037819
 10
2073.8688673664
 20
881.4625150228
 10
2073.9163480539
 20
878.9301073814
 10
2073.6102167357
 20
876.4171271289
 10
2072.9568883617
 20
873.9762200678
 10
2071.9700468544
 20
871.6585195327
 10
2070.6703675751
 20
869.5125781635
 10
2069.0850749452
 20
867.5833499694
 10
2067.2473799277
 20
865.9112496937
 10
2065.1957787413
 20
864.5313053096
  0
ARC
  5
214
330
1F
100
AcDbEntity
  8
0
  6
Continuous
 62
     7
370
    15
100
AcDbCircle
 10
2018.3993683968
 20
1205.3763843477
 30
0.0
 40
310.3119441859537
100
AcDbArc
 50
263.2068769661
 51
276.7931230339
  0
ARC
  5
215
330
1F
100
AcDbEntity
  8
0
  6
Continuous
 62
     7
370
    15
100
AcDbCircle
 10
2096.4801464491
 20
507.0978477452
 30
0.0
 40
2.366496113154164
100
AcDbArc
 50
319.6090344881
 51
11.3693677987
  0
LINE
  5
216
330
1F
100
AcDbEntity
  8
0
  6
Continuous
 62
     7
370
    15
100
AcDbLine
 10
2098.2825657193
 20
505.5643587077
 30
0.0
 11
1914.0417001981
 21
505.5643587077
 31
0.0
  0
LINE
  5
217
330
1F
100
AcDbEntity
  8
0
  6
Continuous
 62
     7
370
    15
100
AcDbLine
 10
1908.2652501602
 20
1205.5643467868
 30
0.0
 11
1908.2652501602
 21
1200.5643515552
 31
0.0
  0
LINE
  5
218
330
1F
100
AcDbEntity
  8
0
  6
Continuous
 62
     7
370
    15
100
AcDbLine
 10
1908.2652501602
 20
505.5643587077
 30
0.0
 11
1908.2652501602
 21
510.5643539394
 31
0.0
  0
LWPOLYLINE
  5
219
330
1F
100
AcDbEntity
  8
0
  6
Continuous
 62
     7
370
    15
100
AcDbPolyline
 90
        9
 70
   128
 43
0.0
 10
1981.6941864628
 20
897.2429192329
 10
1981.4953677196
 20
895.7893295849
 10
1981.2295906086
 20
894.3915969396
 10
1980.9070698757
 20
893.1034437085
 10
1980.5402032871
 20
891.9743640984
 10
1980.1430798907
 20
891.047754016
 10
1979.7309733767
 20
890.3592235113
 10
1979.3197162289
 20
889.9352258707
 10
1978.9251111288
 20
889.7920592392
  0
ARC
  5
21A
330
1F
100
AcDbEntity
  8
0
  6
Continuous
 62
     7
370
    15
100
AcDbCircle
 10
2016.4581805031
 20
946.2684216791
 30
0.0
 40
86.7038374921167
100
AcDbArc
 50
260.2623660747
 51
279.5250381907
  0
LWPOLYLINE
  5
21B
330
1F
100
AcDbEntity
  8
0
  6
Continuous
 62
     7
370
    15
100
AcDbPolyline
 90
        9
 70
   128
 43
0.0
 10
2059.7577601511
 20
871.0997082928
 10
2060.2036494602
 20
870.9734982515
 10
2060.7667866934
 20
870.5997184554
 10
2061.4255316395
 20
869.9927326927
 10
2062.1545672257
 20
869.1758677999
 10
2062.9258774061
 20
868.1805149356
 10
2063.7098219086
 20
867.0449244494
 10
2064.4762724478
 20
865.8127371857
 10
2065.1957787413
 20
864.5313053096
  0
LWPOLYLINE
  5
21C
330
1F
100
AcDbEntity
  8
0
  6
Continuous
 62
     7
370
    15
100
AcDbPolyline
 90
        9
 70
   128
 43
0.0
 10
2055.1045503307
 20
897.2429192329
 10
2055.228773861
 20
895.7893295849
 10
2055.2736282189
 20
894.3915969396
 10
2055.2373867322
 20
893.1034437085
 10
2055.1214426596
 20
891.9743640984
 10
2054.9302533109
 20
891.047754016
 10
2054.6711649586
 20
890.3592235113
 10
2054.3541334409
 20
889.9352258707
 10
2053.9913441826
 20
889.7920592392
  0
ARC
  5
21D
330
1F
100
AcDbEntity
  8
0
  6
Continuous
 62
     7
370
    15
100
AcDbCircle
 10
2016.4582276557
 20
1204.8757063589
 30
0.0
 40
317.3112659809779
100
AcDbArc
 50
263.2068730907
 51
276.7931269093
  0
LINE
  5
21E
330
1F
100
AcDbEntity
  8
0
  6
Continuous
 62
     7
370
    15
100
AcDbLine
 10
1977.3721940655
 20
889.7920592392
 30
0.0
 11
1978.9251111288
 21
889.7920592392
 31
0.0
  0
LINE
  5
21F
330
1F
100
AcDbEntity
  8
0
  6
Continuous
 62
     7
370
    15
100
AcDbLine
 10
2058.2048449505
 20
871.0997082928
 30
0.0
 11
2059.7577601511
 21
871.0997082928
 31
0.0
  0
ARC
  5
220
330
1F
100
AcDbEntity
  8
0
  6
Continuous
 62
     7
370
    15
100
AcDbCircle
 10
2014.8233518325
 20
946.8997269773
 30
0.0
 40
87.33611382304821
100
AcDbArc
 50
270.5631625258
 51
299.7831565686
  0
ARC
  5
221
330
1F
100
AcDbEntity
  8
0
  6
Continuous
 62
     7
370
    15
100
AcDbCircle
 10
2014.9087841584
 20
1204.9219646668
 30
0.0
 40
317.3576104186284
100
AcDbArc
 50
263.2072382289
 51
269.9993733864
  0
LWPOLYLINE
  5
222
330
1F
100
AcDbEntity
  8
0
  6
Continuous
 62
     7
370
    15
100
AcDbPolyline
 90
       22
 70
   128
 43
0.0
 10
2032.3637373585
 20
1180.5643408263
 10
2032.5353912849
 20
1179.3853311504
 10
2033.0351017255
 20
1178.3110766376
 10
2033.8184632201
 20
1177.4370341266
 10
2034.8158724446
 20
1176.8408684695
 10
2035.9387084682
 20
1176.5755383933
 10
2037.0871968407
 20
1176.6646473373
 10
2038.1592944104
 20
1177.1002380813
 10
2039.0597380538
 20
1177.8436570132
 10
2039.708519711
 20
1178.8288323844
 10
2040.0479905147
 20
1179.9681751693
 10
2040.0479905147
 20
1181.1605362857
 10
2039.708519711
 20
1182.2998790706
 10
2039.0597380538
 20
1183.2850544417
 10
2038.1592944104
 20
1184.0284435714
 10
2037.0871968407
 20
1184.4640641177
 10
2035.9387084682
 20
1184.5531730617
 10
2034.8158724446
 20
1184.2878429854
 10
2033.8184632201
 20
1183.6916773284
 10
2033.0351017255
 20
1182.8176348174
 10
2032.5353912849
 20
1181.7433803046
 10
2032.3637373585
 20
1180.5643408263
  0
LWPOLYLINE
  5
223
330
1F
100
AcDbEntity
  8
0
  6
Continuous
 62
     7
370
    15
100
AcDbPolyline
 90
       22
 70
   128
 43
0.0
 10
2032.3637373585
 20
545.5643503631
 10
2032.5353912849
 20
544.3853406871
 10
2033.0351017255
 20
543.3110861743
 10
2033.8184632201
 20
542.437013861
 10
2034.8158724446
 20
541.840848204
 10
2035.9387084682
 20
541.5755479301
 10
2037.0871968407
 20
541.6646270717
 10
2038.1592944104
 20
542.100247618
 10
2039.0597380538
 20
542.84366655
 10
2039.708519711
 20
543.8288121188
 10
2040.0479905147
 20
544.968184706
 10
2040.0479905147
 20
546.1605160201
 10
2039.708519711
 20
547.2998886073
 10
2039.0597380538
 20
548.2850341762
 10
2038.1592944104
 20
549.0284531081
 10
2037.0871968407
 20
549.4640736545
 10
2035.9387084682
 20
549.5531825984
 10
2034.8158724446
 20
549.2878525222
 10
2033.8184632201
 20
548.6916868651
 10
2033.0351017255
 20
547.8176443542
 10
2032.5353912849
 20
546.7433600391
 10
2032.3637373585
 20
545.5643503631
  0
ARC
  5
224
330
1F
100
AcDbEntity
  8
0
  6
Continuous
 62
     7
370
    15
100
AcDbCircle
 10
2032.7175449328
 20
545.5969769148
 30
0.0
 40
4.009087162128341
100
AcDbArc
 50
359.5337132183
 51
62.8798636854
  0
ARC
  5
225
330
1F
100
AcDbEntity
  8
0
  6
Continuous
 62
     7
370
    15
100
AcDbCircle
 10
2032.7175131167
 20
545.531743085
 30
0.0
 40
4.009118820387306
100
AcDbArc
 50
297.120415453
 51
0.4660076432
  0
ARC
  5
226
330
1F
100
AcDbEntity
  8
0
  6
Continuous
 62
     7
370
    15
100
AcDbCircle
 10
2032.7175662665
 20
1180.5969803016
 30
0.0
 40
4.009065934390414
100
AcDbArc
 50
359.5335260454
 51
62.8800508584
  0
ARC
  5
227
330
1F
100
AcDbEntity
  8
0
  6
Continuous
 62
     7
370
    15
100
AcDbCircle
 10
2032.7175667624
 20
1180.5317305829
 30
0.0
 40
4.009065200595606
100
AcDbArc
 50
297.1199465496
 51
0.4660562571
  0
ARC
  5
228
330
1F
100
AcDbEntity
  8
0
  6
Continuous
 62
     7
370
    15
100
AcDbCircle
 10
2053.1857296973
 20
879.8250901203
 30
0.0
 40
10.06597267831463
100
AcDbArc
 50
299.9088729002
 51
83.1748991614
  0
LINE
  5
229
330
1F
100
AcDbEntity
  8
0
  6
Continuous
 62
     7
370
    15
100
AcDbLine
 10
2100.7296521057
 20
1203.5643427337
 30
0.0
 11
2098.8002041195
 21
1203.5643427337
 31
0.0
  0
LWPOLYLINE
  5
22A
330
1F
100
AcDbEntity
  8
0
  6
Continuous
 62
     7
370
    15
100
AcDbPolyline
 90
        9
 70
   128
 43
0.0
 10
2099.7296519417
 20
1205.5643467868
 10
2099.9247416694
 20
1205.5259315932
 10
2100.1123351816
 20
1205.412116524
 10
2100.2852221791
 20
1205.2272825206
 10
2100.4367586065
 20
1204.9785523379
 10
2100.5611218352
 20
1204.6754925216
 10
2100.6535313863
 20
1204.3297259772
 10
2100.7104370583
 20
1203.9545445407
 10
2100.7296521057
 20
1203.5643427337
  0
LINE
  5
22B
330
1F
100
AcDbEntity
  8
0
  6
Continuous
 62
     7
370
    15
100
AcDbLine
 10
2098.2825657193
 20
1205.5643467868
 30
0.0
 11
2099.7296519417
 21
1205.5643467868
 31
0.0
  0
LINE
  5
22C
330
1F
100
AcDbEntity
  8
0
  6
Continuous
 62
     7
370
    15
100
AcDbLine
 10
2098.8002041195
 20
507.5643627608
 30
0.0
 11
2100.7296521057
 21
507.5643627608
 31
0.0
  0
LWPOLYLINE
  5
22D
330
1F
100
AcDbEntity
  8
0
  6
Continuous
 62
     7
370
    15
100
AcDbPolyline
 90
        9
 70
   128
 43
0.0
 10
2100.7296521057
 20
507.5643627608
 10
2100.7104370583
 20
507.1741609538
 10
2100.6535313863
 20
506.7989795173
 10
2100.5611218352
 20
506.4532129729
 10
2100.4367586065
 20
506.1501531566
 10
2100.2852221791
 20
505.9014229739
 10
2100.1123351816
 20
505.7165889705
 10
2099.9247416694
 20
505.6027739013
 10
2099.7296519417
 20
505.5643587077
  0
LINE
  5
22E
330
1F
100
AcDbEntity
  8
0
  6
Continuous
 62
     7
370
    15
100
AcDbLine
 10
2099.7296519417
 20
505.5643587077
 30
0.0
 11
2098.2825657193
 21
505.5643587077
 31
0.0
  0
LINE
  5
22F
330
1F
100
AcDbEntity
  8
0
  6
Continuous
 62
     7
370
    15
100
AcDbLine
 10
1905.7581148882
 20
1212.7643494571
 30
0.0
 11
1875.4569612283
 21
1212.7643494571
 31
0.0
  0
ARC
  5
230
330
1F
100
AcDbEntity
  8
0
  6
Continuous
 62
     7
370
    15
100
AcDbCircle
 10
1883.1720072348
 20
1212.849337943
 30
0.0
 40
7.715514106329177
100
AcDbArc
 50
90.645582122
 51
180.631141355
  0
LINE
  5
231
330
1F
100
AcDbEntity
  8
0
  6
Continuous
 62
     7
370
    15
100
AcDbLine
 10
1883.0850742597
 20
1220.564362284
 30
0.0
 11
1903.7393204708
 21
1220.564362284
 31
0.0
  0
LWPOLYLINE
  5
232
330
1F
100
AcDbEntity
  8
0
  6
Continuous
 62
     7
370
    15
100
AcDbPolyline
 90
        9
 70
   128
 43
0.0
 10
1905.7581148882
 20
1212.7643494571
 10
1905.7193271656
 20
1214.2860560382
 10
1905.6044392128
 20
1215.7492904628
 10
1905.4178915758
 20
1217.0977859462
 10
1905.1668219108
 20
1218.2797758544
 10
1904.8609010715
 20
1219.2498116458
 10
1904.511886074
 20
1219.9706106151
 10
1904.1331730623
 20
1220.4144864047
 10
1903.7393204708
 20
1220.564362284
  0
LINE
  5
233
330
1F
100
AcDbEntity
  8
0
  6
Continuous
 62
     7
370
    15
100
AcDbLine
 10
1905.7581148882
 20
1212.7643494571
 30
0.0
 11
1905.7581148882
 21
1207.5643508399
 31
0.0
  0
LINE
  5
234
330
1F
100
AcDbEntity
  8
0
  6
Continuous
 62
     7
370
    15
100
AcDbLine
 10
1875.4569612283
 20
1207.5643508399
 30
0.0
 11
1905.7581148882
 21
1207.5643508399
 31
0.0
  0
LINE
  5
235
330
1F
100
AcDbEntity
  8
0
  6
Continuous
 62
     7
370
    15
100
AcDbLine
 10
1875.4569612283
 20
1212.7643494571
 30
0.0
 11
1875.4569612283
 21
1207.5643508399
 31
0.0
  0
LINE
  5
236
330
1F
100
AcDbEntity
  8
0
  6
Continuous
 62
     7
370
    15
100
AcDbLine
 10
1905.2404783506
 20
1205.5643467868
 30
0.0
 11
1877.4128876466
 21
1205.5643467868
 31
0.0
  0
ARC
  5
237
330
1F
100
AcDbEntity
  8
0
  6
Continuous
 62
     7
370
    15
100
AcDbCircle
 10
1877.4352092511
 20
1207.5425885773
 30
0.0
 40
1.978367720009696
100
AcDbArc
 50
179.3697274085
 51
269.3535272284
  0
ARC
  5
238
330
1F
100
AcDbEntity
  8
0
  6
Continuous
 62
     7
370
    15
100
AcDbCircle
 10
1903.4379651104
 20
1207.0978579847
 30
0.0
 40
2.366582044928597
100
AcDbArc
 50
319.6101000905
 51
11.3684022176
  0
LINE
  5
239
330
1F
100
AcDbEntity
  8
0
  6
Continuous
 62
     7
370
    15
100
AcDbLine
 10
2098.8002041195
 20
1212.7643494571
 30
0.0
 11
1905.7581148882
 21
1212.7643494571
 31
0.0
  0
LINE
  5
23A
330
1F
100
AcDbEntity
  8
0
  6
Continuous
 62
     7
370
    15
100
AcDbLine
 10
2098.8002041195
 20
1212.7643494571
 30
0.0
 11
2098.8002041195
 21
1207.5643508399
 31
0.0
  0
LINE
  5
23B
330
1F
100
AcDbEntity
  8
0
  6
Continuous
 62
     7
370
    15
100
AcDbLine
 10
1905.7581148882
 20
1207.5643508399
 30
0.0
 11
2098.8002041195
 21
1207.5643508399
 31
0.0
  0
LINE
  5
23C
330
1F
100
AcDbEntity
  8
0
  6
Continuous
 62
     7
370
    15
100
AcDbLine
 10
1903.7393204708
 20
1220.564362284
 30
0.0
 11
2096.78141529
 21
1220.564362284
 31
0.0
  0
LWPOLYLINE
  5
23D
330
1F
100
AcDbEntity
  8
0
  6
Continuous
 62
     7
370
    15
100
AcDbPolyline
 90
        9
 70
   128
 43
0.0
 10
2098.8002041195
 20
1212.7643494571
 10
2098.7614136029
 20
1214.2860560382
 10
2098.6465331007
 20
1215.7492904628
 10
2098.4599770818
 20
1217.0977859462
 10
2098.2089148674
 20
1218.2797758544
 10
2097.9029940281
 20
1219.2498116458
 10
2097.5539725114
 20
1219.9706106151
 10
2097.1752613623
 20
1220.4144864047
 10
2096.78141529
 20
1220.564362284
  0
LINE
  5
23E
330
1F
100
AcDbEntity
  8
0
  6
Continuous
 62
     7
370
    15
100
AcDbLine
 10
2098.2825657193
 20
1205.5643467868
 30
0.0
 11
1905.2404783506
 21
1205.5643467868
 31
0.0
  0
ARC
  5
23F
330
1F
100
AcDbEntity
  8
0
  6
Continuous
 62
     7
370
    15
100
AcDbCircle
 10
2096.4800412707
 20
1207.0978630464
 30
0.0
 40
2.36659386166126
100
AcDbArc
 50
319.6101825877
 51
11.3682196991
  0
LINE
  5
240
330
1F
100
AcDbEntity
  8
0
  6
Continuous
 62
     7
370
    15
100
AcDbLine
 10
1861.0652409334
 20
1220.564362284
 30
0.0
 11
1883.0850742597
 21
1220.564362284
 31
0.0
  0
LINE
  5
241
330
1F
100
AcDbEntity
  8
0
  6
Continuous
 62
     7
370
    15
100
AcDbLine
 10
1877.4128876466
 20
1205.5643467868
 30
0.0
 11
1855.2652470607
 21
1205.5643467868
 31
0.0
  0
LINE
  5
242
330
1F
100
AcDbEntity
  8
0
  6
Continuous
 62
     7
370
    15
100
AcDbLine
 10
2102.3865066309
 20
1212.7643494571
 30
0.0
 11
2098.8002041195
 21
1212.7643494571
 31
0.0
  0
LINE
  5
243
330
1F
100
AcDbEntity
  8
0
  6
Continuous
 62
     7
370
    15
100
AcDbLine
 10
2102.3865066309
 20
1212.7643494571
 30
0.0
 11
2102.3865066309
 21
1207.5643508399
 31
0.0
  0
LINE
  5
244
330
1F
100
AcDbEntity
  8
0
  6
Continuous
 62
     7
370
    15
100
AcDbLine
 10
2098.8002041195
 20
1207.5643508399
 30
0.0
 11
2102.3865066309
 21
1207.5643508399
 31
0.0
  0
ARC
  5
245
330
1F
100
AcDbEntity
  8
0
  6
Continuous
 62
     7
370
    15
100
AcDbCircle
 10
2100.618701473
 20
1207.3143745965
 30
0.0
 40
1.785391609277315
100
AcDbArc
 50
281.422727429
 51
8.0485404233
  0
LINE
  5
246
330
1F
100
AcDbEntity
  8
0
  6
Continuous
 62
     7
370
    15
100
AcDbLine
 10
2100.9722914387
 20
1205.5643467868
 30
0.0
 11
2098.2825657193
 21
1205.5643467868
 31
0.0
  0
LWPOLYLINE
  5
247
330
1F
100
AcDbEntity
  8
0
  6
Continuous
 62
     7
370
    15
100
AcDbPolyline
 90
        9
 70
   128
 43
0.0
 10
2096.871072783
 20
1220.564362284
 10
2097.9470800448
 20
1220.4144864047
 10
2098.9817375157
 20
1219.9706106151
 10
2099.9352833096
 20
1219.2498116458
 10
2100.7710736085
 20
1218.2797758544
 10
2101.4569870967
 20
1217.0977859462
 10
2101.9666682769
 20
1215.7492904628
 10
2102.2805277098
 20
1214.2860560382
 10
2102.3865066309
 20
1212.7643494571
  0
LINE
  5
248
330
1F
100
AcDbEntity
  8
0
  6
Continuous
 62
     7
370
    15
100
AcDbLine
 10
2096.78141529
 20
1220.564362284
 30
0.0
 11
2096.871072783
 21
1220.564362284
 31
0.0
  0
LWPOLYLINE
  5
249
330
1F
100
AcDbEntity
  8
0
  6
Continuous
 62
     7
370
    15
100
AcDbPolyline
 90
        9
 70
   128
 43
0.0
 10
2249.4066677827
 20
1220.564362284
 10
2250.4826657314
 20
1220.4144864047
 10
2251.5173278589
 20
1219.9706106151
 10
2252.4708680648
 20
1219.2498116458
 10
2253.306659295
 20
1218.2797758544
 10
2253.992574646
 20
1217.0977859462
 10
2254.5022539634
 20
1215.7492904628
 10
2254.8161171217
 20
1214.2860560382
 10
2254.9220941801
 20
1212.7643494571
  0
LINE
  5
24A
330
1F
100
AcDbEntity
  8
0
  6
Continuous
 62
     7
370
    15
100
AcDbLine
 10
2254.9220941801
 20
1212.7643494571
 30
0.0
 11
2102.3865066309
 21
1212.7643494571
 31
0.0
  0
LINE
  5
24B
330
1F
100
AcDbEntity
  8
0
  6
Continuous
 62
     7
370
    15
100
AcDbLine
 10
2096.871072783
 20
1220.564362284
 30
0.0
 11
2249.4066677827
 21
1220.564362284
 31
0.0
  0
LINE
  5
24C
330
1F
100
AcDbEntity
  8
0
  6
Continuous
 62
     7
370
    15
100
AcDbLine
 10
2102.3865066309
 20
1207.5643508399
 30
0.0
 11
2254.9220941801
 21
1207.5643508399
 31
0.0
  0
ARC
  5
24D
330
1F
100
AcDbEntity
  8
0
  6
Continuous
 62
     7
370
    15
100
AcDbCircle
 10
2253.1543023955
 20
1207.3143641522
 30
0.0
 40
1.785379830049009
100
AcDbArc
 50
281.4225489117
 51
8.0489323839
  0
LINE
  5
24E
330
1F
100
AcDbEntity
  8
0
  6
Continuous
 62
     7
370
    15
100
AcDbLine
 10
2254.9220941801
 20
1212.7643494571
 30
0.0
 11
2254.9220941801
 21
1207.5643508399
 31
0.0
  0
LINE
  5
24F
330
1F
100
AcDbEntity
  8
0
  6
Continuous
 62
     7
370
    15
100
AcDbLine
 10
2254.9220941801
 20
1207.5643508399
 30
0.0
 11
2257.2652421732
 21
1207.5643508399
 31
0.0
  0
ARC
  5
250
330
1F
100
AcDbEntity
  8
0
  6
Continuous
 62
     7
370
    15
100
AcDbCircle
 10
2255.2652427692
 20
1207.5643527473
 30
0.0
 40
2.000000000000455
100
AcDbArc
 50
270.0
 51
0.0
  0
LINE
  5
251
330
1F
100
AcDbEntity
  8
0
  6
Continuous
 62
     7
370
    15
100
AcDbLine
 10
2255.26523812
 20
1205.5643467868
 30
0.0
 11
2253.5078845758
 21
1205.5643467868
 31
0.0
  0
LINE
  5
252
330
1F
100
AcDbEntity
  8
0
  6
Continuous
 62
     7
370
    15
100
AcDbLine
 10
2257.2652421732
 20
1212.7643494571
 30
0.0
 11
2254.9220941801
 21
1212.7643494571
 31
0.0
  0
LINE
  5
253
330
1F
100
AcDbEntity
  8
0
  6
Continuous
 62
     7
370
    15
100
AcDbLine
 10
2257.2652421732
 20
1212.7643494571
 30
0.0
 11
2257.2652421732
 21
1207.5643508399
 31
0.0
  0
ARC
  5
254
330
1F
100
AcDbEntity
  8
0
  6
Continuous
 62
     7
370
    15
100
AcDbCircle
 10
2249.4652427692
 20
1212.7643527473
 30
0.0
 40
7.799999999999955
100
AcDbArc
 50
0.0
 51
90.0
  0
LINE
  5
255
330
1F
100
AcDbEntity
  8
0
  6
Continuous
 62
     7
370
    15
100
AcDbLine
 10
2249.4066677827
 20
1220.564362284
 30
0.0
 11
2249.4652442474
 21
1220.564362284
 31
0.0
  0
LINE
  5
256
330
1F
100
AcDbEntity
  8
0
  6
Continuous
 62
     7
370
    15
100
AcDbLine
 10
1875.4569612283
 20
498.0643658603
 30
0.0
 11
1905.7581148882
 21
498.0643658603
 31
0.0
  0
LINE
  5
257
330
1F
100
AcDbEntity
  8
0
  6
Continuous
 62
     7
370
    15
100
AcDbLine
 10
1875.4569612283
 20
498.0643658603
 30
0.0
 11
1875.4569612283
 21
502.5643675292
 31
0.0
  0
LINE
  5
258
330
1F
100
AcDbEntity
  8
0
  6
Continuous
 62
     7
370
    15
100
AcDbLine
 10
1905.7581148882
 20
502.5643675292
 30
0.0
 11
1875.4569612283
 21
502.5643675292
 31
0.0
  0
LINE
  5
259
330
1F
100
AcDbEntity
  8
0
  6
Continuous
 62
     7
370
    15
100
AcDbLine
 10
1905.7581148882
 20
498.0643658603
 30
0.0
 11
1905.7581148882
 21
502.5643675292
 31
0.0
  0
LINE
  5
25A
330
1F
100
AcDbEntity
  8
0
  6
Continuous
 62
     7
370
    15
100
AcDbLine
 10
1903.8169704218
 20
490.5643432105
 30
0.0
 11
1882.791685297
 21
490.5643432105
 31
0.0
  0
ARC
  5
25B
330
1F
100
AcDbEntity
  8
0
  6
Continuous
 62
     7
370
    15
100
AcDbCircle
 10
1882.8752937528
 20
497.9826545952
 30
0.0
 40
7.418782526407609
100
AcDbArc
 50
179.36892539
 51
269.3542723429
  0
LWPOLYLINE
  5
25C
330
1F
100
AcDbEntity
  8
0
  6
Continuous
 62
     7
370
    15
100
AcDbPolyline
 90
        9
 70
   128
 43
0.0
 10
1903.8169704218
 20
490.5643432105
 10
1904.1956685323
 20
490.7084672416
 10
1904.5598082084
 20
491.1352663005
 10
1904.8954121608
 20
491.8283193076
 10
1905.1895610828
 20
492.7610425914
 10
1905.4309747953
 20
493.897583958
 10
1905.6103549738
 20
495.1942234004
 10
1905.7208172817
 20
496.601161238
 10
1905.7581148882
 20
498.0643658603
  0
ARC
  5
25D
330
1F
100
AcDbEntity
  8
0
  6
Continuous
 62
     7
370
    15
100
AcDbCircle
 10
1878.4243130581
 20
502.5970159433
 30
0.0
 40
2.967531432080445
100
AcDbArc
 50
90.6460870389
 51
180.6303738035
  0
LINE
  5
25E
330
1F
100
AcDbEntity
  8
0
  6
Continuous
 62
     7
370
    15
100
AcDbLine
 10
1878.3908508558
 20
505.5643587077
 30
0.0
 11
1904.9816600818
 21
505.5643587077
 31
0.0
  0
ARC
  5
25F
330
1F
100
AcDbEntity
  8
0
  6
Continuous
 62
     7
370
    15
100
AcDbCircle
 10
1902.277962111
 20
503.2641139929
 30
0.0
 40
3.549804003821993
100
AcDbArc
 50
348.6312554318
 51
40.3903803263
  0
LINE
  5
260
330
1F
100
AcDbEntity
  8
0
  6
Continuous
 62
     7
370
    15
100
AcDbLine
 10
2098.8002041195
 20
502.5643675292
 30
0.0
 11
1905.7581148882
 21
502.5643675292
 31
0.0
  0
LINE
  5
261
330
1F
100
AcDbEntity
  8
0
  6
Continuous
 62
     7
370
    15
100
AcDbLine
 10
1904.9816600818
 20
505.5643587077
 30
0.0
 11
1913.2652453918
 21
505.5643587077
 31
0.0
  0
ARC
  5
262
330
1F
100
AcDbEntity
  8
0
  6
Continuous
 62
     7
370
    15
100
AcDbCircle
 10
2095.3200413258
 20
503.2641088824
 30
0.0
 40
3.549812816459716
100
AcDbArc
 50
348.6313681688
 51
40.3903676111
  0
LINE
  5
263
330
1F
100
AcDbEntity
  8
0
  6
Continuous
 62
     7
370
    15
100
AcDbLine
 10
1905.7581148882
 20
498.0643658603
 30
0.0
 11
2098.8002041195
 21
498.0643658603
 31
0.0
  0
LINE
  5
264
330
1F
100
AcDbEntity
  8
0
  6
Continuous
 62
     7
370
    15
100
AcDbLine
 10
2098.8002041195
 20
498.0643658603
 30
0.0
 11
2098.8002041195
 21
502.5643675292
 31
0.0
  0
LINE
  5
265
330
1F
100
AcDbEntity
  8
0
  6
Continuous
 62
     7
370
    15
100
AcDbLine
 10
2096.8590615157
 20
490.5643432105
 30
0.0
 11
1903.8169704218
 21
490.5643432105
 31
0.0
  0
LWPOLYLINE
  5
266
330
1F
100
AcDbEntity
  8
0
  6
Continuous
 62
     7
370
    15
100
AcDbPolyline
 90
        9
 70
   128
 43
0.0
 10
2096.8590615157
 20
490.5643432105
 10
2097.2377596263
 20
490.7084672416
 10
2097.601903959
 20
491.1352663005
 10
2097.9375023235
 20
491.8283193076
 10
2098.2316559021
 20
492.7610425914
 10
2098.473062164
 20
493.897583958
 10
2098.6524432737
 20
495.1942234004
 10
2098.7629055817
 20
496.601161238
 10
2098.8002041195
 20
498.0643658603
  0
LINE
  5
267
330
1F
100
AcDbEntity
  8
0
  6
Continuous
 62
     7
370
    15
100
AcDbLine
 10
1882.791685297
 20
490.5643432105
 30
0.0
 11
1860.7652358551
 21
490.5643432105
 31
0.0
  0
LINE
  5
268
330
1F
100
AcDbEntity
  8
0
  6
Continuous
 62
     7
370
    15
100
AcDbLine
 10
1856.2652490873
 20
505.5643587077
 30
0.0
 11
1878.3908508558
 21
505.5643587077
 31
0.0
  0
LINE
  5
269
330
1F
100
AcDbEntity
  8
0
  6
Continuous
 62
     7
370
    15
100
AcDbLine
 10
2098.8002041195
 20
498.0643658603
 30
0.0
 11
2102.3865066309
 21
498.0643658603
 31
0.0
  0
LINE
  5
26A
330
1F
100
AcDbEntity
  8
0
  6
Continuous
 62
     7
370
    15
100
AcDbLine
 10
2102.3865066309
 20
502.5643675292
 30
0.0
 11
2098.8002041195
 21
502.5643675292
 31
0.0
  0
LINE
  5
26B
330
1F
100
AcDbEntity
  8
0
  6
Continuous
 62
     7
370
    15
100
AcDbLine
 10
2102.3865066309
 20
498.0643658603
 30
0.0
 11
2102.3865066309
 21
502.5643675292
 31
0.0
  0
ARC
  5
26C
330
1F
100
AcDbEntity
  8
0
  6
Continuous
 62
     7
370
    15
100
AcDbCircle
 10
2099.7348343094
 20
502.9393442274
 30
0.0
 40
2.678054074276391
100
AcDbArc
 50
351.9510922287
 51
78.5778608026
  0
LWPOLYLINE
  5
26D
330
1F
100
AcDbEntity
  8
0
  6
Continuous
 62
     7
370
    15
100
AcDbPolyline
 90
        9
 70
   128
 43
0.0
 10
2097.0832047824
 20
490.5643432105
 10
2098.1178277943
 20
490.7084672416
 10
2099.1126898516
 20
491.1352663005
 10
2100.0295610938
 20
491.8283193076
 10
2100.8332040001
 20
492.7610425914
 10
2101.4927387077
 20
493.897583958
 10
2101.9828155477
 20
495.1942234004
 10
2102.28460504
 20
496.601161238
 10
2102.3865066309
 20
498.0643658603
  0
LINE
  5
26E
330
1F
100
AcDbEntity
  8
0
  6
Continuous
 62
     7
370
    15
100
AcDbLine
 10
2097.0832047824
 20
490.5643432105
 30
0.0
 11
2096.8590615157
 21
490.5643432105
 31
0.0
  0
LINE
  5
26F
330
1F
100
AcDbEntity
  8
0
  6
Continuous
 62
     7
370
    15
100
AcDbLine
 10
2102.3865066309
 20
498.0643658603
 30
0.0
 11
2254.9220941801
 21
498.0643658603
 31
0.0
  0
LINE
  5
270
330
1F
100
AcDbEntity
  8
0
  6
Continuous
 62
     7
370
    15
100
AcDbLine
 10
2254.9220941801
 20
502.5643675292
 30
0.0
 11
2102.3865066309
 21
502.5643675292
 31
0.0
  0
LINE
  5
271
330
1F
100
AcDbEntity
  8
0
  6
Continuous
 62
     7
370
    15
100
AcDbLine
 10
2254.9220941801
 20
498.0643658603
 30
0.0
 11
2254.9220941801
 21
502.5643675292
 31
0.0
  0
LWPOLYLINE
  5
272
330
1F
100
AcDbEntity
  8
0
  6
Continuous
 62
     7
370
    15
100
AcDbPolyline
 90
        9
 70
   128
 43
0.0
 10
2249.6188007135
 20
490.5643432105
 10
2250.6534181375
 20
490.7084672416
 10
2251.6482792635
 20
491.1352663005
 10
2252.5651477117
 20
491.8283193076
 10
2253.3687971372
 20
492.7610425914
 10
2254.0283225317
 20
493.897583958
 10
2254.5184068222
 20
495.1942234004
 10
2254.8202000398
 20
496.601161238
 10
2254.9220941801
 20
498.0643658603
  0
LINE
  5
273
330
1F
100
AcDbEntity
  8
0
  6
Continuous
 62
     7
370
    15
100
AcDbLine
 10
2249.6188007135
 20
490.5643432105
 30
0.0
 11
2097.0832047824
 21
490.5643432105
 31
0.0
  0
ARC
  5
274
330
1F
100
AcDbEntity
  8
0
  6
Continuous
 62
     7
370
    15
100
AcDbCircle
 10
2252.2704301677
 20
502.9393512554
 30
0.0
 40
2.678046831068072
100
AcDbArc
 50
351.9509184587
 51
78.5778685608
  0
LINE
  5
275
330
1F
100
AcDbEntity
  8
0
  6
Continuous
 62
     7
370
    15
100
AcDbLine
 10
2254.9220941801
 20
498.0643658603
 30
0.0
 11
2257.2652421732
 21
498.0643658603
 31
0.0
  0
ARC
  5
276
330
1F
100
AcDbEntity
  8
0
  6
Continuous
 62
     7
370
    15
100
AcDbCircle
 10
2249.7652427692
 20
498.0643527473
 30
0.0
 40
7.500000000000057
100
AcDbArc
 50
270.0
 51
0.0
  0
LINE
  5
277
330
1F
100
AcDbEntity
  8
0
  6
Continuous
 62
     7
370
    15
100
AcDbLine
 10
2249.7652493257
 20
490.5643432105
 30
0.0
 11
2249.6188007135
 21
490.5643432105
 31
0.0
  0
LINE
  5
278
330
1F
100
AcDbEntity
  8
0
  6
Continuous
 62
     7
370
    15
100
AcDbLine
 10
2257.2652421732
 20
502.5643675292
 30
0.0
 11
2254.9220941801
 21
502.5643675292
 31
0.0
  0
LINE
  5
279
330
1F
100
AcDbEntity
  8
0
  6
Continuous
 62
     7
370
    15
100
AcDbLine
 10
2257.2652421732
 20
498.0643658603
 30
0.0
 11
2257.2652421732
 21
502.5643675292
 31
0.0
  0
ARC
  5
27A
330
1F
100
AcDbEntity
  8
0
  6
Continuous
 62
     7
370
    15
100
AcDbCircle
 10
2254.2652427692
 20
502.5643527473
 30
0.0
 40
3.0
100
AcDbArc
 50
0.0
 51
90.0
  0
LINE
  5
27B
330
1F
100
AcDbEntity
  8
0
  6
Continuous
 62
     8
370
    15
100
AcDbLine
 10
1893.6490289707
 20
488.1392686332
 30
0.0
 11
1909.6878491182
 21
488.1392686332
 31
0.0
  0
LWPOLYLINE
  5
27C
330
1F
100
AcDbEntity
  8
0
  6
Continuous
 62
     8
370
    15
100
AcDbPolyline
 90
       20
 70
   128
 43
0.0
 10
2119.9343003173
 20
1172.1366910899
 10
2119.6429006595
 20
1172.0368235076
 10
2118.4023417372
 20
1171.8392937148
 10
2117.1590596277
 20
1171.9989745582
 10
2115.9639529724
 20
1172.5093095267
 10
2114.8659553219
 20
1173.3494071925
 10
2113.9100141663
 20
1174.4849054778
 10
2113.1352655429
 20
1175.8693127597
 10
2112.5734302986
 20
1177.4459152186
 10
2112.2475102384
 20
1179.1501908267
 10
2112.1708456267
 20
1180.9123425449
 10
2112.3465787459
 20
1182.6602785552
 10
2112.7675123353
 20
1184.3223838771
 10
2113.4164132018
 20
1185.8306496108
 10
2114.2667163003
 20
1187.1232955421
 10
2115.2836106557
 20
1188.1474523509
 10
2116.4254642863
 20
1188.8611285651
 10
2117.6455266614
 20
1189.2351477111
 10
2118.8938528139
 20
1189.2541615928
 10
2119.9343003173
 20
1188.9920203651
  0
LWPOLYLINE
  5
27D
330
1F
100
AcDbEntity
  8
0
  6
Continuous
 62
     8
370
    15
100
AcDbPolyline
 90
       20
 70
   128
 43
0.0
 10
2240.9734450121
 20
522.1366851295
 10
2240.6820528049
 20
522.0368175471
 10
2239.441486432
 20
521.8392877544
 10
2238.1982080478
 20
521.9989685977
 10
2237.0031051178
 20
522.5093035663
 10
2235.905098154
 20
523.3494310344
 10
2234.9491588611
 20
524.4849293197
 10
2234.1744176883
 20
525.8693067992
 10
2233.6125843067
 20
527.4459092582
 10
2233.2866512079
 20
529.1501848662
 10
2233.2099996347
 20
530.9123663867
 10
2233.3857290287
 20
532.6602725947
 10
2233.8066570301
 20
534.3223779166
 10
2234.4555578966
 20
535.8306436504
 10
2235.3058628578
 20
537.1233193839
 10
2236.3227628011
 20
538.1474463904
 10
2237.4646089811
 20
538.8611226047
 10
2238.6846713562
 20
539.2351417506
 10
2239.933001234
 20
539.2541556323
 10
2240.9734450121
 20
538.9920144046
  0
LWPOLYLINE
  5
27E
330
1F
100
AcDbEntity
  8
0
  6
Continuous
 62
     8
370
    15
100
AcDbPolyline
 90
       20
 70
   128
 43
0.0
 10
2240.9734450121
 20
1172.1366910899
 10
2240.6820528049
 20
1172.0368235076
 10
2239.441486432
 20
1171.8392937148
 10
2238.1982080478
 20
1171.9989745582
 10
2237.0031051178
 20
1172.5093095267
 10
2235.905098154
 20
1173.3494071925
 10
2234.9491588611
 20
1174.4849054778
 10
2234.1744176883
 20
1175.8693127597
 10
2233.6125843067
 20
1177.4459152186
 10
2233.2866512079
 20
1179.1501908267
 10
2233.2099996347
 20
1180.9123425449
 10
2233.3857290287
 20
1182.6602785552
 10
2233.8066570301
 20
1184.3223838771
 10
2234.4555578966
 20
1185.8306496108
 10
2235.3058628578
 20
1187.1232955421
 10
2236.3227628011
 20
1188.1474523509
 10
2237.4646089811
 20
1188.8611285651
 10
2238.6846713562
 20
1189.2351477111
 10
2239.933001234
 20
1189.2541615928
 10
2240.9734450121
 20
1188.9920203651
  0
LWPOLYLINE
  5
27F
330
1F
100
AcDbEntity
  8
0
  6
Continuous
 62
     8
370
    15
100
AcDbPolyline
 90
       20
 70
   128
 43
0.0
 10
2119.9343003173
 20
522.1366851295
 10
2119.6429006595
 20
522.0368175471
 10
2118.4023417372
 20
521.8392877544
 10
2117.1590596277
 20
521.9989685977
 10
2115.9639529724
 20
522.5093035663
 10
2114.8659553219
 20
523.3494310344
 10
2113.9100141663
 20
524.4849293197
 10
2113.1352655429
 20
525.8693067992
 10
2112.5734302986
 20
527.4459092582
 10
2112.2475102384
 20
529.1501848662
 10
2112.1708456267
 20
530.9123663867
 10
2112.3465787459
 20
532.6602725947
 10
2112.7675123353
 20
534.3223779166
 10
2113.4164132018
 20
535.8306436504
 10
2114.2667163003
 20
537.1233193839
 10
2115.2836106557
 20
538.1474463904
 10
2116.4254642863
 20
538.8611226047
 10
2117.6455266614
 20
539.2351417506
 10
2118.8938528139
 20
539.2541556323
 10
2119.9343003173
 20
538.9920144046
  0
LINE
  5
280
330
1F
100
AcDbEntity
  8
0
  6
Continuous
 62
     8
370
    15
100
AcDbLine
 10
2219.2458383579
 20
488.1392686332
 30
0.0
 11
2235.2846585054
 21
488.1392686332
 31
0.0
  0
LINE
  5
281
330
1F
100
AcDbEntity
  8
0
  6
Continuous
 62
     8
370
    15
100
AcDbLine
 10
2119.2458331425
 20
488.1392686332
 30
0.0
 11
2135.28465329
 21
488.1392686332
 31
0.0
  0
LINE
  5
282
330
1F
100
AcDbEntity
  8
0
  6
Continuous
 62
     8
370
    15
100
AcDbLine
 10
1882.3027036924
 20
1205.5643467868
 30
0.0
 11
1882.3027036924
 21
505.5643587077
 31
0.0
  0
LINE
  5
283
330
1F
100
AcDbEntity
  8
0
  6
Continuous
 62
     8
370
    15
100
AcDbLine
 10
1903.9463870067
 20
1205.5643467868
 30
0.0
 11
1903.9463870067
 21
505.5643587077
 31
0.0
  0
LINE
  5
284
330
1F
100
AcDbEntity
  8
0
  6
Continuous
 62
     8
370
    15
100
AcDbLine
 10
1905.8199398059
 20
1205.5643467868
 30
0.0
 11
1905.8199398059
 21
505.5643587077
 31
0.0
  0
LINE
  5
285
330
1F
100
AcDbEntity
  8
0
  6
Continuous
 62
     8
370
    15
100
AcDbLine
 10
1907.7152483005
 20
1205.5643467868
 30
0.0
 11
1907.7152483005
 21
505.5643587077
 31
0.0
  0
LINE
  5
286
330
1F
100
AcDbEntity
  8
0
  6
Continuous
 62
     8
370
    15
100
AcDbLine
 10
1978.9251111288
 20
889.7920592392
 30
0.0
 11
1977.9183365244
 21
889.8570730055
 31
0.0
  0
LWPOLYLINE
  5
287
330
1F
100
AcDbEntity
  8
0
  6
Continuous
 62
     8
370
    15
100
AcDbPolyline
 90
        9
 70
   128
 43
0.0
 10
1973.3828030367
 20
871.0431304464
 10
1973.4701983471
 20
870.9734982515
 10
1973.6353553671
 20
870.5997184554
 10
1973.6478052873
 20
869.9927326927
 10
1973.507078721
 20
869.1758677999
 10
1973.2185773391
 20
868.1805149356
 10
1972.7933950562
 20
867.0449244494
 10
1972.2478709955
 20
865.8127371857
 10
1971.6029636402
 20
864.5313053096
  0
ARC
  5
288
330
1F
100
AcDbEntity
  8
0
  6
Continuous
 62
     8
370
    15
100
AcDbCircle
 10
2016.2569615407
 20
947.2009856625
 30
0.0
 40
87.65685310935126
100
AcDbArc
 50
279.5538802305
 51
299.7530276483
  0
ARC
  5
289
330
1F
100
AcDbEntity
  8
0
  6
Continuous
 62
     8
370
    15
100
AcDbCircle
 10
2054.7839817359
 20
879.8211688514
 30
0.0
 40
10.04003715124257
100
AcDbArc
 50
299.6957624232
 51
88.4434849391
  0
LINE
  5
28A
330
1F
100
AcDbEntity
  8
0
  6
Continuous
 62
     8
370
    15
100
AcDbLine
 10
1875.4569612283
 20
1212.7643494571
 30
0.0
 11
1853.2652430076
 21
1212.7643494571
 31
0.0
  0
LINE
  5
28B
330
1F
100
AcDbEntity
  8
0
  6
Continuous
 62
     8
370
    15
100
AcDbLine
 10
1853.2652430076
 20
1207.5643508399
 30
0.0
 11
1875.4569612283
 21
1207.5643508399
 31
0.0
  0
LINE
  5
28C
330
1F
100
AcDbEntity
  8
0
  6
Continuous
 62
     8
370
    15
100
AcDbLine
 10
1853.2652430076
 20
498.0643658603
 30
0.0
 11
1875.4569612283
 21
498.0643658603
 31
0.0
  0
LINE
  5
28D
330
1F
100
AcDbEntity
  8
0
  6
Continuous
 62
     8
370
    15
100
AcDbLine
 10
1875.4569612283
 20
502.5643675292
 30
0.0
 11
1853.2652430076
 21
502.5643675292
 31
0.0
  0
DIMENSION
  5
28E
330
1F
100
AcDbEntity
  8
MEDIÇÕES
100
AcDbDimension
  2
_D_1
 10
1728.9542308486
 20
1220.5643527473
 30
0.0
 11
1728.9542308486
 21
854.3367050408
 31
0.0
 70
   160
  1
<>
 71
     2
 42
-1.0
  3
SLDDIMSTYLE0
100
AcDbAlignedDimension
 13
1893.6490302575
 23
488.1392734704
 33
0.0
 14
1903.7393252035
 24
1220.5643527473
 34
0.0
 50
90.0
100
AcDbRotatedDimension
  0
LINE
  5
298
330
1F
100
AcDbEntity
  8
0
  6
Continuous
 62
     7
370
    15
100
AcDbLine
 10
1312.7084013075
 20
1829.2299586655
 30
0.0
 11
1313.9789339156
 21
1831.389002812
 31
0.0
  0
LINE
  5
299
330
1F
100
AcDbEntity
  8
0
  6
Continuous
 62
     7
370
    15
100
AcDbLine
 10
1302.6377793402
 20
1842.7301611127
 30
0.0
 11
1300.4787351937
 21
1841.4596247794
 31
0.0
  0
ARC
  5
29A
330
1F
100
AcDbEntity
  8
0
  6
Continuous
 62
     7
370
    15
100
AcDbCircle
 10
1302.6884944483
 20
1842.6439768108
 30
0.0
 40
0.1000000000000193
100
AcDbArc
 50
45.0000000001
 51
120.4755709219
  0
ARC
  5
29B
330
1F
100
AcDbEntity
  8
0
  6
Continuous
 62
     7
370
    15
100
AcDbCircle
 10
1313.8927510492
 20
1831.4397202099
 30
0.0
 40
0.1000000000000193
100
AcDbArc
 50
329.5244290781
 51
44.9999999999
  0
LINE
  5
29C
330
1F
100
AcDbEntity
  8
0
  6
Continuous
 62
     7
370
    15
100
AcDbLine
 10
1191.6692528874
 20
1950.2691033603
 30
0.0
 11
1192.9397892207
 21
1952.4281475069
 31
0.0
  0
LINE
  5
29D
330
1F
100
AcDbEntity
  8
0
  6
Continuous
 62
     7
370
    15
100
AcDbLine
 10
1181.5986309201
 20
1963.7693020822
 30
0.0
 11
1179.4395867736
 21
1962.4987694742
 31
0.0
  0
ARC
  5
29E
330
1F
100
AcDbEntity
  8
0
  6
Continuous
 62
     7
370
    15
100
AcDbCircle
 10
1181.6493469929
 20
1963.6831242663
 30
0.0
 40
0.1000000000000193
100
AcDbArc
 50
44.9999999999
 51
120.4755709219
  0
ARC
  5
29F
330
1F
100
AcDbEntity
  8
0
  6
Continuous
 62
     7
370
    15
100
AcDbCircle
 10
1192.8536035937
 20
1952.4788676654
 30
0.0
 40
0.099999999999904
100
AcDbArc
 50
329.5244290782
 51
45.0
  0
LINE
  5
2A0
330
1F
100
AcDbEntity
  8
0
  6
Continuous
 62
     7
370
    15
100
AcDbLine
 10
1313.9076765627
 20
1831.5662111463
 30
0.0
 11
1313.9634665102
 21
1831.510430512
 31
0.0
  0
LWPOLYLINE
  5
2A1
330
1F
100
AcDbEntity
  8
0
  6
Continuous
 62
     7
370
    15
100
AcDbPolyline
 90
       15
 70
   128
 43
0.0
 10
1302.7592089028
 20
1842.7146862568
 10
1302.853518352
 20
1842.620369357
 10
1303.2023396344
 20
1842.2715480746
 10
1303.7923958153
 20
1841.681495619
 10
1304.5960899443
 20
1840.8778052153
 10
1305.5758412928
 20
1839.8980538668
 10
1306.6858287901
 20
1838.7880589189
 10
1307.8741814942
 20
1837.5997173907
 10
1309.0852882714
 20
1836.3885994376
 10
1310.2625545115
 20
1835.2113294722
 10
1311.3509353251
 20
1834.1229635598
 10
1312.2995134444
 20
1833.1743854405
 10
1313.0639430136
 20
1832.4099502833
 10
1313.6084910483
 20
1831.8654059739
 10
1313.9076765627
 20
1831.5662111463
  0
LINE
  5
2A2
330
1F
100
AcDbEntity
  8
0
  6
Continuous
 62
     7
370
    15
100
AcDbLine
 10
1192.8685318679
 20
1952.6053521158
 30
0.0
 11
1192.9243143648
 21
1952.5495770694
 31
0.0
  0
LWPOLYLINE
  5
2A3
330
1F
100
AcDbEntity
  8
0
  6
Continuous
 62
     7
370
    15
100
AcDbPolyline
 90
       15
 70
   128
 43
0.0
 10
1181.7200567574
 20
1963.7538346769
 10
1181.8143736572
 20
1963.6595252277
 10
1182.1631986648
 20
1963.3106890441
 10
1182.7532511205
 20
1962.7206477643
 10
1183.5569415242
 20
1961.9169536354
 10
1184.5366891474
 20
1960.9372022869
 10
1185.6466878206
 20
1959.8271998884
 10
1186.8350256235
 20
1958.6388620855
 10
1188.0461473018
 20
1957.4277404071
 10
1189.223413542
 20
1956.250474167
 10
1190.3117831797
 20
1955.1621082546
 10
1191.260361299
 20
1954.2135301353
 10
1192.0247945935
 20
1953.4491005661
 10
1192.5693389029
 20
1952.9045525314
 10
1192.8685318679
 20
1952.6053521158
  0
ARC
  5
2A4
330
1F
100
AcDbEntity
  8
0
  6
Continuous
 62
     7
370
    15
100
AcDbCircle
 10
1019.2922571373
 20
1966.0616092206
 30
0.0
 40
0.2000000000000455
100
AcDbArc
 50
90.0
 51
165.0
  0
LWPOLYLINE
  5
2A5
330
1F
100
AcDbEntity
  8
0
  6
Continuous
 62
     7
370
    15
100
AcDbPolyline
 90
        9
 70
   128
 43
0.0
 10
1019.099065289
 20
1966.1133739473
 10
1017.6292147488
 20
1966.5072265388
 10
1016.2158545107
 20
1966.8859246494
 10
1014.9132844061
 20
1967.234954548
 10
1013.7715723366
 20
1967.5408753873
 10
1012.8346022219
 20
1967.7919301511
 10
1012.1383603663
 20
1967.9784926893
 10
1011.7096241564
 20
1968.0933657409
 10
1011.5648444743
 20
1968.1321683647
  0
ARC
  5
2A6
330
1F
100
AcDbEntity
  8
0
  6
Continuous
 62
     7
370
    15
100
AcDbCircle
 10
1019.2922571373
 20
1966.0616092206
 30
0.0
 40
7.999999999999965
100
AcDbArc
 50
90.0
 51
165.0
  0
LINE
  5
2A7
330
1F
100
AcDbEntity
  8
0
  6
Continuous
 62
     7
370
    15
100
AcDbLine
 10
1019.2922588438
 20
1966.2616106988
 30
0.0
 11
1019.2922588438
 21
1974.0616086246
 31
0.0
  0
LINE
  5
2A8
330
1F
100
AcDbEntity
  8
0
  6
Continuous
 62
     7
370
    15
100
AcDbLine
 10
1317.2400530428
 20
1813.6674392344
 30
0.0
 11
1164.7044617683
 21
1966.2030342342
 31
0.0
  0
LWPOLYLINE
  5
2A9
330
1F
100
AcDbEntity
  8
0
  6
Continuous
 62
     7
370
    15
100
AcDbPolyline
 90
        9
 70
   128
 43
0.0
 10
1164.7044617683
 20
1966.2030342342
 10
1165.7804690302
 20
1967.2790321828
 10
1166.8151274324
 20
1968.3136943103
 10
1167.7686732263
 20
1969.2672345163
 10
1168.6044625939
 20
1970.1030257465
 10
1169.2903779448
 20
1970.7889410974
 10
1169.8000572622
 20
1971.2986204149
 10
1170.1139185578
 20
1971.6124835731
 10
1170.2198956162
 20
1971.7184606315
  0
LINE
  5
2AA
330
1F
100
AcDbEntity
  8
0
  6
Continuous
 62
     7
370
    15
100
AcDbLine
 10
1170.2198956162
 20
1971.7184606315
 30
0.0
 11
1322.7554794401
 21
1819.1828730823
 31
0.0
  0
LWPOLYLINE
  5
2AB
330
1F
100
AcDbEntity
  8
0
  6
Continuous
 62
     7
370
    15
100
AcDbPolyline
 90
        9
 70
   128
 43
0.0
 10
1317.2400530428
 20
1813.6674392344
 10
1318.3160658926
 20
1814.7434464963
 10
1319.350713119
 20
1815.7781039672
 10
1320.3042682261
 20
1816.731649761
 10
1321.1400594563
 20
1817.5674400599
 10
1321.8259748072
 20
1818.2533535482
 10
1322.3356541247
 20
1818.7630347283
 10
1322.6495023817
 20
1819.0768941612
 10
1322.7554794401
 20
1819.1828730823
  0
ARC
  5
2AC
330
1F
100
AcDbEntity
  8
0
  6
Continuous
 62
     7
370
    15
100
AcDbCircle
 10
1164.5630409898
 20
1966.0616092206
 30
0.0
 40
0.2000000000000455
100
AcDbArc
 50
45.0
 51
90.0
  0
LINE
  5
2AD
330
1F
100
AcDbEntity
  8
0
  6
Continuous
 62
     7
370
    15
100
AcDbLine
 10
1164.5630404354
 20
1966.2616106988
 30
0.0
 11
1164.5630404354
 21
1974.0616086246
 31
0.0
  0
ARC
  5
2AE
330
1F
100
AcDbEntity
  8
0
  6
Continuous
 62
     7
370
    15
100
AcDbCircle
 10
1164.5630409898
 20
1966.0616092206
 30
0.0
 40
8.000000000000064
100
AcDbArc
 50
45.0
 51
90.0
  0
LINE
  5
2AF
330
1F
100
AcDbEntity
  8
0
  6
Continuous
 62
     7
370
    15
100
AcDbLine
 10
1164.5630404354
 20
1966.2616106988
 30
0.0
 11
1019.2922588438
 21
1966.2616106988
 31
0.0
  0
LINE
  5
2B0
330
1F
100
AcDbEntity
  8
0
  6
Continuous
 62
     7
370
    15
100
AcDbLine
 10
1019.2922588438
 20
1974.0616086246
 30
0.0
 11
1164.5630404354
 21
1974.0616086246
 31
0.0
  0
LINE
  5
2B1
330
1F
100
AcDbEntity
  8
0
  6
Continuous
 62
     7
370
    15
100
AcDbLine
 10
1019.099065289
 20
1966.1133739473
 30
0.0
 11
926.5018042178
 21
1620.5356869222
 31
0.0
  0
LWPOLYLINE
  5
2B2
330
1F
100
AcDbEntity
  8
0
  6
Continuous
 62
     7
370
    15
100
AcDbPolyline
 90
        9
 70
   128
 43
0.0
 10
918.967583403
 20
1622.5544813396
 10
919.1123630852
 20
1622.515693617
 10
919.5410992951
 20
1622.4008056642
 10
920.2373411507
 20
1622.2142580272
 10
921.1743112654
 20
1621.9631883623
 10
922.3160233349
 20
1621.657267523
 10
923.6185934395
 20
1621.3082525255
 10
925.0319536776
 20
1620.9295395137
 10
926.5018042178
 20
1620.5356869222
  0
LINE
  5
2B3
330
1F
100
AcDbEntity
  8
0
  6
Continuous
 62
     7
370
    15
100
AcDbLine
 10
918.967583403
 20
1622.5544813396
 30
0.0
 11
1011.5648444743
 21
1968.1321683647
 31
0.0
  0
ARC
  5
2B4
330
1F
100
AcDbEntity
  8
0
  6
Continuous
 62
     7
370
    15
100
AcDbCircle
 10
1317.0986322262
 20
1813.5260179842
 30
0.0
 40
0.2000000000001759
100
AcDbArc
 50
15.0
 51
45.0
  0
LINE
  5
2B5
330
1F
100
AcDbEntity
  8
0
  6
Continuous
 62
     7
370
    15
100
AcDbLine
 10
1369.017296657
 20
1620.5356869222
 30
0.0
 11
1317.2918196768
 21
1813.5777817415
 31
0.0
  0
ARC
  5
2B6
330
1F
100
AcDbEntity
  8
0
  6
Continuous
 62
     7
370
    15
100
AcDbCircle
 10
1352.8863282502
 20
1616.2134136017
 30
0.0
 40
16.70000000000046
100
AcDbArc
 50
282.0508922229
 51
15.0
  0
ARC
  5
2B7
330
1F
100
AcDbEntity
  8
0
  6
Continuous
 62
     7
370
    15
100
AcDbCircle
 10
1147.7595504374
 20
2577.0616092206
 30
0.0
 40
999.2000000000003
100
AcDbArc
 50
257.9491077771
 51
282.0508922229
  0
ARC
  5
2B8
330
1F
100
AcDbEntity
  8
0
  6
Continuous
 62
     7
370
    15
100
AcDbCircle
 10
942.6327726245
 20
1616.2134136017
 30
0.0
 40
16.70000000000023
100
AcDbArc
 50
165.0
 51
257.9491077771
  0
CIRCLE
  5
2B9
330
1F
100
AcDbEntity
  8
0
  6
Continuous
 62
     7
370
    15
100
AcDbCircle
 10
1302.8166261085
 20
1743.1886846848
 30
0.0
 40
5.999999999999773
  0
CIRCLE
  5
2BA
330
1F
100
AcDbEntity
  8
0
  6
Continuous
 62
     7
370
    15
100
AcDbCircle
 10
992.7024747663
 20
1743.1886846848
 30
0.0
 40
5.999999999999773
  0
CIRCLE
  5
2BB
330
1F
100
AcDbEntity
  8
0
  6
Continuous
 62
     7
370
    15
100
AcDbCircle
 10
1133.1635460532
 20
1934.0616092206
 30
0.0
 40
6.0
  0
CIRCLE
  5
2BC
330
1F
100
AcDbEntity
  8
0
  6
Continuous
 62
     7
370
    15
100
AcDbCircle
 10
1147.7595504374
 20
1796.0616092206
 30
0.0
 40
5.499999999999773
  0
CIRCLE
  5
2BD
330
1F
100
AcDbEntity
  8
0
  6
Continuous
 62
     7
370
    15
100
AcDbCircle
 10
1147.7595504374
 20
1712.0616092206
 30
0.0
 40
5.500000000000227
  0
CIRCLE
  5
2BE
330
1F
100
AcDbEntity
  8
0
  6
Continuous
 62
     7
370
    15
100
AcDbCircle
 10
1133.1635460532
 20
1934.0616092206
 30
0.0
 40
4.000000000000227
  0
LINE
  5
2BF
330
1F
100
AcDbEntity
  8
0
  6
Continuous
 62
     7
370
    15
100
AcDbLine
 10
1324.8260404915
 20
1815.5965705709
 30
0.0
 11
1376.5515174717
 21
1622.5544813396
 31
0.0
  0
LWPOLYLINE
  5
2C0
330
1F
100
AcDbEntity
  8
0
  6
Continuous
 62
     7
370
    15
100
AcDbPolyline
 90
        9
 70
   128
 43
0.0
 10
1376.5515174717
 20
1622.5544813396
 10
1376.4067377896
 20
1622.515693617
 10
1375.9780015797
 20
1622.4008056642
 10
1375.2817597241
 20
1622.2142580272
 10
1374.3447896094
 20
1621.9631883623
 10
1373.2030775399
 20
1621.657267523
 10
1371.9005074353
 20
1621.3082525255
 10
1370.4871471972
 20
1620.9295395137
 10
1369.017296657
 20
1620.5356869222
  0
LWPOLYLINE
  5
2C1
330
1F
100
AcDbEntity
  8
0
  6
Continuous
 62
     7
370
    15
100
AcDbPolyline
 90
        9
 70
   128
 43
0.0
 10
1324.8260404915
 20
1815.5965705709
 10
1324.6812757105
 20
1815.5577800544
 10
1324.2525245995
 20
1815.4428995521
 10
1323.556297645
 20
1815.2563435332
 10
1322.6193126292
 20
1815.0052813189
 10
1321.4776005596
 20
1814.6993604796
 10
1320.1750453562
 20
1814.3503389628
 10
1318.761670217
 20
1813.9716278137
 10
1317.2918196768
 20
1813.5777817415
  0
ARC
  5
2C2
330
1F
100
AcDbEntity
  8
0
  6
Continuous
 62
     7
370
    15
100
AcDbCircle
 10
1317.0986322262
 20
1813.5260179842
 30
0.0
 40
8.000000000000064
100
AcDbArc
 50
15.0
 51
45.0
  0
CIRCLE
  5
2C3
330
1F
100
AcDbEntity
  8
0
  6
Continuous
 62
     7
370
    15
100
AcDbCircle
 10
1147.7595504374
 20
1796.0616092206
 30
0.0
 40
3.5
  0
CIRCLE
  5
2C4
330
1F
100
AcDbEntity
  8
0
  6
Continuous
 62
     7
370
    15
100
AcDbCircle
 10
992.7024747663
 20
1743.1886846848
 30
0.0
 40
4.0
  0
CIRCLE
  5
2C5
330
1F
100
AcDbEntity
  8
0
  6
Continuous
 62
     7
370
    15
100
AcDbCircle
 10
1302.8166261085
 20
1743.1886846848
 30
0.0
 40
3.999999999999773
  0
CIRCLE
  5
2C6
330
1F
100
AcDbEntity
  8
0
  6
Continuous
 62
     7
370
    15
100
AcDbCircle
 10
1147.7595504374
 20
1712.0616092206
 30
0.0
 40
3.500000000000227
  0
ARC
  5
2C7
330
1F
100
AcDbEntity
  8
0
  6
Continuous
 62
     7
370
    15
100
AcDbCircle
 10
1352.8863282502
 20
1616.2134136017
 30
0.0
 40
24.49999999999979
100
AcDbArc
 50
282.0508922229
 51
15.0
  0
LWPOLYLINE
  5
2C8
330
1F
100
AcDbEntity
  8
0
  6
Continuous
 62
     7
370
    15
100
AcDbPolyline
 90
        9
 70
   128
 43
0.0
 10
1358.0014493317
 20
1592.2533276798
 10
1357.9701568932
 20
1592.3999104024
 10
1357.8774865717
 20
1592.833981228
 10
1357.7269997448
 20
1593.5388955595
 10
1357.524478063
 20
1594.4875481845
 10
1357.2776999325
 20
1595.643490863
 10
1356.9961573929
 20
1596.9622883321
 10
1356.6906686873
 20
1598.3932617427
 10
1356.3729610295
 20
1599.8814407112
  0
ARC
  5
2C9
330
1F
100
AcDbEntity
  8
0
  6
Continuous
 62
     7
370
    15
100
AcDbCircle
 10
942.6327726245
 20
1616.2134136017
 30
0.0
 40
24.50000000000041
100
AcDbArc
 50
165.0
 51
257.9491077771
  0
LWPOLYLINE
  5
2CA
330
1F
100
AcDbEntity
  8
0
  6
Continuous
 62
     7
370
    15
100
AcDbPolyline
 90
        9
 70
   128
 43
0.0
 10
937.5176515431
 20
1592.2533276798
 10
937.5489439816
 20
1592.3999104024
 10
937.641614303
 20
1592.833981228
 10
937.7921011299
 20
1593.5388955595
 10
937.9946228117
 20
1594.4875481845
 10
938.2414009423
 20
1595.643490863
 10
938.5229434819
 20
1596.9622883321
 10
938.8284321875
 20
1598.3932617427
 10
939.1461398453
 20
1599.8814407112
  0
ARC
  5
2CB
330
1F
100
AcDbEntity
  8
0
  6
Continuous
 62
     7
370
    15
100
AcDbCircle
 10
1147.7595504374
 20
2577.0616092206
 30
0.0
 40
1007.0
100
AcDbArc
 50
257.9491077771
 51
282.0508922229
  0
LWPOLYLINE
  5
2CC
330
1F
100
AcDbEntity
  8
0
  6
Continuous
 62
     8
370
    15
100
AcDbPolyline
 90
       17
 70
   128
 43
0.0
 10
1313.9789339156
 20
1831.389002812
 10
1313.9224734158
 20
1831.4454651745
 10
1313.6338379235
 20
1831.7341081174
 10
1313.1124462933
 20
1832.2554978849
 10
1312.3810824007
 20
1832.9868506016
 10
1311.4717390389
 20
1833.896201414
 10
1310.4241278023
 20
1834.9438052
 10
1309.2840548605
 20
1836.0838818671
 10
1308.1013347954
 20
1837.2665982069
 10
1306.9276746363
 20
1838.4402695419
 10
1305.8143492789
 20
1839.5535948993
 10
1304.8100110144
 20
1840.5579219879
 10
1303.9585884661
 20
1841.4093557121
 10
1303.2972600312
 20
1842.070684147
 10
1302.8549339623
 20
1842.51299904
 10
1302.6509668679
 20
1842.7169773103
 10
1302.6377793402
 20
1842.7301611127
  0
LWPOLYLINE
  5
2CD
330
1F
100
AcDbEntity
  8
0
  6
Continuous
 62
     8
370
    15
100
AcDbPolyline
 90
       17
 70
   128
 43
0.0
 10
1192.9397892207
 20
1952.4281475069
 10
1192.8833249957
 20
1952.4846080066
 10
1192.5946820528
 20
1952.7732584001
 10
1192.0732941479
 20
1953.2946500303
 10
1191.3419414312
 20
1954.0259990217
 10
1190.4325906188
 20
1954.9353423835
 10
1189.3849831075
 20
1955.9829536201
 10
1188.2449101657
 20
1957.1230265619
 10
1187.0621938259
 20
1958.305746627
 10
1185.8885224909
 20
1959.4794216873
 10
1184.7751934082
 20
1960.5927470447
 10
1183.7708700449
 20
1961.597070408
 10
1182.9194363207
 20
1962.4485078575
 10
1182.2581078858
 20
1963.1098362924
 10
1181.8157929928
 20
1963.5521474601
 10
1181.6118147225
 20
1963.7561294557
 10
1181.5986309201
 20
1963.7693020822
  0
DIMENSION
  5
2CE
330
1F
100
AcDbEntity
  8
MEDIÇÕES
100
AcDbDimension
  2
_D_2
 10
841.0867162623
 20
1570.0616092206
 30
0.0
 11
841.0867162623
 21
1776.1241446653
 31
0.0
 70
   160
  1
<>
 71
     2
 42
-1.0
  3
SLDDIMSTYLE1
100
AcDbAlignedDimension
 13
1019.2922571373
 23
1974.0616092206
 33
0.0
 14
1147.7595504374
 24
1570.0616092206
 34
0.0
 50
90.0
100
AcDbRotatedDimension
  0
LINE
  5
2D9
330
1F
100
AcDbEntity
  8
0
  6
Continuous
 62
     7
370
    15
100
AcDbLine
 10
3282.0646056826
 20
2071.8792621608
 30
0.0
 11
3284.4896879308
 21
2072.5075377785
 31
0.0
  0
LINE
  5
2DA
330
1F
100
AcDbEntity
  8
0
  6
Continuous
 62
     7
370
    15
100
AcDbLine
 10
3284.4896800282
 20
2088.5463720489
 30
0.0
 11
3282.0646056826
 21
2089.1746218111
 31
0.0
  0
ARC
  5
2DB
330
1F
100
AcDbEntity
  8
0
  6
Continuous
 62
     7
370
    15
100
AcDbCircle
 10
3284.4646047891
 20
2088.4495584752
 30
0.0
 40
0.0999999999999091
100
AcDbArc
 50
0.0
 51
75.475570922
  0
ARC
  5
2DC
330
1F
100
AcDbEntity
  8
0
  6
Continuous
 62
     7
370
    15
100
AcDbCircle
 10
3284.4646047891
 20
2072.6043468339
 30
0.0
 40
0.0999999999999091
100
AcDbArc
 50
284.524429078
 51
0.0000000003
  0
LINE
  5
2DD
330
1F
100
AcDbEntity
  8
0
  6
Continuous
 62
     7
370
    15
100
AcDbLine
 10
3282.0646030485
 20
1639.9450950005
 30
0.0
 11
3284.4896879308
 21
1640.5733508454
 31
0.0
  0
LINE
  5
2DE
330
1F
100
AcDbEntity
  8
0
  6
Continuous
 62
     7
370
    15
100
AcDbLine
 10
3284.4896852966
 20
1656.6121790331
 30
0.0
 11
3282.0646030485
 21
1657.2404546508
 31
0.0
  0
ARC
  5
2DF
330
1F
100
AcDbEntity
  8
0
  6
Continuous
 62
     7
370
    15
100
AcDbCircle
 10
3284.4646047891
 20
1656.5153725802
 30
0.0
 40
0.0999999999999091
100
AcDbArc
 50
0.0
 51
75.475570922
  0
ARC
  5
2E0
330
1F
100
AcDbEntity
  8
0
  6
Continuous
 62
     7
370
    15
100
AcDbCircle
 10
3284.4646047891
 20
1640.6701609389
 30
0.0
 40
0.0999999999999091
100
AcDbArc
 50
284.524429078
 51
0.0
  0
LINE
  5
2E1
330
1F
100
AcDbEntity
  8
0
  6
Continuous
 62
     7
370
    15
100
AcDbLine
 10
3282.0646030485
 20
2170.6966032584
 30
0.0
 11
3284.4896879308
 21
2171.3248834381
 31
0.0
  0
LINE
  5
2E2
330
1F
100
AcDbEntity
  8
0
  6
Continuous
 62
     7
370
    15
100
AcDbLine
 10
3284.4896852966
 20
2187.3637116258
 30
0.0
 11
3282.0646030485
 21
2187.9919629087
 31
0.0
  0
ARC
  5
2E3
330
1F
100
AcDbEntity
  8
0
  6
Continuous
 62
     7
370
    15
100
AcDbCircle
 10
3284.4646047891
 20
2187.2669003059
 30
0.0
 40
0.0999999999999091
100
AcDbArc
 50
0.0
 51
75.475570922
  0
ARC
  5
2E4
330
1F
100
AcDbEntity
  8
0
  6
Continuous
 62
     7
370
    15
100
AcDbCircle
 10
3284.4646047891
 20
2171.4216886646
 30
0.0
 40
0.0999999999999091
100
AcDbArc
 50
284.524429078
 51
0.0
  0
LINE
  5
2E5
330
1F
100
AcDbEntity
  8
0
  6
Continuous
 62
     7
370
    15
100
AcDbLine
 10
3282.0646056826
 20
1541.1277539029
 30
0.0
 11
3284.4896879308
 21
1541.7560051858
 31
0.0
  0
LINE
  5
2E6
330
1F
100
AcDbEntity
  8
0
  6
Continuous
 62
     7
370
    15
100
AcDbLine
 10
3284.4896800282
 20
1557.7948394562
 30
0.0
 11
3282.0646056826
 21
1558.4231135532
 31
0.0
  0
ARC
  5
2E7
330
1F
100
AcDbEntity
  8
0
  6
Continuous
 62
     7
370
    15
100
AcDbCircle
 10
3284.4646047891
 20
1557.6980307494
 30
0.0
 40
0.0999999999999091
100
AcDbArc
 50
0.0000000003
 51
75.475570922
  0
ARC
  5
2E8
330
1F
100
AcDbEntity
  8
0
  6
Continuous
 62
     7
370
    15
100
AcDbCircle
 10
3284.4646047891
 20
1541.8528191081
 30
0.0
 40
0.0999999999999091
100
AcDbArc
 50
284.524429078
 51
0.0000000001
  0
LINE
  5
2E9
330
1F
100
AcDbEntity
  8
0
  6
Continuous
 62
     7
370
    15
100
AcDbLine
 10
3176.2357709483
 20
1417.1943760093
 30
0.0
 11
3176.2357709483
 21
1983.0380223336
 31
0.0
  0
LINE
  5
2EA
330
1F
100
AcDbEntity
  8
0
  6
Continuous
 62
     7
370
    15
100
AcDbLine
 10
2852.256170679
 20
2150.745104118
 30
0.0
 11
2852.256170679
 21
1588.4818630944
 31
0.0
  0
SPLINE
  5
2EB
330
1F
100
AcDbEntity
  8
0
  6
Continuous
 62
     7
370
    15
100
AcDbSpline
210
0.0
220
0.0
230
1.0
 70
     8
 71
     3
 72
     9
 73
     5
 74
     0
 42
0.00000001
 43
0.00000001
 12
1.0
 22
0.0
 32
0.0
 13
1.0
 23
0.0
 33
0.0
 40
0.0
 40
0.0
 40
0.0
 40
0.0
 40
0.4541630264664988
 40
1.0
 40
1.0
 40
1.0
 40
1.0
 10
3281.674270547693
 20
1516.061751634925
 30
0.0
 10
3281.777806066232
 20
1516.314788043784
 30
0.0
 10
3282.005776007652
 20
1516.871936895878
 30
0.0
 10
3282.043829442549
 20
1517.472477689103
 30
0.0
 10
3282.064600414286
 20
1517.80027505816
 30
0.0
  0
SPLINE
  5
2EC
330
1F
100
AcDbEntity
  8
0
  6
Continuous
 62
     7
370
    15
100
AcDbSpline
210
0.0
220
0.0
230
1.0
 70
     8
 71
     3
 72
    25
 73
    21
 74
     0
 42
0.00000001
 43
0.00000001
 12
1.0
 22
0.0
 32
0.0
 13
1.0
 23
0.0
 33
0.0
 40
0.0
 40
0.0
 40
0.0
 40
0.0
 40
0.0342791847392779
 40
0.0824035693877439
 40
0.1323658662287673
 40
0.185117610712632
 40
0.2408970383465386
 40
0.2994811440712776
 40
0.360399864847408
 40
0.4230952734144021
 40
0.4870131033542076
 40
0.551637760380621
 40
0.616491227887307
 40
0.6809944044191908
 40
0.7446483112280545
 40
0.8069601138494535
 40
0.8674217447117315
 40
0.9255737842427233
 40
0.9755817836820752
 40
1.0
 40
1.0
 40
1.0
 40
1.0
 10
3211.904596159536
 20
1748.87457648908
 30
0.0
 10
3211.90305461264
 20
1748.877147539187
 30
0.0
 10
3211.899348895378
 20
1748.88332807433
 30
0.0
 10
3211.798759844407
 20
1749.225411685034
 30
0.0
 10
3211.694867590259
 20
1749.8545052509
 30
0.0
 10
3211.623820878478
 20
1750.776971943342
 30
0.0
 10
3211.627441661204
 20
1751.964459355686
 30
0.0
 10
3211.732218019617
 20
1753.391316308955
 30
0.0
 10
3211.957084896988
 20
1755.013043218018
 30
0.0
 10
3212.310337844341
 20
1756.77643601487
 30
0.0
 10
3212.791077262894
 20
1758.621875890809
 30
0.0
 10
3213.389763772415
 20
1760.487434127386
 30
0.0
 10
3214.088862504984
 20
1762.310041528356
 30
0.0
 10
3214.863373955568
 20
1764.02827019534
 30
0.0
 10
3215.681220779257
 20
1765.584771832019
 30
0.0
 10
3216.503437899919
 20
1766.928547720402
 30
0.0
 10
3217.285184819933
 20
1768.019052417208
 30
0.0
 10
3217.947318181459
 20
1768.797029536726
 30
0.0
 10
3218.381049634878
 20
1769.221365851985
 30
0.0
 10
3218.551069917102
 20
1769.363562822115
 30
0.0
 10
3218.606851230011
 20
1769.410215689536
 30
0.0
  0
SPLINE
  5
2ED
330
1F
100
AcDbEntity
  8
0
  6
Continuous
 62
     7
370
    15
100
AcDbSpline
210
0.0
220
0.0
230
1.0
 70
     8
 71
     3
 72
    15
 73
    11
 74
     0
 42
0.00000001
 43
0.00000001
 12
1.0
 22
0.0
 32
0.0
 13
1.0
 23
0.0
 33
0.0
 40
0.0
 40
0.0
 40
0.0
 40
0.0
 40
0.0708977656119768
 40
0.2062058738053767
 40
0.3414547348975259
 40
0.4766338764802663
 40
0.6117357314405837
 40
0.7467565079099704
 40
0.8816950712487533
 40
1.0
 40
1.0
 40
1.0
 40
1.0
 10
3218.606851230011
 20
1769.410215689536
 30
0.0
 10
3219.531259068399
 20
1770.168345181807
 30
0.0
 10
3222.219895648439
 20
1772.373361842938
 30
0.0
 10
3226.675340732051
 20
1776.233405389707
 30
0.0
 10
3231.969267030688
 20
1781.075115281886
 30
0.0
 10
3237.256881427418
 20
1786.182729082771
 30
0.0
 10
3242.533919341687
 20
1791.544704615251
 30
0.0
 10
3247.795690070548
 20
1797.162299476926
 30
0.0
 10
3252.825603960359
 20
1802.770157117011
 30
0.0
 10
3256.090983643293
 20
1806.605977980966
 30
0.0
 10
3257.616434534634
 20
1808.397915496388
 30
0.0
  0
SPLINE
  5
2EE
330
1F
100
AcDbEntity
  8
0
  6
Continuous
 62
     7
370
    15
100
AcDbSpline
210
0.0
220
0.0
230
1.0
 70
     8
 71
     3
 72
    11
 73
     7
 74
     0
 42
0.00000001
 43
0.00000001
 12
1.0
 22
0.0
 32
0.0
 13
1.0
 23
0.0
 33
0.0
 40
0.0
 40
0.0
 40
0.0
 40
0.0
 40
0.1906728154090992
 40
0.5153447319524369
 40
0.7958192843384447
 40
1.0
 40
1.0
 40
1.0
 40
1.0
 10
3257.616434534634
 20
1808.397915496388
 30
0.0
 10
3257.739922599589
 20
1808.540017979129
 30
0.0
 10
3258.073682415307
 20
1808.924088281549
 30
0.0
 10
3258.488533521236
 20
1809.319456733334
 30
0.0
 10
3258.789408148684
 20
1809.545062498844
 30
0.0
 10
3258.788398652009
 20
1809.543144745493
 30
0.0
 10
3258.787973360535
 20
1809.542336814005
 30
0.0
  0
SPLINE
  5
2EF
330
1F
100
AcDbEntity
  8
0
  6
Continuous
 62
     7
370
    15
100
AcDbSpline
210
0.0
220
0.0
230
1.0
 70
     8
 71
     3
 72
    12
 73
     8
 74
     0
 42
0.00000001
 43
0.00000001
 12
1.0
 22
0.0
 32
0.0
 13
1.0
 23
0.0
 33
0.0
 40
0.0
 40
0.0
 40
0.0
 40
0.0
 40
0.2135912240204605
 40
0.4655468179266755
 40
0.7009827248547071
 40
0.9286416415470368
 40
1.0
 40
1.0
 40
1.0
 40
1.0
 10
3180.271784771865
 20
1418.866403042804
 30
0.0
 10
3180.545400599023
 20
1418.711936969589
 30
0.0
 10
3181.141777993513
 20
1418.375260267665
 30
0.0
 10
3182.144478743492
 20
1418.139189824548
 30
0.0
 10
3183.186447009514
 20
1418.144812869299
 30
0.0
 10
3183.942279042099
 20
1418.3630355477
 30
0.0
 10
3184.322978335085
 20
1418.568777348244
 30
0.0
 10
3184.413829529547
 20
1418.617876174205
 30
0.0
  0
LINE
  5
2F0
330
1F
100
AcDbEntity
  8
0
  6
Continuous
 62
     7
370
    15
100
AcDbLine
 10
3177.6324858978
 20
1420.3637682887
 30
0.0
 11
3180.2929108797
 21
1418.8279376378
 31
0.0
  0
SPLINE
  5
2F1
330
1F
100
AcDbEntity
  8
0
  6
Continuous
 62
     7
370
    15
100
AcDbSpline
210
0.0
220
0.0
230
1.0
 70
     8
 71
     3
 72
     9
 73
     5
 74
     0
 42
0.00000001
 43
0.00000001
 12
1.0
 22
0.0
 32
0.0
 13
1.0
 23
0.0
 33
0.0
 40
0.0
 40
0.0
 40
0.0
 40
0.0
 40
0.6329819242941164
 40
1.0
 40
1.0
 40
1.0
 40
1.0
 10
3184.413829529547
 20
1418.617876174205
 30
0.0
 10
3184.616475821599
 20
1418.745008144752
 30
0.0
 10
3184.936621285909
 20
1418.945854275845
 30
0.0
 10
3185.205953558093
 20
1419.200786352564
 30
0.0
 10
3185.304803370355
 20
1419.294351032797
 30
0.0
  0
LINE
  5
2F2
330
1F
100
AcDbEntity
  8
0
  6
Continuous
 62
     7
370
    15
100
AcDbLine
 10
3185.3048033704
 20
1419.2943510328
 30
0.0
 11
3280.674894354
 21
1514.6541065482
 31
0.0
  0
SPLINE
  5
2F3
330
1F
100
AcDbEntity
  8
0
  6
Continuous
 62
     7
370
    15
100
AcDbSpline
210
0.0
220
0.0
230
1.0
 70
     8
 71
     3
 72
     9
 73
     5
 74
     0
 42
0.00000001
 43
0.00000001
 12
1.0
 22
0.0
 32
0.0
 13
1.0
 23
0.0
 33
0.0
 40
0.0
 40
0.0
 40
0.0
 40
0.0
 40
0.4512409266450749
 40
1.0
 40
1.0
 40
1.0
 40
1.0
 10
3280.67489435397
 20
1514.654106548165
 30
0.0
 10
3280.855353311632
 20
1514.847297678186
 30
0.0
 10
3281.255270400279
 20
1515.275430674583
 30
0.0
 10
3281.525809669183
 20
1515.783140991746
 30
0.0
 10
3281.674270547693
 20
1516.061751634925
 30
0.0
  0
SPLINE
  5
2F4
330
1F
100
AcDbEntity
  8
0
  6
Continuous
 62
     7
370
    15
100
AcDbSpline
210
0.0
220
0.0
230
1.0
 70
     8
 71
     3
 72
    32
 73
    28
 74
     0
 42
0.00000001
 43
0.00000001
 12
1.0
 22
0.0
 32
0.0
 13
1.0
 23
0.0
 33
0.0
 40
0.0
 40
0.0
 40
0.0
 40
0.0
 40
0.0221844313708601
 40
0.0643186881314172
 40
0.106453739042799
 40
0.1485895375584144
 40
0.1907259272831142
 40
0.2328627759654273
 40
0.2749999957774781
 40
0.3171374569191203
 40
0.35927511148022
 40
0.4014128367854397
 40
0.4435505716370995
 40
0.4856882343763384
 40
0.5278257715994119
 40
0.5699631371730169
 40
0.612100286206213
 40
0.6542371917621567
 40
0.6963738121856341
 40
0.7385101255261166
 40
0.7806461085456666
 40
0.8227817402866449
 40
0.8649170173534757
 40
0.9070519160122285
 40
0.9491864492658467
 40
0.9891032701156799
 40
1.0
 40
1.0
 40
1.0
 40
1.0
 10
2849.544990354835
 20
2153.135403530976
 30
0.0
 10
2851.257473585911
 20
2151.619510964388
 30
0.0
 10
2856.222427297303
 20
2147.224526950547
 30
0.0
 10
2864.641450873924
 20
2140.027599102581
 30
0.0
 10
2874.885061991348
 20
2131.58097401641
 30
0.0
 10
2885.389394705482
 20
2123.242241537944
 30
0.0
 10
2896.146579758324
 20
2115.01235252413
 30
0.0
 10
2907.154424304387
 20
2106.894260752196
 30
0.0
 10
2918.409134510199
 20
2098.890498458206
 30
0.0
 10
2929.907239509506
 20
2091.003523588972
 30
0.0
 10
2941.645104544366
 20
2083.235823368975
 30
0.0
 10
2953.619026600567
 20
2075.589796799991
 30
0.0
 10
2965.825202137432
 20
2068.067878637115
 30
0.0
 10
2978.259839923381
 20
2060.672357033836
 30
0.0
 10
2990.918957240195
 20
2053.405623503254
 30
0.0
 10
3003.79863215223
 20
2046.269839175272
 30
0.0
 10
3016.894781753648
 20
2039.267315884539
 30
0.0
 10
3030.203294579742
 20
2032.400200474846
 30
0.0
 10
3043.719973895491
 20
2025.670625947683
 30
0.0
 10
3057.440584235914
 20
2019.080672478624
 30
0.0
 10
3071.360838328493
 20
2012.632447054937
 30
0.0
 10
3085.476297497491
 20
2006.32786762116
 30
0.0
 10
3099.782680777733
 20
2000.169067921663
 30
0.0
 10
3114.275008348775
 20
1994.157484250938
 30
0.0
 10
3128.693086030887
 20
1988.399455682066
 30
0.0
 10
3139.607583880329
 20
1984.194661163141
 30
0.0
 10
3145.621167358791
 20
1981.937468315811
 30
0.0
 10
3146.91075239772
 20
1981.453423796214
 30
0.0
  0
SPLINE
  5
2F5
330
1F
100
AcDbEntity
  8
0
  6
Continuous
 62
     7
370
    15
100
AcDbSpline
210
0.0
220
0.0
230
1.0
 70
     8
 71
     3
 72
    22
 73
    18
 74
     0
 42
0.00000001
 43
0.00000001
 12
1.0
 22
0.0
 32
0.0
 13
1.0
 23
0.0
 33
0.0
 40
0.0
 40
0.0
 40
0.0
 40
0.0
 40
0.0383841191792406
 40
0.1107623024266079
 40
0.1830239747854814
 40
0.2551816204463129
 40
0.3272732936727348
 40
0.3993428768145805
 40
0.4714353718761151
 40
0.5435847446217409
 40
0.6158408700921032
 40
0.6882512882520899
 40
0.7608582743514608
 40
0.8336880479819652
 40
0.9067287586924749
 40
0.979875240490975
 40
0.9999999999999999
 40
0.9999999999999999
 40
0.9999999999999999
 40
0.9999999999999999
 10
3146.91075239772
 20
1981.453423796214
 30
0.0
 10
3147.334784167761
 20
1981.301214436658
 30
0.0
 10
3148.558382263958
 20
1980.861994793852
 30
0.0
 10
3150.698443364184
 20
1980.266310175524
 30
0.0
 10
3153.342404866968
 20
1979.730517260554
 30
0.0
 10
3156.069216253724
 20
1979.380968881381
 30
0.0
 10
3158.841823274185
 20
1979.218212430851
 30
0.0
 10
3161.626788972609
 20
1979.244394143215
 30
0.0
 10
3164.389466376257
 20
1979.459071987082
 30
0.0
 10
3167.095867982615
 20
1979.860155858888
 30
0.0
 10
3169.712684717426
 20
1980.44408063153
 30
0.0
 10
3172.207931320098
 20
1981.205657844189
 30
0.0
 10
3174.550510072503
 20
1982.138779075412
 30
0.0
 10
3176.711513184903
 20
1983.235774310206
 30
0.0
 10
3178.658651449456
 20
1984.48923178007
 30
0.0
 10
3179.960597517981
 20
1985.54725900467
 30
0.0
 10
3180.609047431751
 20
1986.180866099295
 30
0.0
 10
3180.748960853994
 20
1986.317576946323
 30
0.0
  0
LINE
  5
2F6
330
1F
100
AcDbEntity
  8
0
  6
Continuous
 62
     7
370
    15
100
AcDbLine
 10
3180.748960854
 20
1986.3175769463
 30
0.0
 11
3280.674894354
 21
2086.2326894691
 31
0.0
  0
SPLINE
  5
2F7
330
1F
100
AcDbEntity
  8
0
  6
Continuous
 62
     7
370
    15
100
AcDbSpline
210
0.0
220
0.0
230
1.0
 70
     8
 71
     3
 72
    11
 73
     7
 74
     0
 42
0.00000001
 43
0.00000001
 12
1.0
 22
0.0
 32
0.0
 13
1.0
 23
0.0
 33
0.0
 40
0.0
 40
0.0
 40
0.0
 40
0.0
 40
0.220509828809591
 40
0.5395046748437144
 40
0.8465866661608176
 40
1.0
 40
1.0
 40
1.0
 40
1.0
 10
3280.67489435397
 20
2086.232689469078
 30
0.0
 10
3280.85353185276
 20
2086.426709450958
 30
0.0
 10
3281.29059067331
 20
2086.901403426289
 30
0.0
 10
3281.780297686679
 20
2087.775133896614
 30
0.0
 10
3282.035616442848
 20
2088.66128081602
 30
0.0
 10
3282.057357435024
 20
2089.199520044471
 30
0.0
 10
3282.064600414286
 20
2089.37883364426
 30
0.0
  0
LINE
  5
2F8
330
1F
100
AcDbEntity
  8
0
  6
Continuous
 62
     7
370
    15
100
AcDbLine
 10
3168.7763161342
 20
2284.9560544689
 30
0.0
 11
2858.9398389893
 21
2181.6884185284
 31
0.0
  0
SPLINE
  5
2F9
330
1F
100
AcDbEntity
  8
0
  6
Continuous
 62
     7
370
    15
100
AcDbSpline
210
0.0
220
0.0
230
1.0
 70
     8
 71
     3
 72
    18
 73
    14
 74
     0
 42
0.00000001
 43
0.00000001
 12
1.0
 22
0.0
 32
0.0
 13
1.0
 23
0.0
 33
0.0
 40
0.0
 40
0.0
 40
0.0
 40
0.0
 40
0.062159089700257
 40
0.1758809299778017
 40
0.2910114255842499
 40
0.4063936406576684
 40
0.5074685485926533
 40
0.6050526460306356
 40
0.6994302672971147
 40
0.7912856680299832
 40
0.8905475509684491
 40
0.9869415085803709
 40
1.0
 40
1.0
 40
1.0
 40
1.0
 10
2858.939838989277
 20
2181.68841852835
 30
0.0
 10
2858.4708203195
 20
2181.524149635765
 30
0.0
 10
2857.143718519664
 20
2181.059346085172
 30
0.0
 10
2855.068143627735
 20
2180.118503278373
 30
0.0
 10
2852.793621042428
 20
2178.795857829907
 30
0.0
 10
2850.813788016716
 20
2177.30029050547
 30
0.0
 10
2849.154168632707
 20
2175.687129377396
 30
0.0
 10
2847.817152795662
 20
2174.012338793578
 30
0.0
 10
2846.753395312257
 20
2172.239338414501
 30
0.0
 10
2845.930470155691
 20
2170.325619693463
 30
0.0
 10
2845.427710587771
 20
2168.294869693141
 30
0.0
 10
2845.214433084867
 20
2166.773679347739
 30
0.0
 10
2845.268730902454
 20
2165.978524532577
 30
0.0
 10
2845.27520903603
 20
2165.883656647729
 30
0.0
  0
LINE
  5
2FA
330
1F
100
AcDbEntity
  8
0
  6
Continuous
 62
     7
370
    15
100
AcDbLine
 10
2845.2561691972
 20
2165.9395177065
 30
0.0
 11
2845.2561691972
 21
2161.6935066138
 31
0.0
  0
SPLINE
  5
2FB
330
1F
100
AcDbEntity
  8
0
  6
Continuous
 62
     7
370
    15
100
AcDbSpline
210
0.0
220
0.0
230
1.0
 70
     8
 71
     3
 72
    13
 73
     9
 74
     0
 42
0.00000001
 43
0.00000001
 12
1.0
 22
0.0
 32
0.0
 13
1.0
 23
0.0
 33
0.0
 40
0.0
 40
0.0
 40
0.0
 40
0.0
 40
0.0800264101468204
 40
0.2625813767575845
 40
0.4452896576454125
 40
0.6301428082723687
 40
0.8184013546203726
 40
1.0
 40
1.0
 40
1.0
 40
1.0
 10
2845.296229776725
 20
2161.803338585314
 30
0.0
 10
2845.284119905001
 20
2161.55035565491
 30
0.0
 10
2845.244385187627
 20
2160.720272110742
 30
0.0
 10
2845.513830533298
 20
2159.319662067107
 30
0.0
 10
2846.081902690414
 20
2157.640885719904
 30
0.0
 10
2846.970284204615
 20
2156.026694693739
 30
0.0
 10
2848.107405554646
 20
2154.506404174782
 30
0.0
 10
2849.071582631558
 20
2153.586884579822
 30
0.0
 10
2849.544990354835
 20
2153.135403530976
 30
0.0
  0
SPLINE
  5
2FC
330
1F
100
AcDbEntity
  8
0
  6
Continuous
 62
     7
370
    15
100
AcDbSpline
210
0.0
220
0.0
230
1.0
 70
     8
 71
     3
 72
    13
 73
     9
 74
     0
 42
0.00000001
 43
0.00000001
 12
1.0
 22
0.0
 32
0.0
 13
1.0
 23
0.0
 33
0.0
 40
0.0
 40
0.0
 40
0.0
 40
0.0
 40
0.198011158793255
 40
0.3789643078426156
 40
0.5522428097271285
 40
0.7193623031592355
 40
0.8819015084909634
 40
1.0
 40
1.0
 40
1.0
 40
1.0
 10
3282.064603048465
 20
2218.15613423307
 30
0.0
 10
3282.031832205967
 20
2218.702545167446
 30
0.0
 10
3281.969113621216
 20
2219.748295532251
 30
0.0
 10
3281.494390441631
 20
2221.208267469905
 30
0.0
 10
3280.820144105665
 20
2222.483301521102
 30
0.0
 10
3279.955287170117
 20
2223.573682113378
 30
0.0
 10
3279.03745022859
 20
2224.409295447482
 30
0.0
 10
3278.381671965071
 20
2224.820081943467
 30
0.0
 10
3278.105706103899
 20
2224.992949901173
 30
0.0
  0
LINE
  5
2FD
330
1F
100
AcDbEntity
  8
0
  6
Continuous
 62
     7
370
    15
100
AcDbLine
 10
3278.1057061039
 20
2224.9929499012
 30
0.0
 11
3175.3837513323
 21
2284.2930721523
 31
0.0
  0
SPLINE
  5
2FE
330
1F
100
AcDbEntity
  8
0
  6
Continuous
 62
     7
370
    15
100
AcDbSpline
210
0.0
220
0.0
230
1.0
 70
     8
 71
     3
 72
    12
 73
     8
 74
     0
 42
0.00000001
 43
0.00000001
 12
1.0
 22
0.0
 32
0.0
 13
1.0
 23
0.0
 33
0.0
 40
0.0
 40
0.0
 40
0.0
 40
0.0
 40
0.2316050586526003
 40
0.4278557282476632
 40
0.6412337357639443
 40
0.8797596414637447
 40
1.0
 40
1.0
 40
1.0
 40
1.0
 10
3175.383751332256
 20
2284.29307215225
 30
0.0
 10
3174.91117215194
 20
2284.531156958663
 30
0.0
 10
3174.038152751913
 20
2284.970983052382
 30
0.0
 10
3172.606612294933
 20
2285.311351192998
 30
0.0
 10
3171.129333455013
 20
2285.416635772685
 30
0.0
 10
3169.822015573992
 20
2285.269089829463
 30
0.0
 10
3169.038807861016
 20
2285.034632680973
 30
0.0
 10
3168.776316134218
 20
2284.956054468899
 30
0.0
  0
SPLINE
  5
2FF
330
1F
100
AcDbEntity
  8
0
  6
Continuous
 62
     7
370
    15
100
AcDbSpline
210
0.0
220
0.0
230
1.0
 70
     8
 71
     3
 72
    32
 73
    28
 74
     0
 42
0.00000001
 43
0.00000001
 12
1.0
 22
0.0
 32
0.0
 13
1.0
 23
0.0
 33
0.0
 40
0.0
 40
0.0
 40
0.0
 40
0.0
 40
0.0222552292876088
 40
0.0644735858542603
 40
0.106693924902645
 40
0.148917035218039
 40
0.1911424266699353
 40
0.2333696591375035
 40
0.2755982727864696
 40
0.3178279027233034
 40
0.3600581976656654
 40
0.4022888682336637
 40
0.4445195837713771
 40
0.4867500549288766
 40
0.5289800840606452
 40
0.5712094804706365
 40
0.613438095623622
 40
0.6556657721416882
 40
0.6978924148945321
 40
0.7401179067434629
 40
0.7823421775350364
 40
0.8245651510091422
 40
0.8667867993870715
 40
0.9090070397793429
 40
0.9512258329781679
 40
0.9912214154692993
 40
0.9999999999999999
 40
0.9999999999999999
 40
0.9999999999999999
 40
0.9999999999999999
 10
2850.502240114927
 20
1571.419481784273
 30
0.0
 10
2852.223998175849
 20
1569.895401224529
 30
0.0
 10
2857.211945715126
 20
1565.480127063674
 30
0.0
 10
2865.667616716133
 20
1558.252592779311
 30
0.0
 10
2875.95195206115
 20
1549.773582921421
 30
0.0
 10
2886.496922925964
 20
1541.404345069813
 30
0.0
 10
2897.294678882588
 20
1533.145634355906
 30
0.0
 10
2908.342909438912
 20
1525.000575508631
 30
0.0
 10
2919.63779593019
 20
1516.971470691909
 30
0.0
 10
2931.17574046975
 20
1509.060908613092
 30
0.0
 10
2942.95307731444
 20
1501.27135024432
 30
0.0
 10
2954.965987931854
 20
1493.605153318675
 30
0.0
 10
2967.210693658952
 20
1486.064714166929
 30
0.0
 10
2979.683237233817
 20
1478.652396511721
 30
0.0
 10
2992.379672080475
 20
1471.370386324712
 30
0.0
 10
3005.295945210793
 20
1464.220951893067
 30
0.0
 10
3018.427984688083
 20
1457.206312592729
 30
0.0
 10
3031.771626653161
 20
1450.328593346006
 30
0.0
 10
3045.322649455382
 20
1443.589874917455
 30
0.0
 10
3059.076761186341
 20
1436.992220494788
 30
0.0
 10
3073.029642380896
 20
1430.537659897719
 30
0.0
 10
3087.176884868506
 20
1424.228159099418
 30
0.0
 10
3101.514103566118
 20
1418.065674658616
 30
0.0
 10
3116.036409417621
 20
1412.051738369238
 30
0.0
 10
3130.482781869451
 20
1406.292402307683
 30
0.0
 10
3141.167236678874
 20
1402.18458870815
 30
0.0
 10
3146.936401082207
 20
1400.020390186055
 30
0.0
 10
3147.974760125089
 20
1399.630868420181
 30
0.0
  0
SPLINE
  5
300
330
1F
100
AcDbEntity
  8
0
  6
Continuous
 62
     7
370
    15
100
AcDbSpline
210
0.0
220
0.0
230
1.0
 70
     8
 71
     3
 72
    20
 73
    16
 74
     0
 42
0.00000001
 43
0.00000001
 12
1.0
 22
0.0
 32
0.0
 13
1.0
 23
0.0
 33
0.0
 40
0.0
 40
0.0
 40
0.0
 40
0.0
 40
0.0440892068573704
 40
0.1233634813093516
 40
0.2021825541873076
 40
0.2806985318306223
 40
0.3590585009206218
 40
0.4374728870651996
 40
0.5161304290449855
 40
0.5952526938223783
 40
0.6750815992151121
 40
0.7558098798228831
 40
0.8374849796791602
 40
0.9197867921557316
 40
1.0
 40
1.0
 40
1.0
 40
1.0
 10
3147.974760125089
 20
1399.630868420181
 30
0.0
 10
3148.438309936213
 20
1399.465492952762
 30
0.0
 10
3149.735342079375
 20
1399.00276534122
 30
0.0
 10
3151.967965788596
 20
1398.407134057416
 30
0.0
 10
3154.672613088312
 20
1397.907170139601
 30
0.0
 10
3157.43523742636
 20
1397.620660405409
 30
0.0
 10
3160.22364571261
 20
1397.543612931941
 30
0.0
 10
3163.009058363346
 20
1397.676943015882
 30
0.0
 10
3165.762606690132
 20
1398.02105661971
 30
0.0
 10
3168.456545716723
 20
1398.577473712919
 30
0.0
 10
3171.063133379425
 20
1399.349621056623
 30
0.0
 10
3173.555433030841
 20
1400.341307154614
 30
0.0
 10
3175.892973537127
 20
1401.563428365145
 30
0.0
 10
3178.041027446151
 20
1402.986359457862
 30
0.0
 10
3179.268734039458
 20
1404.120384105968
 30
0.0
 10
3179.874698238621
 20
1404.68010932164
 30
0.0
  0
LINE
  5
301
330
1F
100
AcDbEntity
  8
0
  6
Continuous
 62
     7
370
    15
100
AcDbLine
 10
3179.8746982386
 20
1404.6801093216
 30
0.0
 11
3279.8006291044
 21
1504.5952203237
 31
0.0
  0
SPLINE
  5
302
330
1F
100
AcDbEntity
  8
0
  6
Continuous
 62
     7
370
    15
100
AcDbSpline
210
0.0
220
0.0
230
1.0
 70
     8
 71
     3
 72
    12
 73
     8
 74
     0
 42
0.00000001
 43
0.00000001
 12
1.0
 22
0.0
 32
0.0
 13
1.0
 23
0.0
 33
0.0
 40
0.0
 40
0.0
 40
0.0
 40
0.0
 40
0.2186503696081968
 40
0.4599630238824827
 40
0.7025686458156197
 40
0.9459795175120832
 40
1.0
 40
1.0
 40
1.0
 40
1.0
 10
3279.800629104418
 20
1504.595220323716
 30
0.0
 10
3280.097114091294
 20
1504.922499622049
 30
0.0
 10
3280.720813613702
 20
1505.610979481402
 30
0.0
 10
3281.419931169917
 20
1506.856818690287
 30
0.0
 10
3281.899728732466
 20
1508.248624960922
 30
0.0
 10
3282.055071360392
 20
1509.334858087505
 30
0.0
 10
3282.063135735388
 20
1509.934272259047
 30
0.0
 10
3282.064600414286
 20
1510.043139876066
 30
0.0
  0
SPLINE
  5
303
330
1F
100
AcDbEntity
  8
0
  6
Continuous
 62
     7
370
    15
100
AcDbSpline
210
0.0
220
0.0
230
1.0
 70
     8
 71
     3
 72
    14
 73
    10
 74
     0
 42
0.00000001
 43
0.00000001
 12
1.0
 22
0.0
 32
0.0
 13
1.0
 23
0.0
 33
0.0
 40
0.0
 40
0.0
 40
0.0
 40
0.0
 40
0.1500439742352254
 40
0.3074773708152237
 40
0.4636048988339529
 40
0.6169163214071085
 40
0.7661887801229822
 40
0.9112160420804435
 40
1.0
 40
1.0
 40
1.0
 40
1.0
 10
2852.256181215708
 20
1596.91749715396
 30
0.0
 10
2851.6365177916
 20
1596.500694781701
 30
0.0
 10
2850.366673524904
 20
1595.646563196444
 30
0.0
 10
2848.756521034833
 20
1594.161918430889
 30
0.0
 10
2847.390064896388
 20
1592.532060212217
 30
0.0
 10
2846.341095804342
 20
1590.793588247657
 30
0.0
 10
2845.641687518627
 20
1588.988438715979
 30
0.0
 10
2845.281115966366
 20
1587.379196862001
 30
0.0
 10
2845.290367175015
 20
1586.383857838197
 30
0.0
 10
2845.293880089921
 20
1586.005902759516
 30
0.0
  0
LINE
  5
304
330
1F
100
AcDbEntity
  8
0
  6
Continuous
 62
     7
370
    15
100
AcDbLine
 10
2845.2561691972
 20
1586.0322478618
 30
0.0
 11
2845.2561691972
 21
1582.3578128456
 31
0.0
  0
SPLINE
  5
305
330
1F
100
AcDbEntity
  8
0
  6
Continuous
 62
     7
370
    15
100
AcDbSpline
210
0.0
220
0.0
230
1.0
 70
     8
 71
     3
 72
    14
 73
    10
 74
     0
 42
0.00000001
 43
0.00000001
 12
1.0
 22
0.0
 32
0.0
 13
1.0
 23
0.0
 33
0.0
 40
0.0
 40
0.0
 40
0.0
 40
0.0
 40
0.1463127741615683
 40
0.3087798534492387
 40
0.4711936595194212
 40
0.6356338636175822
 40
0.8040473648238536
 40
0.9800542969948958
 40
1.0
 40
1.0
 40
1.0
 40
1.0
 10
2845.271616017194
 20
1582.335621766624
 30
0.0
 10
2845.290759653902
 20
1581.727811803494
 30
0.0
 10
2845.331160564695
 20
1580.44508394589
 30
0.0
 10
2845.773822436915
 20
1578.530282253235
 30
0.0
 10
2846.492217844684
 20
1576.629975174246
 30
0.0
 10
2847.49161097774
 20
1574.829353963351
 30
0.0
 10
2848.760156691818
 20
1573.129983593773
 30
0.0
 10
2849.823978559733
 20
1572.028924479081
 30
0.0
 10
2850.439579125251
 20
1571.47578496424
 30
0.0
 10
2850.502240114927
 20
1571.419481784273
 30
0.0
  0
LWPOLYLINE
  5
306
330
1F
100
AcDbEntity
  8
0
  6
Continuous
 62
     7
370
    15
100
AcDbPolyline
 90
        7
 70
   128
 43
0.0
 10
3284.5646013198
 20
2076.90949441
 10
3284.5646079052
 20
2075.4788477058
 10
3284.564603954
 20
2074.2842566064
 10
3284.5646065882
 20
2073.3815320976
 10
3284.5646065882
 20
2072.8129535222
 10
3284.5646092223
 20
2072.6050532175
 10
3284.5646065882
 20
2072.6043379393
  0
LWPOLYLINE
  5
307
330
1F
100
AcDbEntity
  8
0
  6
Continuous
 62
     7
370
    15
100
AcDbPolyline
 90
       11
 70
   128
 43
0.0
 10
3284.5645986856
 20
2088.4495505946
 10
3284.5646065882
 20
2088.4138181706
 10
3284.5646013198
 20
2088.067872721
 10
3284.5646092223
 20
2087.3692973383
 10
3284.5646013198
 20
2086.3507982382
 10
3284.5645986856
 20
2085.0599789693
 10
3284.5646092223
 20
2083.5571871243
 10
3284.5646092223
 20
2081.912717701
 10
3284.5646052711
 20
2080.2034422893
 10
3284.5646079052
 20
2078.5093020892
 10
3284.5646013198
 20
2076.90949441
  0
LWPOLYLINE
  5
308
330
1F
100
AcDbEntity
  8
0
  6
Continuous
 62
     7
370
    15
100
AcDbPolyline
 90
        7
 70
   128
 43
0.0
 10
3284.5645986856
 20
1644.9753242084
 10
3284.564603954
 20
1643.5446584918
 10
3284.5646092223
 20
1642.350066632
 10
3284.5646065882
 20
1641.4473421232
 10
3284.5646065882
 20
1640.8787635478
 10
3284.564603954
 20
1640.6708632431
 10
3284.5646065882
 20
1640.6701722997
  0
LWPOLYLINE
  5
309
330
1F
100
AcDbEntity
  8
0
  6
Continuous
 62
     7
370
    15
100
AcDbPolyline
 90
       11
 70
   128
 43
0.0
 10
3284.5646013198
 20
1656.5153803929
 10
3284.564603954
 20
1656.4796297169
 10
3284.5646013198
 20
1656.1336766639
 10
3284.5646013198
 20
1655.4351088846
 10
3284.5646013198
 20
1654.416602181
 10
3284.5646013198
 20
1653.1257844328
 10
3284.564603954
 20
1651.6229971498
 10
3284.564603954
 20
1649.9785277266
 10
3284.5646065882
 20
1648.2692530752
 10
3284.564603954
 20
1646.5751128751
 10
3284.5645986856
 20
1644.9753242084
  0
LWPOLYLINE
  5
30A
330
1F
100
AcDbEntity
  8
0
  6
Continuous
 62
     7
370
    15
100
AcDbPolyline
 90
        7
 70
   128
 43
0.0
 10
3284.5645986856
 20
2175.7268324662
 10
3284.564603954
 20
2174.2961910845
 10
3284.5646092223
 20
2173.1015992247
 10
3284.5646065882
 20
2172.1988747159
 10
3284.5646065882
 20
2171.6302961405
 10
3284.564603954
 20
2171.4223958358
 10
3284.5646065882
 20
2171.4216805576
  0
LWPOLYLINE
  5
30B
330
1F
100
AcDbEntity
  8
0
  6
Continuous
 62
     7
370
    15
100
AcDbPolyline
 90
       11
 70
   128
 43
0.0
 10
3284.5646013198
 20
2187.2668886508
 10
3284.564603954
 20
2187.2311623096
 10
3284.5646013198
 20
2186.8852092566
 10
3284.5646013198
 20
2186.1866414773
 10
3284.5646013198
 20
2185.1681347737
 10
3284.5646013198
 20
2183.8773170255
 10
3284.564603954
 20
2182.3745297425
 10
3284.564603954
 20
2180.7300603193
 10
3284.5646065882
 20
2179.0207856679
 10
3284.564603954
 20
2177.3266454678
 10
3284.5645986856
 20
2175.7268324662
  0
LWPOLYLINE
  5
30C
330
1F
100
AcDbEntity
  8
0
  6
Continuous
 62
     7
370
    15
100
AcDbPolyline
 90
        7
 70
   128
 43
0.0
 10
3284.5646013198
 20
1546.1579861521
 10
3284.5646079052
 20
1544.7273151131
 10
3284.564603954
 20
1543.5327240137
 10
3284.5646065882
 20
1542.6299995049
 10
3284.5646065882
 20
1542.0614209295
 10
3284.5646092223
 20
1541.8535206248
 10
3284.5646065882
 20
1541.8528296814
  0
LWPOLYLINE
  5
30D
330
1F
100
AcDbEntity
  8
0
  6
Continuous
 62
     7
370
    15
100
AcDbPolyline
 90
       11
 70
   128
 43
0.0
 10
3284.5645986856
 20
1557.6980423367
 10
3284.5646065882
 20
1557.6622855779
 10
3284.5646013198
 20
1557.3163401283
 10
3284.5646092223
 20
1556.6177647456
 10
3284.5646013198
 20
1555.5992656455
 10
3284.5645986856
 20
1554.3084463766
 10
3284.5646092223
 20
1552.8056545316
 10
3284.5646092223
 20
1551.1611851083
 10
3284.5646052711
 20
1549.4519096966
 10
3284.5646079052
 20
1547.7577694965
 10
3284.5646013198
 20
1546.1579861521
  0
ARC
  5
30E
330
1F
100
AcDbEntity
  8
0
  6
Continuous
 62
     7
370
    15
100
AcDbCircle
 10
3279.8388663963
 20
2084.7886280669
 30
0.0
 40
1.957380326733141
100
AcDbArc
 50
3.7708588759
 51
58.3393814313
  0
LINE
  5
30F
330
1F
100
AcDbEntity
  8
0
  6
Continuous
 62
     7
370
    15
100
AcDbLine
 10
3281.7920090861
 20
1516.6049692079
 30
0.0
 11
3281.7920090861
 21
2084.9173579273
 31
0.0
  0
LWPOLYLINE
  5
310
330
1F
100
AcDbEntity
  8
0
  6
Continuous
 62
     7
370
    15
100
AcDbPolyline
 90
        3
 70
   128
 43
0.0
 10
3281.674171766
 20
1516.0615485887
 10
3281.7548935176
 20
1516.2920925486
 10
3281.7920090861
 20
1516.6049692079
  0
ARC
  5
311
330
1F
100
AcDbEntity
  8
0
  6
Continuous
 62
     7
370
    15
100
AcDbCircle
 10
3279.2366162406
 20
2086.1288545359
 30
0.0
 40
2.828030520886947
100
AcDbArc
 50
334.6346471116
 51
359.6719741272
  0
LINE
  5
312
330
1F
100
AcDbEntity
  8
0
  6
Continuous
 62
     7
370
    15
100
AcDbLine
 10
3282.0646004143
 20
2089.3788259564
 30
0.0
 11
3282.0646004143
 21
2086.1126637776
 31
0.0
  0
LINE
  5
313
330
1F
100
AcDbEntity
  8
0
  6
Continuous
 62
     7
370
    15
100
AcDbLine
 10
3282.0646004143
 20
2086.1126637776
 30
0.0
 11
3282.0646004143
 21
1517.8002750582
 31
0.0
  0
ARC
  5
314
330
1F
100
AcDbEntity
  8
0
  6
Continuous
 62
     7
370
    15
100
AcDbCircle
 10
3279.2366162406
 20
1517.8164658164
 30
0.0
 40
2.828030520890082
100
AcDbArc
 50
334.6346471116
 51
359.6719741272
  0
LINE
  5
315
330
1F
100
AcDbEntity
  8
0
  6
Continuous
 62
     7
370
    15
100
AcDbLine
 10
3176.8742746298
 20
1422.4928043365
 30
0.0
 11
3177.7570614453
 21
1421.9831823555
 31
0.0
  0
LINE
  5
316
330
1F
100
AcDbEntity
  8
0
  6
Continuous
 62
     7
370
    15
100
AcDbLine
 10
3176.8742746298
 20
1418.4101041706
 30
0.0
 11
3176.8742746298
 21
1422.4928043365
 31
0.0
  0
ARC
  5
317
330
1F
100
AcDbEntity
  8
0
  6
Continuous
 62
     7
370
    15
100
AcDbCircle
 10
3182.9456852753
 20
1422.8626992202
 30
0.0
 40
3.824485648707499
100
AcDbArc
 50
299.485721219
 51
314.4247346266
  0
ELLIPSE
  5
318
330
1F
100
AcDbEntity
  8
0
  6
Continuous
 62
     7
370
    15
100
AcDbEllipse
 10
3181.2925910389
 20
1424.0241981171
 30
0.0
 11
4.160421498338111
 21
-4.002983760840834
 31
0.0
210
0.0
220
0.0
230
1.0
 40
0.6927946976
 41
4.514932113735809
 42
6.085728440530684
  0
ARC
  5
319
330
1F
100
AcDbEntity
  8
0
  6
Continuous
 62
     7
370
    15
100
AcDbCircle
 10
3182.9456852753
 20
1991.1750879397
 30
0.0
 40
3.824485648708012
100
AcDbArc
 50
299.485721219
 51
314.4247346266
  0
LINE
  5
31A
330
1F
100
AcDbEntity
  8
0
  6
Continuous
 62
     7
370
    15
100
AcDbLine
 10
3185.6227170487
 20
1988.4437528519
 30
0.0
 11
3185.6227170487
 21
1420.1313641324
 31
0.0
  0
LINE
  5
31B
330
1F
100
AcDbEntity
  8
0
  6
Continuous
 62
     7
370
    15
100
AcDbLine
 10
3280.9928093494
 20
2083.8035091276
 30
0.0
 11
3185.6227170487
 21
1988.4437528519
 31
0.0
  0
LINE
  5
31C
330
1F
100
AcDbEntity
  8
0
  6
Continuous
 62
     7
370
    15
100
AcDbLine
 10
3280.9928093494
 20
2083.8035091276
 30
0.0
 11
3280.9928093494
 21
1515.4911204081
 31
0.0
  0
LINE
  5
31D
330
1F
100
AcDbEntity
  8
0
  6
Continuous
 62
     7
370
    15
100
AcDbLine
 10
3185.6227170487
 20
1420.1313641324
 30
0.0
 11
3280.9928093494
 21
1515.4911204081
 31
0.0
  0
LWPOLYLINE
  5
31E
330
1F
100
AcDbEntity
  8
0
  6
Continuous
 62
     7
370
    15
100
AcDbPolyline
 90
       26
 70
   128
 43
0.0
 10
3245.8707123985
 20
1511.4013705103
 10
3245.9649632885
 20
1512.7140053983
 10
3246.2417890579
 20
1514.1326465158
 10
3246.6838120342
 20
1515.5681506689
 10
3247.2632284682
 20
1516.9303208234
 10
3247.9436656298
 20
1518.1335530291
 10
3248.6823365652
 20
1519.1022657409
 10
3249.4328586675
 20
1519.7756051383
 10
3250.1480459057
 20
1520.1112226219
 10
3250.7829855444
 20
1520.0880485072
 10
3251.2977592495
 20
1519.7075463233
 10
3251.6600456568
 20
1518.9935968226
 10
3251.847056492
 20
1517.9911090353
 10
3251.847056492
 20
1516.7630283867
 10
3251.6600456568
 20
1515.3865449022
 10
3251.2977592495
 20
1513.9481289053
 10
3250.7829855444
 20
1512.5381729233
 10
3250.1480459057
 20
1511.2452717074
 10
3249.4328586675
 20
1510.1506757562
 10
3248.6823365652
 20
1509.3231266518
 10
3247.9436656298
 20
1508.8146339144
 10
3247.2632284682
 20
1508.6571659419
 10
3246.6838120342
 20
1508.8606246204
 10
3246.2417890579
 20
1509.4121795835
 10
3245.9649632885
 20
1510.2772146119
 10
3245.8707123985
 20
1511.4013705103
  0
LWPOLYLINE
  5
31F
330
1F
100
AcDbEntity
  8
0
  6
Continuous
 62
     7
370
    15
100
AcDbPolyline
 90
       26
 70
   128
 43
0.0
 10
3245.8707123985
 20
2029.9047782706
 10
3245.9649632885
 20
2031.2174131586
 10
3246.2417890579
 20
2032.6360542761
 10
3246.6838120342
 20
2034.0715584292
 10
3247.2632284682
 20
2035.4337285837
 10
3247.9436656298
 20
2036.6369607894
 10
3248.6823365652
 20
2037.605697836
 10
3249.4328586675
 20
2038.2790128986
 10
3250.1480459057
 20
2038.6146303822
 10
3250.7829855444
 20
2038.5914562675
 10
3251.2977592495
 20
2038.2109540836
 10
3251.6600456568
 20
2037.4970289177
 10
3251.847056492
 20
2036.4945167956
 10
3251.847056492
 20
2035.266436147
 10
3251.6600456568
 20
2033.8899526625
 10
3251.2977592495
 20
2032.4515610004
 10
3250.7829855444
 20
2031.0416050184
 10
3250.1480459057
 20
2029.7487038026
 10
3249.4328586675
 20
2028.6540835165
 10
3248.6823365652
 20
2027.8265344121
 10
3247.9436656298
 20
2027.3180416747
 10
3247.2632284682
 20
2027.160598037
 10
3246.6838120342
 20
2027.3640323807
 10
3246.2417890579
 20
2027.9156116786
 10
3245.9649632885
 20
2028.7806467071
 10
3245.8707123985
 20
2029.9047782706
  0
LWPOLYLINE
  5
320
330
1F
100
AcDbEntity
  8
0
  6
Continuous
 62
     7
370
    15
100
AcDbPolyline
 90
       20
 70
   128
 43
0.0
 10
3215.1506726749
 20
1741.1341950041
 10
3214.0886774595
 20
1741.1991042872
 10
3213.1374178203
 20
1741.613285306
 10
3212.3168186798
 20
1742.3680571806
 10
3211.6440496104
 20
1743.4476184989
 10
3211.1332192697
 20
1744.8293439615
 10
3210.7950329573
 20
1746.4842939339
 10
3210.6365713436
 20
1748.3777962412
 10
3210.6611429563
 20
1750.4701845991
 10
3210.8682525699
 20
1752.7176275314
 10
3211.2535537906
 20
1755.0730454852
 10
3211.8089649603
 20
1757.4870963772
 10
3212.5228535487
 20
1759.9092097946
 10
3213.3802837664
 20
1762.2886440012
 10
3214.3632747143
 20
1764.575549011
 10
3215.4512323883
 20
1766.7220220498
 10
3216.6213711486
 20
1768.6830991301
 10
3217.849187871
 20
1770.4176979467
 10
3219.108957173
 20
1771.8894695133
 10
3220.374274054
 20
1773.0675980768
  0
LWPOLYLINE
  5
321
330
1F
100
AcDbEntity
  8
0
  6
Continuous
 62
     7
370
    15
100
AcDbPolyline
 90
       18
 70
   128
 43
0.0
 10
3263.5978797139
 20
1789.5761511525
 10
3260.9522601297
 20
1784.713823983
 10
3258.2308934391
 20
1780.0355238466
 10
3255.4433127324
 20
1775.5576891603
 10
3252.5993118835
 20
1771.2960332739
 10
3249.7088783784
 20
1767.2655218846
 10
3246.7821643393
 20
1763.4803018658
 10
3243.8294377922
 20
1759.9536714035
 10
3240.8610615933
 20
1756.6980085788
 10
3237.8874749903
 20
1753.7247412657
 10
3234.9191145966
 20
1751.0443104433
 10
3231.9663854152
 20
1748.6661291384
 10
3229.0396713762
 20
1746.5985430776
 10
3226.1492405053
 20
1744.8488197327
 10
3223.3052396564
 20
1743.4230950414
 10
3220.5176576326
 20
1742.3263781804
 10
3217.7962777711
 20
1741.5625178095
 10
3215.1506726749
 20
1741.1341950041
  0
LWPOLYLINE
  5
322
330
1F
100
AcDbEntity
  8
0
  6
Continuous
 62
     7
370
    15
100
AcDbPolyline
 90
       20
 70
   128
 43
0.0
 10
3258.3742743835
 20
1811.0634813809
 10
3259.6395938986
 20
1812.4157209649
 10
3260.899353981
 20
1813.4631975835
 10
3262.1271667522
 20
1814.1839632437
 10
3263.2973173663
 20
1814.5629193331
 10
3264.3852776745
 20
1814.5921374457
 10
3265.3682686223
 20
1814.270995426
 10
3266.2256942302
 20
1813.6062210136
 10
3266.9395828187
 20
1812.6117510882
 10
3267.4949953054
 20
1811.3084046127
 10
3267.8802945505
 20
1809.7234890389
 10
3268.0873949445
 20
1807.8902128102
 10
3268.1119810452
 20
1805.8469689833
 10
3267.9535075777
 20
1803.6365747416
 10
3267.6153199481
 20
1801.3053234869
 10
3267.1044915831
 20
1798.9020559368
 10
3266.4317330505
 20
1796.4771137566
 10
3265.6111213976
 20
1794.0813034616
 10
3264.6598604413
 20
1791.7648074867
 10
3263.5978797139
 20
1789.5761511525
  0
ARC
  5
323
330
1F
100
AcDbEntity
  8
0
  6
Continuous
 62
     7
370
    15
100
AcDbCircle
 10
3037.3345317657
 20
1994.1271741001
 30
0.0
 40
287.0032811808273
100
AcDbArc
 50
309.6251276992
 51
320.3686643807
  0
LWPOLYLINE
  5
324
330
1F
100
AcDbEntity
  8
0
  6
Continuous
 62
     7
370
    15
100
AcDbPolyline
 90
       13
 70
   128
 43
0.0
 10
3245.8738786805
 20
2029.6869739166
 10
3245.8916830898
 20
2029.6813238245
 10
3246.4079819841
 20
2029.7107702092
 10
3246.9892001959
 20
2030.0752796795
 10
3247.5836999334
 20
2030.7424785993
 10
3248.1386606587
 20
2031.6530533643
 10
3248.6047705589
 20
2032.7261352394
 10
3248.9405966478
 20
2033.86637347
 10
3249.1163226643
 20
2034.9723956005
 10
3249.1163226643
 20
2035.9460071145
 10
3248.9405966478
 20
2036.7006247492
 10
3248.6047705589
 20
2037.1692583134
 10
3248.4034508686
 20
2037.2765315087
  0
ARC
  5
325
330
1F
100
AcDbEntity
  8
0
  6
Continuous
 62
     7
370
    15
100
AcDbCircle
 10
3278.2472241052
 20
2086.6171411834
 30
0.0
 40
3.931254720646377
100
AcDbArc
 50
314.2987141527
 51
334.3815086201
  0
ARC
  5
326
330
1F
100
AcDbEntity
  8
0
  6
Continuous
 62
     7
370
    15
100
AcDbCircle
 10
3279.8392696034
 20
2084.788814208
 30
0.0
 40
1.956965757284896
100
AcDbArc
 50
3.7661972354
 51
58.3223872572
  0
ARC
  5
327
330
1F
100
AcDbEntity
  8
0
  6
Continuous
 62
     7
370
    15
100
AcDbCircle
 10
3278.2472241051
 20
1518.3047524639
 30
0.0
 40
3.931254720653165
100
AcDbArc
 50
314.2987141527
 51
334.3815086201
  0
ARC
  5
328
330
1F
100
AcDbEntity
  8
0
  6
Continuous
 62
     7
370
    15
100
AcDbCircle
 10
3250.8657597992
 20
1779.974358538
 30
0.0
 40
15.94682723727146
100
AcDbArc
 50
37.0213833061
 51
73.8831039309
  0
LINE
  5
329
330
1F
100
AcDbEntity
  8
0
  6
Continuous
 62
     7
370
    15
100
AcDbLine
 10
3250.0964146992
 20
1797.0262950494
 30
0.0
 11
3255.2925666261
 21
1795.2944329586
 31
0.0
  0
LWPOLYLINE
  5
32A
330
1F
100
AcDbEntity
  8
0
  6
Continuous
 62
     7
370
    15
100
AcDbPolyline
 90
       15
 70
   128
 43
0.0
 10
3211.8145494177
 20
1753.8949292173
 10
3213.3043614872
 20
1754.5463201348
 10
3216.1110781802
 20
1756.0180695614
 10
3218.9636769862
 20
1757.8267418431
 10
3221.8508256713
 20
1759.9651748757
 10
3224.7610866344
 20
1762.4248902175
 10
3227.6829274441
 20
1765.1961485922
 10
3230.6047735222
 20
1768.2679487472
 10
3233.5150397536
 20
1771.6281289584
 10
3236.4021884387
 20
1775.2633658905
 10
3239.2547740738
 20
1779.1592563342
 10
3242.0615013035
 20
1783.3003499026
 10
3244.8112328232
 20
1787.6702436966
 10
3247.4930868433
 20
1792.2516104405
 10
3250.0964146992
 20
1797.0262950494
  0
ARC
  5
32B
330
1F
100
AcDbEntity
  8
0
  6
Continuous
 62
     7
370
    15
100
AcDbCircle
 10
3229.0470977794
 20
1807.9789946051
 30
0.0
 40
23.72836636493656
100
AcDbArc
 50
332.5104548184
 51
344.8291023505
  0
ELLIPSE
  5
32C
330
1F
100
AcDbEntity
  8
0
  6
Continuous
 62
     7
370
    15
100
AcDbEllipse
 10
3179.46246402
 20
1425.0807079567
 30
0.0
 11
1.684274944335357
 21
4.784043708339823
 31
0.0
210
0.0
220
0.0
230
1.0
 40
0.4107788327
 41
2.279373200945975
 42
3.064852628405316
  0
LWPOLYLINE
  5
32D
330
1F
100
AcDbEntity
  8
0
  6
Continuous
 62
     7
370
    15
100
AcDbPolyline
 90
       13
 70
   128
 43
0.0
 10
3245.8738786805
 20
1511.1835661563
 10
3245.8916830898
 20
1511.1778917294
 10
3246.4079819841
 20
1511.2073381141
 10
3246.9892001959
 20
1511.5718719192
 10
3247.5836999334
 20
1512.2390465042
 10
3248.1386606587
 20
1513.149645604
 10
3248.6047705589
 20
1514.222727479
 10
3248.9405966478
 20
1515.3629413749
 10
3249.1163226643
 20
1516.4689878401
 10
3249.1163226643
 20
1517.4425750194
 10
3248.9405966478
 20
1518.1972169889
 10
3248.6047705589
 20
1518.6658262183
 10
3248.4034508686
 20
1518.7730994135
  0
LWPOLYLINE
  5
32E
330
1F
100
AcDbEntity
  8
0
  6
Continuous
 62
     7
370
    15
100
AcDbPolyline
 90
        3
 70
   128
 43
0.0
 10
3281.7920090861
 20
1516.6049692079
 10
3281.7548935176
 20
1516.2920925486
 10
3281.6737555659
 20
1516.0606633996
  0
LINE
  5
32F
330
1F
100
AcDbEntity
  8
0
  6
Continuous
 62
     7
370
    15
100
AcDbLine
 10
3274.2060267986
 20
2224.606805993
 30
0.0
 11
3171.4840720269
 21
2283.9069282441
 31
0.0
  0
ARC
  5
330
330
1F
100
AcDbEntity
  8
0
  6
Continuous
 62
     7
370
    15
100
AcDbCircle
 10
3274.1644978601
 20
2224.5151703251
 30
0.0
 40
0.1006069001944139
100
AcDbArc
 50
5.7020052312
 51
65.6201458996
  0
LINE
  5
331
330
1F
100
AcDbEntity
  8
0
  6
Continuous
 62
     7
370
    15
100
AcDbLine
 10
3274.2646043326
 20
2099.993870502
 30
0.0
 11
3274.2646069667
 21
2224.5251660808
 31
0.0
  0
ARC
  5
332
330
1F
100
AcDbEntity
  8
0
  6
Continuous
 62
     7
370
    15
100
AcDbCircle
 10
3274.1823130476
 20
2099.9969801676
 30
0.0
 40
0.0823500188104249
100
AcDbArc
 50
312.3713522808
 51
357.8359071603
  0
LINE
  5
333
330
1F
100
AcDbEntity
  8
0
  6
Continuous
 62
     7
370
    15
100
AcDbLine
 10
3174.3118726809
 20
2000.0210250357
 30
0.0
 11
3274.2378114493
 21
2099.9361405998
 31
0.0
  0
LWPOLYLINE
  5
334
330
1F
100
AcDbEntity
  8
0
  6
Continuous
 62
     7
370
    15
100
AcDbPolyline
 90
       12
 70
   128
 43
0.0
 10
3150.766219659
 20
1996.751347048
 10
3152.9240856191
 20
1996.0686535931
 10
3155.2322999247
 20
1995.5764281755
 10
3157.6407499727
 20
1995.2853520415
 10
3160.0971525976
 20
1995.2017390488
 10
3162.5481709626
 20
1995.3274140118
 10
3164.9405946715
 20
1995.659639709
 10
3167.2224777335
 20
1996.1912020409
 10
3169.3442870647
 20
1996.9105742638
 10
3171.25995616
 20
1997.8021238016
 10
3172.9278860797
 20
1998.8464954569
 10
3174.3118726809
 20
2000.0210250357
  0
LWPOLYLINE
  5
335
330
1F
100
AcDbEntity
  8
0
  6
Continuous
 62
     7
370
    15
100
AcDbPolyline
 90
       23
 70
   128
 43
0.0
 10
2855.7423051067
 20
2167.0650276904
 10
2866.2862559557
 20
2157.8676410776
 10
2877.1328949339
 20
2148.7883260347
 10
2888.278249701
 20
2139.8303733103
 10
2899.7182636227
 20
2130.9970858183
 10
2911.448732551
 20
2122.2916813146
 10
2923.4653680439
 20
2113.7173410589
 10
2935.7637920976
 20
2105.2772006905
 10
2948.339505536
 20
2096.9743441455
 10
2961.1879090842
 20
2088.8118158227
 10
2974.3042967833
 20
2080.7925878882
 10
2987.6838889172
 20
2072.9196020949
 10
3001.3217780121
 20
2065.1957279633
 10
3015.2129933743
 20
2057.6237985176
 10
3029.3524391861
 20
2050.2065730293
 10
3043.7349669468
 20
2042.9467681906
 10
3058.3553030318
 20
2035.8470391064
 10
3073.2081053281
 20
2028.9099830957
 10
3088.2879421606
 20
2022.1381275265
 10
3103.589302829
 20
2015.5339480634
 10
3119.1066134123
 20
2009.0998717095
 10
3134.8341524761
 20
2002.8382403099
 10
3150.766219659
 20
1996.751347048
  0
LWPOLYLINE
  5
336
330
1F
100
AcDbEntity
  8
0
  6
Continuous
 62
     7
370
    15
100
AcDbPolyline
 90
       12
 70
   128
 43
0.0
 10
2861.406167197
 20
2180.657643853
 10
2859.3716018421
 20
2179.8586853944
 10
2857.5625010534
 20
2178.8958099471
 10
2856.0181246201
 20
2177.789917718
 10
2854.7720003603
 20
2176.5650232637
 10
2853.8512076242
 20
2175.2477202116
 10
2853.2757134812
 20
2173.8666034024
 10
2853.0580144719
 20
2172.4516606182
 10
2853.2028521168
 20
2171.0336095669
 10
2853.7070654023
 20
2169.643240949
 10
2854.5597172211
 20
2168.3107371935
 10
2855.7423051067
 20
2167.0650276904
  0
LINE
  5
337
330
1F
100
AcDbEntity
  8
0
  6
Continuous
 62
     7
370
    15
100
AcDbLine
 10
3171.242644342
 20
2283.9252797935
 30
0.0
 11
2861.406167197
 21
2180.657643853
 31
0.0
  0
ARC
  5
338
330
1F
100
AcDbEntity
  8
0
  6
Continuous
 62
     7
370
    15
100
AcDbCircle
 10
3171.3414378392
 20
2283.6277262868
 30
0.0
 40
0.3135255084886207
100
AcDbArc
 50
62.9391533959
 51
108.3671607254
  0
LWPOLYLINE
  5
339
330
1F
100
AcDbEntity
  8
0
  6
Continuous
 62
     7
370
    15
100
AcDbPolyline
 90
       26
 70
   128
 43
0.0
 10
3209.9870541637
 20
2079.5610822836
 10
3211.1754451436
 20
2080.0932331181
 10
3212.5557544323
 20
2080.4380500342
 10
3214.0412359132
 20
2080.5738740062
 10
3215.5385580242
 20
2080.4921664238
 10
3216.9536437313
 20
2080.1980580567
 10
3218.1975631841
 20
2079.7100403567
 10
3219.1921813938
 20
2079.0587610806
 10
3219.8749840473
 20
2078.2851508137
 10
3220.203068287
 20
2077.4378241306
 10
3220.1558216698
 20
2076.5700154273
 10
3219.7362260852
 20
2075.7362440733
 10
3218.9706233137
 20
2074.9889187362
 10
3217.9071345194
 20
2074.3749797233
 10
3216.6125861648
 20
2073.9330051303
 10
3215.1682979601
 20
2073.690779276
 10
3213.6650436801
 20
2073.6635028637
 10
3212.1972744123
 20
2073.8529033845
 10
3210.8571995588
 20
2074.2470784868
 10
3209.7290232546
 20
2074.8212563161
 10
3208.8836628406
 20
2075.5393572517
 10
3208.3741970042
 20
2076.356268842
 10
3208.2326599843
 20
2077.2206544978
 10
3208.4679394978
 20
2078.0782047032
 10
3209.0652420007
 20
2078.8750387738
 10
3209.9870541637
 20
2079.5610822836
  0
LWPOLYLINE
  5
33A
330
1F
100
AcDbEntity
  8
0
  6
Continuous
 62
     7
370
    15
100
AcDbPolyline
 90
       26
 70
   128
 43
0.0
 10
2990.7032390951
 20
2206.1509341819
 10
2991.891630075
 20
2206.6830850165
 10
2993.271928827
 20
2207.0279080152
 10
2994.7574103078
 20
2207.1637319872
 10
2996.2547324189
 20
2207.0820244049
 10
2997.669818126
 20
2206.7879160378
 10
2998.9137481155
 20
2206.2998922551
 10
2999.9083557885
 20
2205.6486190617
 10
3000.5911584419
 20
2204.8750087948
 10
3000.9192532184
 20
2204.027676029
 10
3000.8720066012
 20
2203.1598673256
 10
3000.4524004799
 20
2202.3261020544
 10
2999.6868082451
 20
2201.5787706345
 10
2998.6233194508
 20
2200.9648316217
 10
2997.3287605595
 20
2200.5228631113
 10
2995.8844828915
 20
2200.2806311743
 10
2994.3812286115
 20
2200.2533547621
 10
2992.913448807
 20
2200.4427613656
 10
2991.5733739535
 20
2200.8369364679
 10
2990.445208186
 20
2201.4111082145
 10
2989.5998372353
 20
2202.1292152328
 10
2989.0903713988
 20
2202.946126823
 10
2988.948834379
 20
2203.8105124788
 10
2989.1841138925
 20
2204.6680626842
 10
2989.7814269321
 20
2205.4648906721
 10
2990.7032390951
 20
2206.1509341819
  0
LWPOLYLINE
  5
33B
330
1F
100
AcDbEntity
  8
0
  6
Continuous
 62
     7
370
    15
100
AcDbPolyline
 90
       26
 70
   128
 43
0.0
 10
3224.9917457996
 20
2226.729257426
 10
3226.1801407307
 20
2227.2614090209
 10
3227.560443434
 20
2227.6062297386
 10
3229.0459328173
 20
2227.7420552313
 10
3230.5432536113
 20
2227.6603453679
 10
3231.9583300988
 20
2227.3662362404
 10
3233.2022620639
 20
2226.8782143586
 10
3234.1968802736
 20
2226.2269411652
 10
3234.8796770002
 20
2225.4533312785
 10
3235.207762557
 20
2224.6060007937
 10
3235.1605212081
 20
2223.738189049
 10
3234.7409196967
 20
2222.9044241579
 10
3233.9753189008
 20
2222.1570915976
 10
3232.911838009
 20
2221.5431571467
 10
3231.6172797763
 20
2221.1011852149
 10
3230.1730001326
 20
2220.8589544183
 10
3228.6697432184
 20
2220.8316825682
 10
3227.201964731
 20
2221.0210823286
 10
3225.8618879019
 20
2221.4152524887
 10
3224.7337274028
 20
2221.9894333594
 10
3223.8883571106
 20
2222.7075399975
 10
3223.3788899571
 20
2223.5244462654
 10
3223.237348986
 20
2224.3888311608
 10
3223.4726311336
 20
2225.2463859283
 10
3224.0699428562
 20
2226.0432177178
 10
3224.9917457996
 20
2226.729257426
  0
LWPOLYLINE
  5
33C
330
1F
100
AcDbEntity
  8
0
  6
Continuous
 62
     7
370
    15
100
AcDbPolyline
 90
       25
 70
   128
 43
0.0
 10
3138.0855026158
 20
2164.2348501516
 10
3139.2245896855
 20
2164.7394299425
 10
3140.5510850219
 20
2165.0566220208
 10
3141.974589809
 20
2165.1648102728
 10
3143.3980946372
 20
2165.0566219495
 10
3144.7245898399
 20
2164.739429889
 10
3145.8636771667
 20
2164.2348501516
 10
3146.7377296138
 20
2163.5772690348
 10
3147.2871819126
 20
2162.8114996542
 10
3147.4745898913
 20
2161.9897278088
 10
3147.2871820361
 20
2161.1679559871
 10
3146.7377297064
 20
2160.4021865292
 10
3145.8636771667
 20
2159.7446055609
 10
3144.7245900971
 20
2159.2400257701
 10
3143.3980947607
 20
2158.9228336918
 10
3141.9745897267
 20
2158.8146452972
 10
3140.5510853512
 20
2158.9228338818
 10
3139.2245900971
 20
2159.2400259126
 10
3138.0855026158
 20
2159.7446055609
 10
3137.2114503231
 20
2160.4021867668
 10
3136.6619980757
 20
2161.1679561772
 10
3136.4745896443
 20
2161.9897277612
 10
3136.6619977465
 20
2162.8114997255
 10
3137.2114500762
 20
2163.5772691833
 10
3138.0855026158
 20
2164.2348501516
  0
LWPOLYLINE
  5
33D
330
1F
100
AcDbEntity
  8
0
  6
Continuous
 62
     7
370
    15
100
AcDbPolyline
 90
       25
 70
   128
 43
0.0
 10
3078.6885311628
 20
2129.9457083967
 10
3079.8276205373
 20
2130.4502895182
 10
3081.1541148859
 20
2130.7674810262
 10
3082.577621237
 20
2130.8756701811
 10
3084.0011242954
 20
2130.7674808361
 10
3085.3276182325
 20
2130.450288045
 10
3086.4667083479
 20
2129.9457099174
 10
3087.3407580064
 20
2129.2881271908
 10
3087.8902115709
 20
2128.5223585408
 10
3088.0776213194
 20
2127.7005877171
 10
3087.8902119001
 20
2126.8788149925
 10
3087.3407605583
 20
2126.1130461049
 10
3086.4667057137
 20
2125.455463806
 10
3085.3276216075
 20
2124.9508857259
 10
3084.0011272589
 20
2124.6336942178
 10
3082.5776209078
 20
2124.525505063
 10
3081.1541178494
 20
2124.6336944079
 10
3079.827618644
 20
2124.9508841577
 10
3078.688533797
 20
2125.4554653267
 10
3077.8144788701
 20
2126.1130450119
 10
3077.2650305739
 20
2126.8788167033
 10
3077.0776208254
 20
2127.700587527
 10
3077.2650302447
 20
2128.5223602515
 10
3077.8144815866
 20
2129.2881291392
 10
3078.6885311628
 20
2129.9457083967
  0
LWPOLYLINE
  5
33E
330
1F
100
AcDbEntity
  8
0
  6
Continuous
 62
     7
370
    15
100
AcDbPolyline
 90
       23
 70
   128
 43
0.0
 10
3146.5238443284
 20
1986.6037360332
 10
3130.467422869
 20
1992.7381474604
 10
3114.6170889621
 20
1999.0486595531
 10
3098.9786588728
 20
2005.5329608801
 10
3083.5578434991
 20
2012.1886913481
 10
3068.3602905187
 20
2019.0134057058
 10
3053.3915422421
 20
2026.0046222058
 10
3038.6570777597
 20
2033.1597739426
 10
3024.1622839655
 20
2040.4762499111
 10
3009.9124634599
 20
2047.9513782788
 10
2995.912810842
 20
2055.5824157416
 10
2982.1684574906
 20
2063.3665824991
 10
2968.6844241491
 20
2071.3010287994
 10
2955.465647267
 20
2079.3828562292
 10
2942.5169421218
 20
2087.6091025064
 10
2929.8430607707
 20
2095.976768853
 10
2917.4486314644
 20
2104.4827941429
 10
2905.3381770867
 20
2113.1240685883
 10
2893.5161441301
 20
2121.8974291777
 10
2881.9868315731
 20
2130.7996764032
 10
2870.754475174
 20
2139.8275499301
 10
2859.8231631771
 20
2148.977752927
 10
2849.196899533
 20
2158.2469277356
  0
ARC
  5
33F
330
1F
100
AcDbEntity
  8
0
  6
Continuous
 62
     7
370
    15
100
AcDbCircle
 10
2859.412159764
 20
2157.5027299131
 30
0.0
 40
10.24233235088596
100
AcDbArc
 50
110.9959914883
 51
175.8332731036
  0
ARC
  5
340
330
1F
100
AcDbEntity
  8
0
  6
Continuous
 62
     7
370
    15
100
AcDbCircle
 10
3161.5507236492
 20
1986.2821053317
 30
0.0
 40
15.03032096897181
100
AcDbArc
 50
135.8498207032
 51
178.7738459821
  0
LWPOLYLINE
  5
341
330
1F
100
AcDbEntity
  8
0
  6
Continuous
 62
     7
370
    15
100
AcDbPolyline
 90
       14
 70
   128
 43
0.0
 10
3181.0668745323
 20
1991.4005768038
 10
3179.3771652287
 20
1989.9310294921
 10
3177.3837562714
 20
1988.5943104155
 10
3175.1176572042
 20
1987.4112163748
 10
3172.6140817191
 20
1986.4001536637
 10
3169.9119945775
 20
1985.5768400165
 10
3167.0534056507
 20
1984.954079547
 10
3164.0827693271
 20
1984.5415620193
 10
3161.0462996261
 20
1984.3456986145
 10
3157.9912115548
 20
1984.3695367723
 10
3154.9650151482
 20
1984.6127054474
 10
3152.0147884359
 20
1985.0714211912
 10
3149.1863977261
 20
1985.7385611453
 10
3146.5238443284
 20
1986.6037360332
  0
ARC
  5
342
330
1F
100
AcDbEntity
  8
0
  6
Continuous
 62
     7
370
    15
100
AcDbCircle
 10
3171.1892010536
 20
1990.6172516693
 30
0.0
 40
9.90868465634578
100
AcDbArc
 50
4.5342147809
 51
71.6304373355
  0
LINE
  5
343
330
1F
100
AcDbEntity
  8
0
  6
Continuous
 62
     7
370
    15
100
AcDbLine
 10
3146.5238443284
 20
1986.6037360332
 30
0.0
 11
3146.5238443284
 21
1982.3577249406
 31
0.0
  0
LWPOLYLINE
  5
344
330
1F
100
AcDbEntity
  8
0
  6
Continuous
 62
     7
370
    15
100
AcDbPolyline
 90
       23
 70
   128
 43
0.0
 10
2849.196899533
 20
2154.0009166429
 10
2859.8231631771
 20
2144.7317418343
 10
2870.754475174
 20
2135.5815388374
 10
2881.9868315731
 20
2126.5536653106
 10
2893.5161441301
 20
2117.651418085
 10
2905.3381770867
 20
2108.8780574956
 10
2917.4486314644
 20
2100.2367830502
 10
2929.8430607707
 20
2091.7307577604
 10
2942.5169421218
 20
2083.3630914138
 10
2955.465647267
 20
2075.1368451365
 10
2968.6844241491
 20
2067.0550177067
 10
2982.1684574906
 20
2059.1205714064
 10
2995.912810842
 20
2051.336404649
 10
3009.9124634599
 20
2043.7053671861
 10
3024.1622839655
 20
2036.2302388184
 10
3038.6570777597
 20
2028.91376285
 10
3053.3915422421
 20
2021.7586111131
 10
3068.3602905187
 20
2014.7673946131
 10
3083.5578434991
 20
2007.9426802554
 10
3098.9786588728
 20
2001.2869497874
 10
3114.6170889621
 20
1994.8026484605
 10
3130.467422869
 20
1988.4921363677
 10
3146.5238443284
 20
1982.3577249406
  0
LINE
  5
345
330
1F
100
AcDbEntity
  8
0
  6
Continuous
 62
     7
370
    15
100
AcDbLine
 10
2849.196899533
 20
2158.2469277356
 30
0.0
 11
2849.196899533
 21
2154.0009166429
 31
0.0
  0
LINE
  5
346
330
1F
100
AcDbEntity
  8
0
  6
Continuous
 62
     7
370
    15
100
AcDbLine
 10
3181.0668745323
 20
1991.4005768038
 30
0.0
 11
3181.0668745323
 21
1987.1545657111
 31
0.0
  0
LWPOLYLINE
  5
347
330
1F
100
AcDbEntity
  8
0
  6
Continuous
 62
     7
370
    15
100
AcDbPolyline
 90
       14
 70
   128
 43
0.0
 10
3146.5238443284
 20
1982.3577249406
 10
3149.1863977261
 20
1981.4925500526
 10
3152.0147884359
 20
1980.8254100986
 10
3154.9650151482
 20
1980.3666943547
 10
3157.9912115548
 20
1980.1235256797
 10
3161.0462996261
 20
1980.0996875218
 10
3164.0827693271
 20
1980.2955509267
 10
3167.0534056507
 20
1980.7080684544
 10
3169.9119945775
 20
1981.3308289239
 10
3172.6140817191
 20
1982.1541425711
 10
3175.1176572042
 20
1983.1652052821
 10
3177.3837562714
 20
1984.3482993228
 10
3179.3771652287
 20
1985.6850183994
 10
3181.0668745323
 20
1987.1545657111
  0
LINE
  5
348
330
1F
100
AcDbEntity
  8
0
  6
Continuous
 62
     7
370
    15
100
AcDbLine
 10
3280.9928093494
 20
2091.3156900869
 30
0.0
 11
3181.0668745323
 21
1991.4005768038
 31
0.0
  0
ARC
  5
349
330
1F
100
AcDbEntity
  8
0
  6
Continuous
 62
     7
370
    15
100
AcDbCircle
 10
3271.1151347648
 20
2090.5323680054
 30
0.0
 40
9.908685517419471
100
AcDbArc
 50
4.5341966769
 51
71.6304081763
  0
LINE
  5
34A
330
1F
100
AcDbEntity
  8
0
  6
Continuous
 62
     7
370
    15
100
AcDbLine
 10
3280.9928093494
 20
2091.3156900869
 30
0.0
 11
3280.9928093494
 21
2087.0696789942
 31
0.0
  0
LINE
  5
34B
330
1F
100
AcDbEntity
  8
0
  6
Continuous
 62
     7
370
    15
100
AcDbLine
 10
3181.0668745323
 20
1987.1545657111
 30
0.0
 11
3280.9928093494
 21
2087.0696789942
 31
0.0
  0
ARC
  5
34C
330
1F
100
AcDbEntity
  8
0
  6
Continuous
 62
     7
370
    15
100
AcDbCircle
 10
3211.9644694712
 20
2075.5165528294
 30
0.0
 40
1.69154628835762
100
AcDbArc
 50
109.4478742649
 51
228.2467401407
  0
LWPOLYLINE
  5
34D
330
1F
100
AcDbEntity
  8
0
  6
Continuous
 62
     7
370
    15
100
AcDbPolyline
 90
       11
 70
   128
 43
0.0
 10
3217.6213683498
 20
2074.2546232915
 10
3218.0052286751
 20
2074.7161112325
 10
3218.2268947565
 20
2075.3924330439
 10
3218.0933998822
 20
2076.0764251583
 10
3217.6165952192
 20
2076.707313655
 10
3216.8388462527
 20
2077.2290447997
 10
3215.8292659118
 20
2077.5952515811
 10
3214.6775505927
 20
2077.7734082042
 10
3213.4860460144
 20
2077.7476707187
 10
3212.3606250604
 20
2077.5203262253
 10
3211.4012705921
 20
2077.111587584
  0
LWPOLYLINE
  5
34E
330
1F
100
AcDbEntity
  8
0
  6
Continuous
 62
     7
370
    15
100
AcDbPolyline
 90
        9
 70
   128
 43
0.0
 10
3274.2646043326
 20
2099.993870502
 10
3275.7863123468
 20
2099.8714884488
 10
3277.2495317305
 20
2099.509049933
 10
3278.59805571
 20
2098.9204843558
 10
3279.7800423446
 20
2098.1284101629
 10
3280.7500718194
 20
2097.1632664033
 10
3281.4708685397
 20
2096.0621655668
 10
3281.9147249039
 20
2094.8673795038
 10
3282.0646004143
 20
2093.6248447369
  0
ARC
  5
34F
330
1F
100
AcDbEntity
  8
0
  6
Continuous
 62
     7
370
    15
100
AcDbCircle
 10
3278.7711276823
 20
2093.7501932077
 30
0.0
 40
3.29585722918742
100
AcDbArc
 50
312.3829882781
 51
357.8203937998
  0
LWPOLYLINE
  5
350
330
1F
100
AcDbEntity
  8
0
  6
Continuous
 62
     7
370
    15
100
AcDbPolyline
 90
        9
 70
   128
 43
0.0
 10
3274.2646069667
 20
2224.5251660808
 10
3275.7863044442
 20
2224.402782507
 10
3277.2495350232
 20
2224.04034133
 10
3278.598048466
 20
2223.4517772734
 10
3279.780034442
 20
2222.6597042211
 10
3280.7500652339
 20
2221.6945612218
 10
3281.4708606372
 20
2220.593459625
 10
3281.9147288552
 20
2219.3986697603
 10
3282.0646030485
 20
2218.1561342331
  0
LINE
  5
351
330
1F
100
AcDbEntity
  8
0
  6
Continuous
 62
     7
370
    15
100
AcDbLine
 10
3282.0646030485
 20
2218.1561342331
 30
0.0
 11
3282.0646004143
 21
2093.6248447369
 31
0.0
  0
LINE
  5
352
330
1F
100
AcDbEntity
  8
0
  6
Continuous
 62
     7
370
    15
100
AcDbLine
 10
3282.0646004143
 20
2093.6248447369
 30
0.0
 11
3282.0646004143
 21
2089.3788336443
 31
0.0
  0
ARC
  5
353
330
1F
100
AcDbEntity
  8
0
  6
Continuous
 62
     7
370
    15
100
AcDbCircle
 10
3278.7711276823
 20
2089.5041821151
 30
0.0
 40
3.29585722918584
100
AcDbArc
 50
312.3829882781
 51
357.8203937998
  0
ARC
  5
354
330
1F
100
AcDbEntity
  8
0
  6
Continuous
 62
     7
370
    15
100
AcDbCircle
 10
3080.5813359392
 20
2126.1041026857
 30
0.0
 40
1.472082699640096
100
AcDbArc
 50
108.9723425366
 51
225.8742419156
  0
LWPOLYLINE
  5
355
330
1F
100
AcDbEntity
  8
0
  6
Continuous
 62
     7
370
    15
100
AcDbPolyline
 90
       10
 70
   128
 43
0.0
 10
3085.5988201141
 20
2125.0474240643
 10
3085.9321144286
 20
2125.4909773118
 10
3086.074633009
 20
2126.1510010602
 10
3085.8381896005
 20
2126.8019729217
 10
3085.2484149198
 20
2127.3733546032
 10
3084.3692189829
 20
2127.8032273507
 10
3083.295871942
 20
2128.0450052701
 10
3082.1446952299
 20
2128.0724923439
 10
3081.0404331463
 20
2127.8827079468
 10
3080.1027446277
 20
2127.4962154078
  0
ARC
  5
356
330
1F
100
AcDbEntity
  8
0
  6
Continuous
 62
     7
370
    15
100
AcDbCircle
 10
3139.9783036236
 20
2160.3932452814
 30
0.0
 40
1.472080679318687
100
AcDbArc
 50
108.9722144633
 51
225.874369989
  0
LWPOLYLINE
  5
357
330
1F
100
AcDbEntity
  8
0
  6
Continuous
 62
     7
370
    15
100
AcDbPolyline
 90
       10
 70
   128
 43
0.0
 10
3144.9957882744
 20
2159.3365639184
 10
3145.3290860463
 20
2159.7801191618
 10
3145.4716000169
 20
2160.440140249
 10
3145.2351587486
 20
2161.091113346
 10
3144.645384068
 20
2161.6624950275
 10
3143.7661874725
 20
2162.0923673949
 10
3142.6928435597
 20
2162.3341471201
 10
3141.5416656952
 20
2162.3616335285
 10
3140.4374019652
 20
2162.171848181
 10
3139.4997160807
 20
2161.7853571628
  0
ARC
  5
358
330
1F
100
AcDbEntity
  8
0
  6
Continuous
 62
     7
370
    15
100
AcDbCircle
 10
2992.6806455213
 20
2202.1064119517
 30
0.0
 40
1.691545763349898
100
AcDbArc
 50
109.4479400077
 51
228.2471275086
  0
LWPOLYLINE
  5
359
330
1F
100
AcDbEntity
  8
0
  6
Continuous
 62
     7
370
    15
100
AcDbPolyline
 90
       11
 70
   128
 43
0.0
 10
2998.3375427445
 20
2200.8444812726
 10
2998.7214136065
 20
2201.3059631308
 10
2998.9430796879
 20
2201.9822849423
 10
2998.8095848136
 20
2202.6662770567
 10
2998.3327696139
 20
2203.2971716361
 10
2997.5550311841
 20
2203.8188966981
 10
2996.5454403065
 20
2204.1851095621
 10
2995.3937355241
 20
2204.3632601026
 10
2994.2022309458
 20
2204.3375226171
 10
2993.0767994551
 20
2204.1101842064
 10
2992.1174449868
 20
2203.701445565
  0
ARC
  5
35A
330
1F
100
AcDbEntity
  8
0
  6
Continuous
 62
     7
370
    15
100
AcDbCircle
 10
3226.9691697946
 20
2222.6847294294
 30
0.0
 40
1.691550117467195
100
AcDbArc
 50
109.4482351613
 51
228.2466109697
  0
LWPOLYLINE
  5
35B
330
1F
100
AcDbEntity
  8
0
  6
Continuous
 62
     7
370
    15
100
AcDbPolyline
 90
       11
 70
   128
 43
0.0
 10
3232.6260639369
 20
2221.4228052769
 10
3233.0099222866
 20
2221.8842852343
 10
3233.2315949534
 20
2222.5606093268
 10
3233.0980908595
 20
2223.2446006809
 10
3232.6212921234
 20
2223.8754948801
 10
3231.8435378885
 20
2224.3972199421
 10
3230.8339601819
 20
2224.7634312855
 10
3229.6822527653
 20
2224.9415833466
 10
3228.4907508211
 20
2224.9158473818
 10
3227.3653153792
 20
2224.6885051694
 10
3226.4059595937
 20
2224.279764247
  0
LWPOLYLINE
  5
35C
330
1F
100
AcDbEntity
  8
0
  6
Continuous
 62
     7
370
    15
100
AcDbPolyline
 90
       13
 70
   128
 43
0.0
 10
3148.1555279584
 20
1410.5993818026
 10
3150.6938640568
 20
1409.7845778729
 10
3153.3992491893
 20
1409.1747005926
 10
3156.2223504696
 20
1408.7808934945
 10
3159.1116328389
 20
1408.6103159335
 10
3162.0143705895
 20
1408.6661065904
 10
3164.8776062064
 20
1408.9472314035
 10
3167.6490881341
 20
1409.4485748101
 10
3170.2782190809
 20
1410.1609762423
 10
3172.71704647
 20
1411.0714369392
 10
3174.921073766
 20
1412.1633450078
 10
3176.8500507287
 20
1413.4167734756
 10
3178.4687952761
 20
1414.808857419
  0
LWPOLYLINE
  5
35D
330
1F
100
AcDbEntity
  8
0
  6
Continuous
 62
     7
370
    15
100
AcDbPolyline
 90
       23
 70
   128
 43
0.0
 10
2851.7143624047
 20
1581.7312240331
 10
2862.3089632288
 20
1572.4896586653
 10
2873.2077167853
 20
1563.3667183945
 10
2884.4066085867
 20
1554.3657426309
 10
2895.9015714621
 20
1545.4900160403
 10
2907.6883959952
 20
1536.7427959162
 10
2919.7627568655
 20
1528.127260477
 10
2932.1202655324
 20
1519.6465757755
 10
2944.7563964782
 20
1511.3038409547
 10
2957.6665135494
 20
1503.1020973718
 10
2970.8459186895
 20
1495.0443491275
 10
2984.2897821332
 20
1487.1335425365
 10
2997.99318587
 20
1479.3725653675
 10
3011.9511275958
 20
1471.7642567275
 10
3026.1585035907
 20
1464.3114047807
 10
3040.6101100361
 20
1457.0167216574
 10
3055.3006785758
 20
1449.882883752
 10
3070.224840755
 20
1442.9125035903
 10
3085.3771122151
 20
1436.1081146228
 10
3100.7519875239
 20
1429.472213804
 10
3116.3438242722
 20
1423.007231178
 10
3132.1469326353
 20
1416.7155146729
 10
3148.1555279584
 20
1410.5993818026
  0
ARC
  5
35E
330
1F
100
AcDbEntity
  8
0
  6
Continuous
 62
     7
370
    15
100
AcDbCircle
 10
2859.7084945304
 20
1588.8311819731
 30
0.0
 40
7.460506314291757
100
AcDbArc
 50
182.683707637
 51
231.5663008763
  0
LWPOLYLINE
  5
35F
330
1F
100
AcDbEntity
  8
0
  6
Continuous
 62
     7
370
    15
100
AcDbPolyline
 90
       23
 70
   128
 43
0.0
 10
2855.0709795669
 20
1582.9871585792
 10
2865.623380859
 20
1573.7824118819
 10
2876.4786915513
 20
1564.6958158299
 10
2887.6329814503
 20
1555.7306976679
 10
2899.0821412381
 20
1546.8903420617
 10
2910.8219983769
 20
1538.1779606846
 10
2922.848269693
 20
1529.5967560856
 10
2935.1565403042
 20
1521.1498608628
 10
2947.7423268394
 20
1512.8403619937
 10
2960.6010089504
 20
1504.6712917114
 10
2973.7279030685
 20
1496.6456457529
 10
2987.1182044532
 20
1488.7663559864
 10
3000.7670135332
 20
1481.0362995359
 10
3014.6693464437
 20
1473.4583048637
 10
3028.8201244894
 20
1466.0351456874
 10
3043.2141583397
 20
1458.7695257737
 10
3057.8461954435
 20
1451.6641123928
 10
3072.7108884195
 20
1444.7214937398
 10
3087.8028108609
 20
1437.944218472
 10
3103.1164151887
 20
1431.3347592127
 10
3118.6461380189
 20
1424.895524717
 10
3134.3862895271
 20
1418.6288872435
 10
3150.3311061316
 20
1412.5371156446
  0
LWPOLYLINE
  5
360
330
1F
100
AcDbEntity
  8
0
  6
Continuous
 62
     7
370
    15
100
AcDbPolyline
 90
       12
 70
   128
 43
0.0
 10
3150.3311061316
 20
1412.5371156446
 10
3152.5923372378
 20
1411.8217215169
 10
3155.0111238004
 20
1411.3059194981
 10
3157.534961383
 20
1411.0008956999
 10
3160.1090274722
 20
1410.9132741984
 10
3162.6774564204
 20
1411.044964966
 10
3165.1844879471
 20
1411.3931091268
 10
3167.5756893974
 20
1411.9501397841
 10
3169.7991463906
 20
1412.7039705843
 10
3171.8065797117
 20
1413.6382268601
 10
3173.5543989828
 20
1414.7326349244
 10
3175.0046931135
 20
1415.9634356944
  0
LINE
  5
361
330
1F
100
AcDbEntity
  8
0
  6
Continuous
 62
     7
370
    15
100
AcDbLine
 10
3175.0046931135
 20
1415.9634356944
 30
0.0
 11
3176.722661879
 21
1417.6812185823
 31
0.0
  0
LINE
  5
362
330
1F
100
AcDbEntity
  8
0
  6
Continuous
 62
     7
370
    15
100
AcDbLine
 10
3176.722661879
 20
1417.6812185823
 30
0.0
 11
3176.2357709483
 21
1417.9622947337
 31
0.0
  0
LWPOLYLINE
  5
363
330
1F
100
AcDbEntity
  8
0
  6
Continuous
 62
     7
370
    15
100
AcDbPolyline
 90
       23
 70
   128
 43
0.0
 10
3146.5238443284
 20
1406.6964661886
 10
3130.467422869
 20
1412.8308776157
 10
3114.6170889621
 20
1419.1413897085
 10
3098.9786588728
 20
1425.6256910355
 10
3083.5578434991
 20
1432.2814215034
 10
3068.3602905187
 20
1439.1061358612
 10
3053.3915422421
 20
1446.0973523612
 10
3038.6570777597
 20
1453.252504098
 10
3024.1622839655
 20
1460.5689800664
 10
3009.9124634599
 20
1468.0441084342
 10
2995.912810842
 20
1475.675145897
 10
2982.1684574906
 20
1483.4593126544
 10
2968.6844241491
 20
1491.3937589548
 10
2955.465647267
 20
1499.4755863845
 10
2942.5169421218
 20
1507.7018326618
 10
2929.8430607707
 20
1516.0694990084
 10
2917.4486314644
 20
1524.5755242983
 10
2905.3381770867
 20
1533.2167987437
 10
2893.5161441301
 20
1541.990159333
 10
2881.9868315731
 20
1550.8924065586
 10
2870.754475174
 20
1559.9202800855
 10
2859.8231631771
 20
1569.0704830824
 10
2849.196899533
 20
1578.3396578909
  0
ARC
  5
364
330
1F
100
AcDbEntity
  8
0
  6
Continuous
 62
     7
370
    15
100
AcDbCircle
 10
2853.1258988797
 20
1578.053377207
 30
0.0
 40
3.939415247989566
100
AcDbArc
 50
110.99651518
 51
175.8325930214
  0
ARC
  5
365
330
1F
100
AcDbEntity
  8
0
  6
Continuous
 62
     7
370
    15
100
AcDbCircle
 10
3152.3034594317
 20
1406.572729854
 30
0.0
 40
5.780939493124032
100
AcDbArc
 50
135.8499876727
 51
178.7735365158
  0
LWPOLYLINE
  5
366
330
1F
100
AcDbEntity
  8
0
  6
Continuous
 62
     7
370
    15
100
AcDbPolyline
 90
       14
 70
   128
 43
0.0
 10
3181.0668745323
 20
1411.4933069592
 10
3179.3771652287
 20
1410.0237596474
 10
3177.3837562714
 20
1408.6870405709
 10
3175.1176572042
 20
1407.5039465301
 10
3172.6140817191
 20
1406.4928838191
 10
3169.9119945775
 20
1405.6695701719
 10
3167.0534056507
 20
1405.0468097024
 10
3164.0827693271
 20
1404.6342921747
 10
3161.0462996261
 20
1404.4384287698
 10
3157.9912115548
 20
1404.4622669277
 10
3154.9650151482
 20
1404.7054356028
 10
3152.0147884359
 20
1405.1641513466
 10
3149.1863977261
 20
1405.8312913006
 10
3146.5238443284
 20
1406.6964661886
  0
ARC
  5
367
330
1F
100
AcDbEntity
  8
0
  6
Continuous
 62
     7
370
    15
100
AcDbCircle
 10
3177.2677410209
 20
1411.1919981288
 30
0.0
 40
3.811063165202889
100
AcDbArc
 50
4.5346297121
 51
71.6301670629
  0
LWPOLYLINE
  5
368
330
1F
100
AcDbEntity
  8
0
  6
Continuous
 62
     7
370
    15
100
AcDbPolyline
 90
       23
 70
   128
 43
0.0
 10
2849.196899533
 20
1574.6652228747
 10
2859.8231631771
 20
1565.3960480661
 10
2870.754475174
 20
1556.2458450692
 10
2881.9868315731
 20
1547.2179715424
 10
2893.5161441301
 20
1538.3157243168
 10
2905.3381770867
 20
1529.5423637274
 10
2917.4486314644
 20
1520.901089282
 10
2929.8430607707
 20
1512.3950639922
 10
2942.5169421218
 20
1504.0273976456
 10
2955.465647267
 20
1495.8011513683
 10
2968.6844241491
 20
1487.7193239385
 10
2982.1684574906
 20
1479.7848776382
 10
2995.912810842
 20
1472.0007108808
 10
3009.9124634599
 20
1464.3696734179
 10
3024.1622839655
 20
1456.8945450502
 10
3038.6570777597
 20
1449.5780690818
 10
3053.3915422421
 20
1442.4229173449
 10
3068.3602905187
 20
1435.4317008449
 10
3083.5578434991
 20
1428.6069864872
 10
3098.9786588728
 20
1421.9512560193
 10
3114.6170889621
 20
1415.4669546923
 10
3130.467422869
 20
1409.1564425995
 10
3146.5238443284
 20
1403.0220311724
  0
LINE
  5
369
330
1F
100
AcDbEntity
  8
0
  6
Continuous
 62
     7
370
    15
100
AcDbLine
 10
2849.196899533
 20
1574.6652228747
 30
0.0
 11
2849.196899533
 21
1578.3396578909
 31
0.0
  0
LINE
  5
36A
330
1F
100
AcDbEntity
  8
0
  6
Continuous
 62
     7
370
    15
100
AcDbLine
 10
3146.5238443284
 20
1403.0220311724
 30
0.0
 11
3146.5238443284
 21
1406.6964661886
 31
0.0
  0
LWPOLYLINE
  5
36B
330
1F
100
AcDbEntity
  8
0
  6
Continuous
 62
     7
370
    15
100
AcDbPolyline
 90
       14
 70
   128
 43
0.0
 10
3146.5238443284
 20
1403.0220311724
 10
3149.1863977261
 20
1402.1568562844
 10
3152.0147884359
 20
1401.4897163304
 10
3154.9650151482
 20
1401.0310005865
 10
3157.9912115548
 20
1400.7878319115
 10
3161.0462996261
 20
1400.7639937536
 10
3164.0827693271
 20
1400.9598571585
 10
3167.0534056507
 20
1401.3723746862
 10
3169.9119945775
 20
1401.9951351557
 10
3172.6140817191
 20
1402.8184488029
 10
3175.1176572042
 20
1403.8295115139
 10
3177.3837562714
 20
1405.0126055546
 10
3179.3771652287
 20
1406.3493246312
 10
3181.0668745323
 20
1407.8188719429
  0
LINE
  5
36C
330
1F
100
AcDbEntity
  8
0
  6
Continuous
 62
     7
370
    15
100
AcDbLine
 10
3181.0668745323
 20
1407.8188719429
 30
0.0
 11
3181.0668745323
 21
1411.4933069592
 31
0.0
  0
LINE
  5
36D
330
1F
100
AcDbEntity
  8
0
  6
Continuous
 62
     7
370
    15
100
AcDbLine
 10
3280.9928093494
 20
1511.4084202422
 30
0.0
 11
3181.0668745323
 21
1411.4933069592
 31
0.0
  0
LINE
  5
36E
330
1F
100
AcDbEntity
  8
0
  6
Continuous
 62
     7
370
    15
100
AcDbLine
 10
3181.0668745323
 20
1407.8188719429
 30
0.0
 11
3280.9928093494
 21
1507.733985226
 31
0.0
  0
LINE
  5
36F
330
1F
100
AcDbEntity
  8
0
  6
Continuous
 62
     7
370
    15
100
AcDbLine
 10
3280.9928093494
 20
1507.733985226
 30
0.0
 11
3280.9928093494
 21
1511.4084202422
 31
0.0
  0
ARC
  5
370
330
1F
100
AcDbEntity
  8
0
  6
Continuous
 62
     7
370
    15
100
AcDbCircle
 10
3278.7711276823
 20
1513.8429233631
 30
0.0
 40
3.295857229187252
100
AcDbArc
 50
312.3829882781
 51
357.8203937998
  0
ARC
  5
371
330
1F
100
AcDbEntity
  8
0
  6
Continuous
 62
     7
370
    15
100
AcDbCircle
 10
3278.7711276823
 20
1510.1684883469
 30
0.0
 40
3.295857229185831
100
AcDbArc
 50
312.3829882781
 51
357.8203937999
  0
LINE
  5
372
330
1F
100
AcDbEntity
  8
0
  6
Continuous
 62
     7
370
    15
100
AcDbLine
 10
3282.0646004143
 20
1510.0431398761
 30
0.0
 11
3282.0646004143
 21
1513.7175748923
 31
0.0
  0
LINE
  5
373
330
1F
100
AcDbEntity
  8
0
  6
Continuous
 62
     7
370
    15
100
AcDbLine
 10
3282.0646083168
 20
1517.8002730537
 30
0.0
 11
3282.0646004143
 21
1513.7175748923
 31
0.0
  0
LWPOLYLINE
  5
374
330
1F
100
AcDbEntity
  8
0
  6
Continuous
 62
     8
370
    15
100
AcDbPolyline
 90
       17
 70
   128
 43
0.0
 10
3284.4896879308
 20
2072.5075377785
 10
3284.4896879308
 20
2072.5173380345
 10
3284.4896800282
 20
2072.7747627639
 10
3284.4896813453
 20
2073.3709690174
 10
3284.4896879308
 20
2074.2799367634
 10
3284.4896800282
 20
2075.4619497815
 10
3284.4896839795
 20
2076.8653106233
 10
3284.4896892478
 20
2078.4286897277
 10
3284.4896879308
 20
2080.0838007218
 10
3284.4896800282
 20
2081.758262729
 10
3284.4896852966
 20
2083.3789044512
 10
3284.4896800282
 20
2084.874915335
 10
3284.4896826624
 20
2086.1809001276
 10
3284.4896800282
 20
2087.2397805333
 10
3284.4896879308
 20
2088.0052633894
 10
3284.4896879308
 20
2088.4439209904
 10
3284.4896800282
 20
2088.5463720489
  0
LWPOLYLINE
  5
375
330
1F
100
AcDbEntity
  8
0
  6
Continuous
 62
     8
370
    15
100
AcDbPolyline
 90
       17
 70
   128
 43
0.0
 10
3284.4896879308
 20
1640.5733508454
 10
3284.4896879308
 20
1640.5831511015
 10
3284.4896852966
 20
1640.8405697481
 10
3284.4896826624
 20
1641.436776762
 10
3284.4896879308
 20
1642.3457498303
 10
3284.4896852966
 20
1643.5277567657
 10
3284.4896800282
 20
1644.9311183678
 10
3284.4896852966
 20
1646.494503555
 10
3284.4896879308
 20
1648.1496137887
 10
3284.4896852966
 20
1649.8240697132
 10
3284.4896800282
 20
1651.4447114354
 10
3284.4896826624
 20
1652.9407238399
 10
3284.4896826624
 20
1654.2467071118
 10
3284.4896852966
 20
1655.3055875175
 10
3284.4896879308
 20
1656.0710764564
 10
3284.4896852966
 20
1656.509735578
 10
3284.4896852966
 20
1656.6121790331
  0
LWPOLYLINE
  5
376
330
1F
100
AcDbEntity
  8
0
  6
Continuous
 62
     8
370
    15
100
AcDbPolyline
 90
       17
 70
   128
 43
0.0
 10
3284.4896879308
 20
2171.3248834381
 10
3284.4896879308
 20
2171.3346836942
 10
3284.4896852966
 20
2171.5921023408
 10
3284.4896826624
 20
2172.1883093547
 10
3284.4896879308
 20
2173.097282423
 10
3284.4896852966
 20
2174.2792893584
 10
3284.4896800282
 20
2175.6826509605
 10
3284.4896852966
 20
2177.2460361477
 10
3284.4896879308
 20
2178.9011463814
 10
3284.4896852966
 20
2180.5756023059
 10
3284.4896800282
 20
2182.1962440281
 10
3284.4896826624
 20
2183.6922564326
 10
3284.4896826624
 20
2184.9982397045
 10
3284.4896852966
 20
2186.0571201102
 10
3284.4896879308
 20
2186.8226090491
 10
3284.4896852966
 20
2187.2612681707
 10
3284.4896852966
 20
2187.3637116258
  0
LWPOLYLINE
  5
377
330
1F
100
AcDbEntity
  8
0
  6
Continuous
 62
     8
370
    15
100
AcDbPolyline
 90
       17
 70
   128
 43
0.0
 10
3284.4896879308
 20
1541.7560051858
 10
3284.4896879308
 20
1541.7658054418
 10
3284.4896800282
 20
1542.0232301712
 10
3284.4896813453
 20
1542.6194364247
 10
3284.4896879308
 20
1543.5284041707
 10
3284.4896800282
 20
1544.7104171888
 10
3284.4896839795
 20
1546.1137780306
 10
3284.4896892478
 20
1547.677157135
 10
3284.4896879308
 20
1549.3322681291
 10
3284.4896800282
 20
1551.0067301363
 10
3284.4896852966
 20
1552.6273718585
 10
3284.4896800282
 20
1554.1233827423
 10
3284.4896826624
 20
1555.4293675349
 10
3284.4896800282
 20
1556.4882479406
 10
3284.4896879308
 20
1557.2537307967
 10
3284.4896879308
 20
1557.6923883977
 10
3284.4896800282
 20
1557.7948394562
  0
LINE
  5
378
330
1F
100
AcDbEntity
  8
0
  6
Continuous
 62
     8
370
    15
100
AcDbLine
 10
2855.0709795669
 20
2148.2730266658
 30
0.0
 11
2855.0709795669
 21
1582.9871585792
 31
0.0
  0
LINE
  5
379
330
1F
100
AcDbEntity
  8
0
  6
Continuous
 62
     8
370
    15
100
AcDbLine
 10
3150.3311061316
 20
1980.4033255765
 30
0.0
 11
3150.3311061316
 21
1412.5371156446
 31
0.0
  0
LINE
  5
37A
330
1F
100
AcDbEntity
  8
0
  6
Continuous
 62
     8
370
    15
100
AcDbLine
 10
3175.0046931135
 20
1982.4124591497
 30
0.0
 11
3175.0046931135
 21
1415.9634356944
 31
0.0
  0
LINE
  5
37B
330
1F
100
AcDbEntity
  8
0
  6
Continuous
 62
     8
370
    15
100
AcDbLine
 10
3175.9745131711
 20
1982.9052883298
 30
0.0
 11
3175.9745131711
 21
1416.9331541954
 31
0.0
  0
ARC
  5
37C
330
1F
100
AcDbEntity
  8
0
  6
Continuous
 62
     8
370
    15
100
AcDbCircle
 10
3280.5254697145
 20
2086.0587078457
 30
0.0
 40
1.54007615188768
100
AcDbArc
 50
2.0077448419
 51
52.992326753
  0
LINE
  5
37D
330
1F
100
AcDbEntity
  8
0
  6
Continuous
 62
     8
370
    15
100
AcDbLine
 10
3177.7570614453
 20
1421.9831823555
 30
0.0
 11
3177.7570614453
 21
1983.9575204849
 31
0.0
  0
ARC
  5
37E
330
1F
100
AcDbEntity
  8
0
  6
Continuous
 62
     8
370
    15
100
AcDbCircle
 10
3181.754518205
 20
1987.7022767637
 30
0.0
 40
3.076960695911227
100
AcDbArc
 50
2.676407079
 51
39.9966953477
  0
ELLIPSE
  5
37F
330
1F
100
AcDbEntity
  8
0
  6
Continuous
 62
     8
370
    15
100
AcDbEllipse
 10
3181.2925910389
 20
1987.4373583183
 30
0.0
 11
4.986160681451111
 21
1.813173165272929
 31
0.0
210
0.0
220
0.0
230
1.0
 40
0.2050299685
 41
4.46805716747639
 42
5.423367502584201
  0
ARC
  5
380
330
1F
100
AcDbEntity
  8
0
  6
Continuous
 62
     8
370
    15
100
AcDbCircle
 10
3183.207198348
 20
1988.2920313324
 30
0.0
 40
2.420278912183925
100
AcDbArc
 50
3.5940925286
 51
53.1182283675
  0
ARC
  5
381
330
1F
100
AcDbEntity
  8
0
  6
Continuous
 62
     8
370
    15
100
AcDbCircle
 10
3278.5772673051
 20
2083.651775958
 30
0.0
 40
2.420302940183016
100
AcDbArc
 50
3.5943331369
 51
53.1179447995
  0
ARC
  5
382
330
1F
100
AcDbEntity
  8
0
  6
Continuous
 62
     8
370
    15
100
AcDbCircle
 10
3207.4183702674
 20
1743.1641064439
 30
0.0
 40
7.994313039543664
100
AcDbArc
 50
345.2904340374
 51
56.8575117854
  0
ARC
  5
383
330
1F
100
AcDbEntity
  8
0
  6
Continuous
 62
     8
370
    15
100
AcDbCircle
 10
3215.3681272494
 20
1773.2298561322
 30
0.0
 40
5.00877564932271
100
AcDbArc
 50
310.7796132838
 51
358.1435925244
  0
ARC
  5
384
330
1F
100
AcDbEntity
  8
0
  6
Continuous
 62
     8
370
    15
100
AcDbCircle
 10
3254.7864448603
 20
1810.6429590563
 30
0.0
 40
3.612389750997635
100
AcDbArc
 50
321.5958363484
 51
6.6850227855
  0
LWPOLYLINE
  5
385
330
1F
100
AcDbEntity
  8
0
  6
Continuous
 62
     8
370
    15
100
AcDbPolyline
 90
       17
 70
   128
 43
0.0
 10
3211.6140884695
 20
1750.620947507
 10
3213.0689291914
 20
1750.9037249313
 10
3215.7507700407
 20
1751.6854768617
 10
3218.5005147312
 20
1752.8144588043
 10
3221.307241961
 20
1754.2862021482
 10
3224.1598249619
 20
1756.0948774713
 10
3227.0469736469
 20
1758.2333105039
 10
3229.9572398784
 20
1760.6930288871
 10
3232.8790754197
 20
1763.4642842204
 10
3235.8009267662
 20
1766.5360874167
 10
3238.7111903635
 20
1769.8962661073
 10
3241.5983390485
 20
1773.5315030394
 10
3244.4509246836
 20
1777.427393483
 10
3247.2576545475
 20
1781.5684885721
 10
3250.0073966039
 20
1785.9383762834
 10
3252.6892374531
 20
1790.5197475894
 10
3255.2925666261
 20
1795.2944329586
  0
LWPOLYLINE
  5
386
330
1F
100
AcDbEntity
  8
0
  6
Continuous
 62
     8
370
    15
100
AcDbPolyline
 90
        9
 70
   128
 43
0.0
 10
3255.2925666261
 20
1795.2944329586
 10
3256.1014436744
 20
1797.0108692876
 10
3256.7861640095
 20
1798.8437184409
 10
3257.3203568751
 20
1800.7223643199
 10
3257.6834388041
 20
1802.5744248489
 10
3257.8614236283
 20
1804.3285488289
 10
3257.8474611677
 20
1805.9171466728
 10
3257.642066404
 20
1807.2790291653
 10
3257.3658820569
 20
1808.1220737846
  0
ARC
  5
387
330
1F
100
AcDbEntity
  8
0
  6
Continuous
 62
     8
370
    15
100
AcDbCircle
 10
3183.8519630476
 20
1419.4247784896
 30
0.0
 40
0.9822027642260398
100
AcDbArc
 50
304.141914976
 51
6.3591195782
  0
ELLIPSE
  5
388
330
1F
100
AcDbEntity
  8
0
  6
Continuous
 62
     8
370
    15
100
AcDbEllipse
 10
3181.2925910389
 20
1424.0241981171
 30
0.0
 11
-1.3870352062454
 21
5.604458293426205
 31
0.0
210
0.0
220
0.0
230
1.0
 40
0.6928055263
 41
1.768118560185204
 42
2.552006482232243
  0
ARC
  5
389
330
1F
100
AcDbEntity
  8
0
  6
Continuous
 62
     8
370
    15
100
AcDbCircle
 10
3184.4833282399
 20
1420.085264583
 30
0.0
 40
1.140321018823034
100
AcDbArc
 50
316.0507714956
 51
2.3169174001
  0
ARC
  5
38A
330
1F
100
AcDbEntity
  8
0
  6
Continuous
 62
     8
370
    15
100
AcDbCircle
 10
3279.8532214285
 20
1515.4450769837
 30
0.0
 40
1.140517701045966
100
AcDbArc
 50
316.0907003006
 51
2.3136957934
  0
ARC
  5
38B
330
1F
100
AcDbEntity
  8
0
  6
Continuous
 62
     8
370
    15
100
AcDbCircle
 10
2850.3087361409
 20
2153.9453257451
 30
0.0
 40
1.113225489592207
100
AcDbArc
 50
177.1376427136
 51
226.7148052027
  0
ARC
  5
38C
330
1F
100
AcDbEntity
  8
0
  6
Continuous
 62
     8
370
    15
100
AcDbCircle
 10
3147.4066841945
 20
1982.2004405207
 30
0.0
 40
0.8967411097130947
100
AcDbArc
 50
169.8983212339
 51
236.3928061076
  0
ARC
  5
38D
330
1F
100
AcDbEntity
  8
0
  6
Continuous
 62
     8
370
    15
100
AcDbCircle
 10
3179.92746213
 20
1987.1084823071
 30
0.0
 40
1.140343940466612
100
AcDbArc
 50
316.0634913643
 51
2.3160589242
  0
ARC
  5
38E
330
1F
100
AcDbEntity
  8
0
  6
Continuous
 62
     8
370
    15
100
AcDbCircle
 10
3279.8536097043
 20
2087.0235110869
 30
0.0
 40
1.140134775815784
100
AcDbArc
 50
316.0825560878
 51
2.3207341178
  0
ARC
  5
38F
330
1F
100
AcDbEntity
  8
0
  6
Continuous
 62
     8
370
    15
100
AcDbCircle
 10
2859.3525364225
 20
2179.2099056486
 30
0.0
 40
2.51263711396664
100
AcDbArc
 50
35.1825042241
 51
99.4535939557
  0
ARC
  5
390
330
1F
100
AcDbEntity
  8
0
  6
Continuous
 62
     8
370
    15
100
AcDbCircle
 10
3169.1890061458
 20
2282.4775238314
 30
0.0
 40
2.512653411588368
100
AcDbArc
 50
35.1827376702
 51
99.4533605096
  0
ARC
  5
391
330
1F
100
AcDbEntity
  8
0
  6
Continuous
 62
     8
370
    15
100
AcDbCircle
 10
2855.5750173887
 20
2166.3718777445
 30
0.0
 40
10.32933686299385
100
AcDbArc
 50
182.5926080323
 51
231.867946273
  0
ARC
  5
392
330
1F
100
AcDbEntity
  8
0
  6
Continuous
 62
     8
370
    15
100
AcDbCircle
 10
2855.7381617949
 20
2162.2075153162
 30
0.0
 40
10.49458783197574
100
AcDbArc
 50
182.8073819801
 51
231.4425796059
  0
ARC
  5
393
330
1F
100
AcDbEntity
  8
0
  6
Continuous
 62
     8
370
    15
100
AcDbCircle
 10
3276.4704734938
 20
2221.6209531168
 30
0.0
 40
3.747403932527665
100
AcDbArc
 50
64.0897303475
 51
127.1763859562
  0
ARC
  5
394
330
1F
100
AcDbEntity
  8
0
  6
Continuous
 62
     8
370
    15
100
AcDbCircle
 10
3173.7688264879
 20
2280.717685161
 30
0.0
 40
3.92318421566584
100
AcDbArc
 50
65.6923369192
 51
125.6175827567
  0
LINE
  5
395
330
1F
100
AcDbEntity
  8
0
  6
Continuous
 62
     8
370
    15
100
AcDbLine
 10
3178.4687952761
 20
1414.808857419
 30
0.0
 11
3181.9046379769
 21
1418.2443319541
 31
0.0
  0
LWPOLYLINE
  5
396
330
1F
100
AcDbEntity
  8
0
  6
Continuous
 62
     8
370
    15
100
AcDbPolyline
 90
       10
 70
   128
 43
0.0
 10
2852.2561812157
 20
1595.6921850511
 10
2850.9549394148
 20
1594.5023817764
 10
2849.7208902271
 20
1592.9846167873
 10
2848.8524438768
 20
1591.3846743262
 10
2848.3654686524
 20
1589.7317635878
 10
2848.2688259288
 20
1588.0560487529
 10
2848.564306947
 20
1586.3881015444
 10
2849.2464747635
 20
1584.7583598653
 10
2850.3029276683
 20
1583.1965742718
 10
2851.7143624047
 20
1581.7312240331
  0
ARC
  5
397
330
1F
100
AcDbEntity
  8
0
  6
Continuous
 62
     8
370
    15
100
AcDbCircle
 10
3149.8346278647
 20
1402.4322228257
 30
0.0
 40
3.362909679190733
100
AcDbArc
 50
169.8988597893
 51
236.3911646973
  0
ARC
  5
398
330
1F
100
AcDbEntity
  8
0
  6
Continuous
 62
     8
370
    15
100
AcDbCircle
 10
2853.3660349574
 20
1574.4566443073
 30
0.0
 40
4.174349674655747
100
AcDbArc
 50
177.1359251252
 51
226.7069374777
  0
ARC
  5
399
330
1F
100
AcDbEntity
  8
0
  6
Continuous
 62
     8
370
    15
100
AcDbCircle
 10
3176.7940587157
 20
1407.6460916648
 30
0.0
 40
4.276307756348634
100
AcDbArc
 50
316.0382378998
 51
2.3156135519
  0
ARC
  5
39A
330
1F
100
AcDbEntity
  8
0
  6
Continuous
 62
     8
370
    15
100
AcDbCircle
 10
3277.4633301297
 20
1511.2112274177
 30
0.0
 40
3.534983532097096
100
AcDbArc
 50
3.1978039895
 51
47.6531512406
  0
ARC
  5
39B
330
1F
100
AcDbEntity
  8
0
  6
Continuous
 62
     8
370
    15
100
AcDbCircle
 10
3276.71952513
 20
1507.5612916941
 30
0.0
 40
4.276772273060837
100
AcDbArc
 50
316.0897795298
 51
2.3141988218
  0
ARC
  5
39C
330
1F
100
AcDbEntity
  8
0
  6
Continuous
 62
     8
370
    15
100
AcDbCircle
 10
3279.8313787296
 20
1513.6690799139
 30
0.0
 40
2.233748163008151
100
AcDbArc
 50
1.2439969512
 51
49.6445416653
  0
ARC
  5
39D
330
1F
100
AcDbEntity
  8
0
  6
Continuous
 62
     8
370
    15
100
AcDbCircle
 10
2855.5721243983
 20
1586.4623600011
 30
0.0
 40
10.32578237487352
100
AcDbArc
 50
182.5052690505
 51
231.8728712442
  0
ARC
  5
39E
330
1F
100
AcDbEntity
  8
0
  6
Continuous
 62
     8
370
    15
100
AcDbCircle
 10
2855.7381617949
 20
1582.871821548
 30
0.0
 40
10.4945878319748
100
AcDbArc
 50
182.8073819801
 51
231.4425796059
  0
ENDSEC
  0
SECTION
  2
OBJECTS
  0
DICTIONARY
  5
C
330
0
100
AcDbDictionary
281
     1
  3
ACAD_GROUP
350
D
  3
ACAD_LAYOUT
350
1A
  3
ACAD_MATERIAL
350
3B
  3
ACAD_MLEADERSTYLE
350
3A0
  3
ACAD_MLINESTYLE
350
17
  3
ACAD_PLOTSETTINGS
350
19
  3
ACAD_PLOTSTYLENAME
350
E
  3
ACAD_TABLESTYLE
350
39F
  0
DICTIONARY
  5
D
102
{ACAD_REACTORS
330
C
102
}
330
C
100
AcDbDictionary
281
     1
  0
DICTIONARY
  5
1A
102
{ACAD_REACTORS
330
C
102
}
330
C
100
AcDbDictionary
281
     1
  3
Layout1
350
1E
  3
Layout2
350
26
  3
Model
350
22
  0
DICTIONARY
  5
3B
102
{ACAD_REACTORS
330
C
102
}
330
C
100
AcDbDictionary
281
     1
  3
ByBlock
350
3D
  3
ByLayer
350
3C
  3
Global
350
3E
  0
DICTIONARY
  5
3A0
102
{ACAD_REACTORS
330
C
102
}
330
C
100
AcDbDictionary
281
     1
  0
DICTIONARY
  5
17
102
{ACAD_REACTORS
330
C
102
}
330
C
100
AcDbDictionary
281
     1
  3
Standard
350
18
  0
DICTIONARY
  5
19
102
{ACAD_REACTORS
330
C
102
}
330
C
100
AcDbDictionary
281
     1
  0
ACDBDICTIONARYWDFLT
  5
E
102
{ACAD_REACTORS
330
C
102
}
330
C
100
AcDbDictionary
281
     1
  3
Normal
350
F
100
AcDbDictionaryWithDefault
340
F
  0
DICTIONARY
  5
39F
102
{ACAD_REACTORS
330
C
102
}
330
C
100
AcDbDictionary
281
     1
  0
LAYOUT
  5
1E
102
{ACAD_REACTORS
330
1A
102
}
330
1A
100
AcDbPlotSettings
  1

  2
none_device
  4

  6

 40
0.0
 41
0.0
 42
0.0
 43
0.0
 44
0.0
 45
0.0
 46
0.0
 47
0.0
 48
0.0
 49
0.0
140
0.0
141
0.0
142
1.0
143
1.0
 70
   688
 72
     0
 73
     0
 74
     5
  7

 75
    16
 76
     0
 77
     2
 78
   300
147
1.0
148
0.0
149
0.0
100
AcDbLayout
  1
Layout1
 70
     1
 71
     1
 10
0.0
 20
0.0
 11
420.0
 21
297.0
 12
0.0
 22
0.0
 32
0.0
 14
1.0000000000E+20
 24
1.0000000000E+20
 34
1.0000000000E+20
 15
-1.0000000000E+20
 25
-1.0000000000E+20
 35
-1.0000000000E+20
146
0.0
 13
0.0
 23
0.0
 33
0.0
 16
1.0
 26
0.0
 36
0.0
 17
0.0
 27
1.0
 37
0.0
 76
     0
330
1B
  0
LAYOUT
  5
26
102
{ACAD_REACTORS
330
1A
102
}
330
1A
100
AcDbPlotSettings
  1

  2
none_device
  4

  6

 40
0.0
 41
0.0
 42
0.0
 43
0.0
 44
0.0
 45
0.0
 46
0.0
 47
0.0
 48
0.0
 49
0.0
140
0.0
141
0.0
142
1.0
143
1.0
 70
   688
 72
     0
 73
     0
 74
     5
  7

 75
    16
 76
     0
 77
     2
 78
   300
147
1.0
148
0.0
149
0.0
100
AcDbLayout
  1
Layout2
 70
     1
 71
     2
 10
0.0
 20
0.0
 11
0.0
 21
0.0
 12
0.0
 22
0.0
 32
0.0
 14
0.0
 24
0.0
 34
0.0
 15
0.0
 25
0.0
 35
0.0
146
0.0
 13
0.0
 23
0.0
 33
0.0
 16
1.0
 26
0.0
 36
0.0
 17
0.0
 27
1.0
 37
0.0
 76
     0
330
23
  0
LAYOUT
  5
22
102
{ACAD_REACTORS
330
1A
102
}
330
1A
100
AcDbPlotSettings
  1

  2
none_device
  4

  6

 40
0.0
 41
0.0
 42
0.0
 43
0.0
 44
0.0
 45
0.0
 46
0.0
 47
0.0
 48
0.0
 49
0.0
140
0.0
141
0.0
142
1.0
143
1.0
 70
  1712
 72
     0
 73
     0
 74
     0
  7

 75
     0
 76
     0
 77
     2
 78
   300
147
1.0
148
0.0
149
0.0
100
AcDbLayout
  1
Model
 70
     1
 71
     0
 10
0.0
 20
0.0
 11
3564.0
 21
2520.0
 12
0.0
 22
0.0
 32
0.0
 14
0.0
 24
0.0
 34
0.0
 15
3564.0
 25
2520.0
 35
0.0
146
0.0
 13
0.0
 23
0.0
 33
0.0
 16
1.0
 26
0.0
 36
0.0
 17
0.0
 27
1.0
 37
0.0
 76
     0
330
1F
331
29
  0
MATERIAL
  5
3D
102
{ACAD_REACTORS
330
3B
102
}
330
3B
100
AcDbMaterial
  1
ByBlock
  0
MATERIAL
  5
3C
102
{ACAD_REACTORS
330
3B
102
}
330
3B
100
AcDbMaterial
  1
ByLayer
  0
MATERIAL
  5
3E
102
{ACAD_REACTORS
330
3B
102
}
330
3B
100
AcDbMaterial
  1
Global
  0
MLINESTYLE
  5
18
102
{ACAD_REACTORS
330
17
102
}
330
17
100
AcDbMlineStyle
  2
Standard
 70
     0
  3

 62
   256
 51
90.0
 52
90.0
 71
     2
 49
0.5
 62
   256
  6
BYLAYER
 49
-0.5
 62
   256
  6
BYLAYER
  0
ACDBPLACEHOLDER
  5
F
102
{ACAD_REACTORS
330
E
102
}
330
E
  0
ENDSEC
  0
EOF
