  0
SECTION
  2
HEADER
  9
$ACADVER
  1
AC1018
  9
$ACADMAINTVER
 70
     0
  9
$DWGCODEPAGE
  3
ANSI_1252
  9
$INSBASE
 10
0.0
 20
0.0
 30
0.0
  9
$EXTMIN
 10
0.0
 20
0.0
 30
0.0
  9
$EXTMAX
 10
2970.0
 20
2100.0
 30
0.0
  9
$LIMMIN
 10
0.0
 20
0.0
  9
$LIMMAX
 10
2970.0
 20
2100.0
  9
$ORTHOMODE
 70
     0
  9
$REGENMODE
 70
     1
  9
$FILLMODE
 70
     1
  9
$QTEXTMODE
 70
     0
  9
$MIRRTEXT
 70
     1
  9
$LTSCALE
 40
10.0
  9
$ATTMODE
 70
     1
  9
$TEXTSIZE
 40
35.0
  9
$TRACEWID
 40
1.0
  9
$TEXTSTYLE
  7
Standard
  9
$CLAYER
  8
0
  9
$CELTYPE
  6
ByLayer
  9
$CECOLOR
 62
   256
  9
$CELTSCALE
 40
1.0
  9
$DISPSILH
 70
     0
  9
$DIMSCALE
 40
1.0
  9
$DIMASZ
 40
33.02
  9
$DIMEXO
 40
10.0
  9
$DIMDLI
 40
3.75
  9
$DIMRND
 40
0.0
  9
$DIMDLE
 40
0.0
  9
$DIMEXE
 40
10.0
  9
$DIMTP
 40
0.0
  9
$DIMTM
 40
0.0
  9
$DIMTXT
 40
35.0
  9
$DIMCEN
 40
2.5
  9
$DIMTSZ
 40
0.0
  9
$DIMTOL
 70
     0
  9
$DIMLIM
 70
     0
  9
$DIMTIH
 70
     1
  9
$DIMTOH
 70
     1
  9
$DIMSE1
 70
     0
  9
$DIMSE2
 70
     0
  9
$DIMTAD
 70
     1
  9
$DIMZIN
 70
     0
  9
$DIMBLK
  1

  9
$DIMASO
 70
     1
  9
$DIMSHO
 70
     1
  9
$DIMPOST
  1

  9
$DIMAPOST
  1

  9
$DIMALT
 70
     0
  9
$DIMALTD
 70
     3
  9
$DIMALTF
 40
0.0393700787
  9
$DIMLFAC
 40
1.0
  9
$DIMTOFL
 70
     1
  9
$DIMTVP
 40
0.0
  9
$DIMTIX
 70
     0
  9
$DIMSOXD
 70
     0
  9
$DIMSAH
 70
     0
  9
$DIMBLK1
  1

  9
$DIMBLK2
  1

  9
$DIMSTYLE
  2
ISO-25
  9
$DIMCLRD
 70
     0
  9
$DIMCLRE
 70
     0
  9
$DIMCLRT
 70
     0
  9
$DIMTFAC
 40
1.0
  9
$DIMGAP
 40
15.24
  9
$DIMJUST
 70
     0
  9
$DIMSD1
 70
     0
  9
$DIMSD2
 70
     0
  9
$DIMTOLJ
 70
     0
  9
$DIMTZIN
 70
     0
  9
$DIMALTZ
 70
     0
  9
$DIMALTTZ
 70
     0
  9
$DIMUPT
 70
     0
  9
$DIMDEC
 70
     2
  9
$DIMTDEC
 70
     2
  9
$DIMALTU
 70
     2
  9
$DIMALTTD
 70
     3
  9
$DIMTXSTY
  7
Standard
  9
$DIMAUNIT
 70
     0
  9
$DIMADEC
 70
     2
  9
$DIMALTRND
 40
0.0
  9
$DIMAZIN
 70
     0
  9
$DIMDSEP
 70
    44
  9
$DIMATFIT
 70
     3
  9
$DIMFRAC
 70
     0
  9
$DIMLDRBLK
  1

  9
$DIMLUNIT
 70
     2
  9
$DIMLWD
 70
    -2
  9
$DIMLWE
 70
    -2
  9
$DIMTMOVE
 70
     0
  9
$LUNITS
 70
     2
  9
$LUPREC
 70
     2
  9
$SKETCHINC
 40
1.0
  9
$FILLETRAD
 40
10.0
  9
$AUNITS
 70
     0
  9
$AUPREC
 70
     2
  9
$MENU
  1
.
  9
$ELEVATION
 40
0.0
  9
$PELEVATION
 40
0.0
  9
$THICKNESS
 40
0.0
  9
$LIMCHECK
 70
     0
  9
$CHAMFERA
 40
10.0
  9
$CHAMFERB
 40
10.0
  9
$CHAMFERC
 40
20.0
  9
$CHAMFERD
 40
0.0
  9
$SKPOLY
 70
     0
  9
$TDCREATE
 40
2456968.66787272
  9
$TDUCREATE
 40
2456968.66787272
  9
$TDUPDATE
 40
2456968.667873762
  9
$TDUUPDATE
 40
2456968.667873762
  9
$TDINDWG
 40
0.0000000116
  9
$TDUSRTIMER
 40
0.0000000116
  9
$USRTIMER
 70
     1
  9
$ANGBASE
 50
0.0
  9
$ANGDIR
 70
     0
  9
$PDMODE
 70
     0
  9
$PDSIZE
 40
-1.0
  9
$PLINEWID
 40
0.0
  9
$SPLFRAME
 70
     0
  9
$SPLINETYPE
 70
     6
  9
$SPLINESEGS
 70
     8
  9
$HANDSEED
  5
41B
  9
$SURFTAB1
 70
     6
  9
$SURFTAB2
 70
     6
  9
$SURFTYPE
 70
     6
  9
$SURFU
 70
     6
  9
$SURFV
 70
     6
  9
$UCSBASE
  2

  9
$UCSNAME
  2

  9
$UCSORG
 10
0.0
 20
0.0
 30
0.0
  9
$UCSXDIR
 10
1.0
 20
0.0
 30
0.0
  9
$UCSYDIR
 10
0.0
 20
1.0
 30
0.0
  9
$UCSORTHOREF
  2

  9
$UCSORTHOVIEW
 70
     0
  9
$UCSORGTOP
 10
0.0
 20
0.0
 30
0.0
  9
$UCSORGBOTTOM
 10
0.0
 20
0.0
 30
0.0
  9
$UCSORGLEFT
 10
0.0
 20
0.0
 30
0.0
  9
$UCSORGRIGHT
 10
0.0
 20
0.0
 30
0.0
  9
$UCSORGFRONT
 10
0.0
 20
0.0
 30
0.0
  9
$UCSORGBACK
 10
0.0
 20
0.0
 30
0.0
  9
$PUCSBASE
  2

  9
$PUCSNAME
  2

  9
$PUCSORG
 10
0.0
 20
0.0
 30
0.0
  9
$PUCSXDIR
 10
1.0
 20
0.0
 30
0.0
  9
$PUCSYDIR
 10
0.0
 20
1.0
 30
0.0
  9
$PUCSORTHOREF
  2

  9
$PUCSORTHOVIEW
 70
     0
  9
$PUCSORGTOP
 10
0.0
 20
0.0
 30
0.0
  9
$PUCSORGBOTTOM
 10
0.0
 20
0.0
 30
0.0
  9
$PUCSORGLEFT
 10
0.0
 20
0.0
 30
0.0
  9
$PUCSORGRIGHT
 10
0.0
 20
0.0
 30
0.0
  9
$PUCSORGFRONT
 10
0.0
 20
0.0
 30
0.0
  9
$PUCSORGBACK
 10
0.0
 20
0.0
 30
0.0
  9
$USERI1
 70
     0
  9
$USERI2
 70
     0
  9
$USERI3
 70
     0
  9
$USERI4
 70
     0
  9
$USERI5
 70
     0
  9
$USERR1
 40
0.0
  9
$USERR2
 40
0.0
  9
$USERR3
 40
0.0
  9
$USERR4
 40
0.0
  9
$USERR5
 40
0.0
  9
$WORLDVIEW
 70
     1
  9
$SHADEDGE
 70
     3
  9
$SHADEDIF
 70
    70
  9
$TILEMODE
 70
     1
  9
$MAXACTVP
 70
    64
  9
$PINSBASE
 10
0.0
 20
0.0
 30
0.0
  9
$PLIMCHECK
 70
     0
  9
$PEXTMIN
 10
1.0000000000E+20
 20
1.0000000000E+20
 30
1.0000000000E+20
  9
$PEXTMAX
 10
-1.0000000000E+20
 20
-1.0000000000E+20
 30
-1.0000000000E+20
  9
$PLIMMIN
 10
0.0
 20
0.0
  9
$PLIMMAX
 10
420.0
 20
297.0
  9
$UNITMODE
 70
     0
  9
$VISRETAIN
 70
     1
  9
$PLINEGEN
 70
     0
  9
$PSLTSCALE
 70
     1
  9
$TREEDEPTH
 70
  3020
  9
$CMLSTYLE
  2
Standard
  9
$CMLJUST
 70
     0
  9
$CMLSCALE
 40
20.0
  9
$PROXYGRAPHICS
 70
     1
  9
$MEASUREMENT
 70
     1
  9
$CELWEIGHT
370
    -1
  9
$ENDCAPS
280
     0
  9
$JOINSTYLE
280
     0
  9
$LWDISPLAY
290
     1
  9
$INSUNITS
 70
     4
  9
$HYPERLINKBASE
  1

  9
$STYLESHEET
  1

  9
$XEDIT
290
     1
  9
$CEPSNTYPE
380
     0
  9
$PSTYLEMODE
290
     1
  9
$FINGERPRINTGUID
  2
{1AC2B227-38AA-4891-8A72-02C15826D2F4}
  9
$VERSIONGUID
  2
{FAEB1C32-E019-11D5-929B-00C0DF256EC4}
  9
$EXTNAMES
290
     1
  9
$PSVPSCALE
 40
0.0
  9
$OLESTARTUP
290
     0
  9
$SORTENTS
280
   127
  9
$INDEXCTL
280
     0
  9
$HIDETEXT
280
     1
  9
$XCLIPFRAME
290
     0
  9
$HALOGAP
280
     0
  9
$OBSCOLOR
 70
   257
  9
$OBSLTYPE
280
     0
  9
$INTERSECTIONDISPLAY
280
     0
  9
$INTERSECTIONCOLOR
 70
   257
  9
$DIMASSOC
280
     2
  9
$PROJECTNAME
  1

  0
ENDSEC
  0
SECTION
  2
CLASSES
  0
CLASS
  1
ACDBDICTIONARYWDFLT
  2
AcDbDictionaryWithDefault
  3
ObjectDBX Classes
 90
        0
 91
        4
280
     0
281
     0
  0
CLASS
  1
VISUALSTYLE
  2
AcDbVisualStyle
  3
ObjectDBX Classes
 90
     4095
 91
        4
280
     0
281
     0
  0
CLASS
  1
MATERIAL
  2
AcDbMaterial
  3
ObjectDBX Classes
 90
     1153
 91
        4
280
     0
281
     0
  0
ENDSEC
  0
SECTION
  2
TABLES
  0
TABLE
  2
VPORT
  5
8
330
0
100
AcDbSymbolTable
 70
     1
  0
VPORT
  5
29
330
8
100
AcDbSymbolTableRecord
100
AcDbViewportTableRecord
  2
*Active
 70
     0
 10
0.0
 20
0.0
 11
1.0
 21
1.0
 12
1485.0
 22
1050.0
 13
0.0
 23
0.0
 14
10.0
 24
10.0
 15
10.0
 25
10.0
 16
0.0
 26
0.0
 36
1.0
 17
0.0
 27
0.0
 37
0.0
 40
2100.0
 41
1.4142857143
 42
50.0
 43
0.0
 44
0.0
 50
0.0
 51
0.0
 71
     0
 72
  2000
 73
     1
 74
     3
 75
     0
 76
     0
 77
     0
 78
     0
281
     0
 65
     1
110
0.0
120
0.0
130
0.0
111
1.0
121
0.0
131
0.0
112
0.0
122
1.0
132
0.0
 79
     0
146
0.0
  0
ENDTAB
  0
TABLE
  2
LTYPE
  5
5
330
0
100
AcDbSymbolTable
 70
     6
  0
LTYPE
  5
14
330
5
100
AcDbSymbolTableRecord
100
AcDbLinetypeTableRecord
  2
ByBlock
 70
     0
  3

 72
    65
 73
     0
 40
0.0
  0
LTYPE
  5
15
330
5
100
AcDbSymbolTableRecord
100
AcDbLinetypeTableRecord
  2
ByLayer
 70
     0
  3

 72
    65
 73
     0
 40
0.0
  0
LTYPE
  5
16
330
5
100
AcDbSymbolTableRecord
100
AcDbLinetypeTableRecord
  2
Continuous
 70
     0
  3
Solid line
 72
    65
 73
     0
 40
0.0
  0
LTYPE
  5
3F
330
5
100
AcDbSymbolTableRecord
100
AcDbLinetypeTableRecord
  2
HIDDEN
 70
     0
  3
Hidden __ __ __ __ __ __ __ __ __ __ __ __ __ __
 72
    65
 73
     2
 40
1.905
 49
1.27
 74
     0
 49
-0.635
 74
     0
  0
LTYPE
  5
40
330
5
100
AcDbSymbolTableRecord
100
AcDbLinetypeTableRecord
  2
PHANTOM
 70
     0
  3
Phantom ______  __  __  ______  __  __  ______
 72
    65
 73
     6
 40
12.7
 49
6.35
 74
     0
 49
-1.27
 74
     0
 49
1.27
 74
     0
 49
-1.27
 74
     0
 49
1.27
 74
     0
 49
-1.27
 74
     0
  0
LTYPE
  5
41
330
5
100
AcDbSymbolTableRecord
100
AcDbLinetypeTableRecord
  2
CENTER
 70
     0
  3
Center ____ _ ____ _ ____ _ ____ _ ____ _ ____
 72
    65
 73
     4
 40
10.16
 49
6.35
 74
     0
 49
-1.27
 74
     0
 49
1.27
 74
     0
 49
-1.27
 74
     0
  0
LTYPE
  5
42
330
5
100
AcDbSymbolTableRecord
100
AcDbLinetypeTableRecord
  2
CENTERX2
 70
     0
  3
Center (2x) ________  __  ________  __  _____
 72
    65
 73
     4
 40
20.32
 49
12.7
 74
     0
 49
-2.54
 74
     0
 49
2.54
 74
     0
 49
-2.54
 74
     0
  0
LTYPE
  5
43
330
5
100
AcDbSymbolTableRecord
100
AcDbLinetypeTableRecord
  2
DOT2
 70
     0
  3
Dot (.5x) ........................................
 72
    65
 73
     2
 40
0.635
 49
0.0
 74
     0
 49
-0.635
 74
     0
  0
ENDTAB
  0
TABLE
  2
LAYER
  5
2
330
0
100
AcDbSymbolTable
 70
     3
  0
LAYER
  5
10
330
2
100
AcDbSymbolTableRecord
100
AcDbLayerTableRecord
  2
0
 70
     0
 62
     7
  6
Continuous
370
    -3
390
F
  0
LAYER
  5
44
330
2
100
AcDbSymbolTableRecord
100
AcDbLayerTableRecord
  2
MEDIÇÕES
 70
     0
 62
     7
  6
Continuous
370
    -3
390
F
  0
LAYER
  5
45
330
2
100
AcDbSymbolTableRecord
100
AcDbLayerTableRecord
  2
ACABAMENTO
 70
     0
 62
     7
  6
Continuous
370
    80
390
F
  0
ENDTAB
  0
TABLE
  2
STYLE
  5
3
330
0
100
AcDbSymbolTable
 70
     4
  0
STYLE
  5
11
330
3
100
AcDbSymbolTableRecord
100
AcDbTextStyleTableRecord
  2
Standard
 70
     0
 40
0.0
 41
1.0
 50
0.0
 71
     0
 42
35.0
  3
txt
  4

  0
STYLE
  5
111
330
3
100
AcDbSymbolTableRecord
100
AcDbTextStyleTableRecord
  2
SLDTEXTSTYLE0
 70
     0
 40
0.0
 41
0.6875
 50
0.0
 71
     0
 42
0.2
  3
TXT
  4

  0
STYLE
  5
113
330
3
100
AcDbSymbolTableRecord
100
AcDbTextStyleTableRecord
  2
SLDTEXTSTYLE1
 70
     0
 40
0.0
 41
0.75
 50
0.0
 71
     0
 42
0.2
  3
TXT
  4

  0
STYLE
  5
115
330
3
100
AcDbSymbolTableRecord
100
AcDbTextStyleTableRecord
  2
SLDTEXTSTYLE2
 70
     0
 40
0.0
 41
0.605
 50
0.0
 71
     0
 42
0.2
  3
TXT
  4

  0
ENDTAB
  0
TABLE
  2
VIEW
  5
6
330
0
100
AcDbSymbolTable
 70
     0
  0
ENDTAB
  0
TABLE
  2
UCS
  5
7
330
0
100
AcDbSymbolTable
 70
     0
  0
ENDTAB
  0
TABLE
  2
APPID
  5
9
330
0
100
AcDbSymbolTable
 70
     1
  0
APPID
  5
12
330
9
100
AcDbSymbolTableRecord
100
AcDbRegAppTableRecord
  2
ACAD
 70
     0
  0
ENDTAB
  0
TABLE
  2
DIMSTYLE
  5
A
330
0
100
AcDbSymbolTable
 70
     2
100
AcDbDimStyleTable
  0
DIMSTYLE
105
27
330
A
100
AcDbSymbolTableRecord
100
AcDbDimStyleTableRecord
  2
ISO-25
 70
     0
 41
2.5
 42
0.625
 43
3.75
 44
1.25
 73
     0
 74
     0
 77
     1
 78
     8
140
2.5
141
2.5
143
0.0393700787
147
0.625
171
     3
172
     1
178
     0
271
     2
272
     2
274
     3
278
    44
283
     0
284
     8
340
11
  0
DIMSTYLE
105
210
102
{ACAD_REACTORS
330
20F
330
29E
330
2D1
102
}
330
A
100
AcDbSymbolTableRecord
100
AcDbDimStyleTableRecord
  2
SLDDIMSTYLE0
 70
     0
 41
33.02
 44
0.0
 45
0.000000001
 73
     0
 74
     0
 77
     1
 78
    12
 79
     3
140
35.0
147
8.75
173
     1
178
     0
271
     2
272
     2
276
     2
284
    12
340
113
  0
ENDTAB
  0
TABLE
  2
BLOCK_RECORD
  5
1
330
0
100
AcDbSymbolTable
 70
     5
  0
BLOCK_RECORD
  5
1F
330
1
100
AcDbSymbolTableRecord
100
AcDbBlockTableRecord
  2
*Model_Space
340
22
  0
BLOCK_RECORD
  5
1B
330
1
100
AcDbSymbolTableRecord
100
AcDbBlockTableRecord
  2
*Paper_Space
340
1E
  0
BLOCK_RECORD
  5
23
330
1
100
AcDbSymbolTableRecord
100
AcDbBlockTableRecord
  2
*Paper_Space0
340
26
  0
BLOCK_RECORD
  5
46
330
1
100
AcDbSymbolTableRecord
100
AcDbBlockTableRecord
  2
Logo_Next.V3
340
0
102
{BLKREFS
331
110
102
}
  0
BLOCK_RECORD
  5
211
330
1
100
AcDbSymbolTableRecord
100
AcDbBlockTableRecord
  2
_D
340
0
  0
BLOCK_RECORD
  5
29F
330
1
100
AcDbSymbolTableRecord
100
AcDbBlockTableRecord
  2
_D_1
340
0
  0
BLOCK_RECORD
  5
2D2
330
1
100
AcDbSymbolTableRecord
100
AcDbBlockTableRecord
  2
_D_2
340
0
  0
ENDTAB
  0
ENDSEC
  0
SECTION
  2
BLOCKS
  0
BLOCK
  5
20
330
1F
100
AcDbEntity
  8
0
100
AcDbBlockBegin
  2
*Model_Space
 70
     0
 10
0.0
 20
0.0
 30
0.0
  3
*Model_Space
  1

  0
ENDBLK
  5
21
330
1F
100
AcDbEntity
  8
0
100
AcDbBlockEnd
  0
BLOCK
  5
1C
330
1B
100
AcDbEntity
 67
     1
  8
0
100
AcDbBlockBegin
  2
*Paper_Space
 70
     0
 10
0.0
 20
0.0
 30
0.0
  3
*Paper_Space
  1

  0
ENDBLK
  5
1D
330
1B
100
AcDbEntity
 67
     1
  8
0
100
AcDbBlockEnd
  0
BLOCK
  5
24
330
23
100
AcDbEntity
  8
0
100
AcDbBlockBegin
  2
*Paper_Space0
 70
     0
 10
0.0
 20
0.0
 30
0.0
  3
*Paper_Space0
  1

  0
ENDBLK
  5
25
330
23
100
AcDbEntity
  8
0
100
AcDbBlockEnd
  0
BLOCK
  5
47
330
46
100
AcDbEntity
  8
0
100
AcDbBlockBegin
  2
Logo_Next.V3
 70
     0
 10
0.0
 20
0.0
 30
0.0
  3
Logo_Next.V3
  1

  0
ARC
  5
49
330
46
100
AcDbEntity
  8
0
  6
Continuous
 62
     7
370
     0
100
AcDbCircle
 10
-1587.1800722805
 20
422.6709638731
 30
0.0
 40
35.62761368349867
100
AcDbArc
 50
33.8993301947
 51
90.0
  0
ARC
  5
4A
330
46
100
AcDbEntity
  8
0
  6
Continuous
 62
     7
370
     0
100
AcDbCircle
 10
-1131.6851711632
 20
422.6709638731
 30
0.0
 40
35.6276136834984
100
AcDbArc
 50
90.0
 51
180.0
  0
ARC
  5
4B
330
46
100
AcDbEntity
  8
0
  6
Continuous
 62
     7
370
     0
100
AcDbCircle
 10
-883.6670100843
 20
422.6709638731
 30
0.0
 40
35.62761368349868
100
AcDbArc
 50
0.0
 51
90.0
  0
ARC
  5
4C
330
46
100
AcDbEntity
  8
0
  6
Continuous
 62
     7
370
     0
100
AcDbCircle
 10
-883.6670100843
 20
-422.6709638716
 30
0.0
 40
35.62761368349857
100
AcDbArc
 50
270.0
 51
0.0
  0
ARC
  5
4D
330
46
100
AcDbEntity
  8
0
  6
Continuous
 62
     7
370
     0
100
AcDbCircle
 10
-1213.6286423958
 20
-422.6709638716
 30
0.0
 40
35.62761368349845
100
AcDbArc
 50
215.8239333713
 51
270.0
  0
ARC
  5
4E
330
46
100
AcDbEntity
  8
0
  6
Continuous
 62
     7
370
     0
100
AcDbCircle
 10
-1700.7949027296
 20
-422.6709638716
 30
0.0
 40
35.62761368349834
100
AcDbArc
 50
270.0
 51
0.0
  0
ARC
  5
4F
330
46
100
AcDbEntity
  8
0
  6
Continuous
 62
     7
370
     0
100
AcDbCircle
 10
-1775.2437764562
 20
-437.8290234302
 30
0.0
 40
20.46955412487762
100
AcDbArc
 50
180.0
 51
270.0
  0
ARC
  5
50
330
46
100
AcDbEntity
  8
0
  6
Continuous
 62
     7
370
     0
100
AcDbCircle
 10
-1775.2437764562
 20
437.8290234317
 30
0.0
 40
20.46955412487785
100
AcDbArc
 50
90.0
 51
180.0
  0
ARC
  5
51
330
46
100
AcDbEntity
  8
0
  6
Continuous
 62
     7
370
     0
100
AcDbCircle
 10
273.7504665449
 20
598.8614812289
 30
0.0
 40
35.62761368349846
100
AcDbArc
 50
38.8556584896
 51
105.8183764148
  0
ARC
  5
52
330
46
100
AcDbEntity
  8
0
  6
Continuous
 62
     7
370
     0
100
AcDbCircle
 10
604.2801104592
 20
693.8639124127
 30
0.0
 40
35.62761368349815
100
AcDbArc
 50
106.1668587455
 51
171.8012460536
  0
ARC
  5
53
330
46
100
AcDbEntity
  8
0
  6
Continuous
 62
     7
370
     0
100
AcDbCircle
 10
905.7459044969
 20
781.2587603884
 30
0.0
 40
35.62761368349857
100
AcDbArc
 50
347.4974268902
 51
106.1668587455
  0
ARC
  5
54
330
46
100
AcDbEntity
  8
0
  6
Continuous
 62
     7
370
     0
100
AcDbCircle
 10
978.923471261
 20
291.6141658775
 30
0.0
 40
35.62761368350721
100
AcDbArc
 50
180.0
 51
270.0
  0
ARC
  5
55
330
46
100
AcDbEntity
  8
0
  6
Continuous
 62
     7
370
     0
100
AcDbCircle
 10
978.923471261
 20
422.5043183007
 30
0.0
 40
35.62761368352926
100
AcDbArc
 50
90.0
 51
180.0
  0
ARC
  5
56
330
46
100
AcDbEntity
  8
0
  6
Continuous
 62
     7
370
     0
100
AcDbCircle
 10
1774.8734010732
 20
437.6623778593
 30
0.0
 40
20.46955412487767
100
AcDbArc
 50
0.0
 51
90.0
  0
ARC
  5
57
330
46
100
AcDbEntity
  8
0
  6
Continuous
 62
     7
370
     0
100
AcDbCircle
 10
1774.8734010732
 20
276.8465881355
 30
0.0
 40
20.46955412487756
100
AcDbArc
 50
270.0
 51
0.0
  0
ARC
  5
58
330
46
100
AcDbEntity
  8
0
  6
Continuous
 62
     7
370
     0
100
AcDbCircle
 10
1586.1281146836
 20
-423.5855275187
 30
0.0
 40
35.62761368349857
100
AcDbArc
 50
270.0
 51
0.0
  0
ARC
  5
59
330
46
100
AcDbEntity
  8
0
  6
Continuous
 62
     7
370
     0
100
AcDbCircle
 10
997.8332858737
 20
-580.3602954418
 30
0.0
 40
35.62761368353062
100
AcDbArc
 50
219.5992848036
 51
286.1919412867
  0
ARC
  5
5A
330
46
100
AcDbEntity
  8
0
  6
Continuous
 62
     7
370
     0
100
AcDbCircle
 10
598.2914840963
 20
-693.766887036
 30
0.0
 40
35.62761368349779
100
AcDbArc
 50
286.0985506514
 51
351.7882282766
  0
ARC
  5
5B
330
46
100
AcDbEntity
  8
0
  6
Continuous
 62
     7
370
     0
100
AcDbCircle
 10
278.1330387818
 20
-786.1671005913
 30
0.0
 40
35.62761368352944
100
AcDbArc
 50
166.6872067774
 51
286.0985506513
  0
ARC
  5
5C
330
46
100
AcDbEntity
  8
0
  6
Continuous
 62
     7
370
     0
100
AcDbCircle
 10
63.5912815337
 20
73.5879902946
 30
0.0
 40
35.62761368350465
100
AcDbArc
 50
0.0
 51
90.0
  0
ARC
  5
5D
330
46
100
AcDbEntity
  8
0
  6
Continuous
 62
     7
370
     0
100
AcDbCircle
 10
63.5912815337
 20
-51.5698150553
 30
0.0
 40
35.62761368350699
100
AcDbArc
 50
270.0
 51
0.0
  0
ARC
  5
5E
330
46
100
AcDbEntity
  8
0
  6
Continuous
 62
     7
370
     0
100
AcDbCircle
 10
219.1309173284
 20
-287.598587012
 30
0.0
 40
35.62761368349848
100
AcDbArc
 50
0.0
 51
90.0
  0
ARC
  5
5F
330
46
100
AcDbEntity
  8
0
  6
Continuous
 62
     7
370
     0
100
AcDbCircle
 10
219.1309173284
 20
-423.7014330253
 30
0.0
 40
35.6276136834864
100
AcDbArc
 50
270.0
 51
0.0
  0
ARC
  5
60
330
46
100
AcDbEntity
  8
0
  6
Continuous
 62
     7
370
     0
100
AcDbCircle
 10
-716.7680027826
 20
-423.7014330253
 30
0.0
 40
35.62761368349868
100
AcDbArc
 50
180.0
 51
270.0
  0
ARC
  5
61
330
46
100
AcDbEntity
  8
0
  6
Continuous
 62
     7
370
     0
100
AcDbCircle
 10
-716.7680027826
 20
423.1800330044
 30
0.0
 40
35.62761368351687
100
AcDbArc
 50
90.0
 51
180.0
  0
ARC
  5
62
330
46
100
AcDbEntity
  8
0
  6
Continuous
 62
     7
370
     0
100
AcDbCircle
 10
751.1693702587
 20
84.1572284311
 30
0.0
 40
75.62761368389583
100
AcDbArc
 50
167.4974268903
 51
224.796493861
  0
ARC
  5
63
330
46
100
AcDbEntity
  8
0
  6
Continuous
 62
     7
370
     0
100
AcDbCircle
 10
671.5727689264
 20
-185.9690548709
 30
0.0
 40
75.62761368389594
100
AcDbArc
 50
39.5992848035
 51
171.7882282765
  0
ARC
  5
64
330
46
100
AcDbEntity
  8
0
  6
Continuous
 62
     7
370
     0
100
AcDbCircle
 10
464.4284846463
 20
1.1328478898
 30
0.0
 40
75.62761368391911
100
AcDbArc
 50
346.6872067774
 51
44.28188045
  0
ARC
  5
65
330
46
100
AcDbEntity
  8
0
  6
Continuous
 62
     7
370
     0
100
AcDbCircle
 10
542.5238335845
 20
265.2390096659
 30
0.0
 40
75.62761368389592
100
AcDbArc
 50
218.8556584896
 51
351.8012460535
  0
ARC
  5
66
330
46
100
AcDbEntity
  8
0
  6
Continuous
 62
     7
370
     0
100
AcDbCircle
 10
-883.6670100843
 20
-422.6709638716
 30
0.0
 40
55.6276136836683
100
AcDbArc
 50
270.0
 51
0.0
  0
ARC
  5
67
330
46
100
AcDbEntity
  8
0
  6
Continuous
 62
     7
370
     0
100
AcDbCircle
 10
-1213.6286423958
 20
-422.6709638716
 30
0.0
 40
55.62761368366832
100
AcDbArc
 50
215.8239333713
 51
270.0
  0
ARC
  5
68
330
46
100
AcDbEntity
  8
0
  6
Continuous
 62
     7
370
     0
100
AcDbCircle
 10
-1700.7949027296
 20
-422.6709638716
 30
0.0
 40
55.62761368366824
100
AcDbArc
 50
270.0
 51
0.0
  0
ARC
  5
69
330
46
100
AcDbEntity
  8
0
  6
Continuous
 62
     7
370
     0
100
AcDbCircle
 10
-1775.2437764562
 20
-437.8290234302
 30
0.0
 40
40.46955412504764
100
AcDbArc
 50
180.0
 51
270.0
  0
ARC
  5
6A
330
46
100
AcDbEntity
  8
0
  6
Continuous
 62
     7
370
     0
100
AcDbCircle
 10
-1775.2437764562
 20
437.8290234317
 30
0.0
 40
40.46955412504764
100
AcDbArc
 50
90.0
 51
180.0
  0
ARC
  5
6B
330
46
100
AcDbEntity
  8
0
  6
Continuous
 62
     7
370
     0
100
AcDbCircle
 10
-1587.1800722805
 20
422.6709638731
 30
0.0
 40
55.62761368366836
100
AcDbArc
 50
33.8993301947
 51
90.0
  0
ARC
  5
6C
330
46
100
AcDbEntity
  8
0
  6
Continuous
 62
     7
370
     0
100
AcDbCircle
 10
-1131.6851711632
 20
422.6709638731
 30
0.0
 40
55.6276136836683
100
AcDbArc
 50
90.0
 51
180.0
  0
ARC
  5
6D
330
46
100
AcDbEntity
  8
0
  6
Continuous
 62
     7
370
     0
100
AcDbCircle
 10
-883.6670100843
 20
422.6709638731
 30
0.0
 40
55.62761368366819
100
AcDbArc
 50
0.0
 51
90.0
  0
ARC
  5
6E
330
46
100
AcDbEntity
  8
0
  6
Continuous
 62
     7
370
     0
100
AcDbCircle
 10
751.1693702587
 20
84.1572284311
 30
0.0
 40
55.62761368366852
100
AcDbArc
 50
167.4974268903
 51
224.796493861
  0
ARC
  5
6F
330
46
100
AcDbEntity
  8
0
  6
Continuous
 62
     7
370
     0
100
AcDbCircle
 10
542.5238335845
 20
265.2390096659
 30
0.0
 40
55.62761368366862
100
AcDbArc
 50
218.8556584895
 51
351.8012460535
  0
ARC
  5
70
330
46
100
AcDbEntity
  8
0
  6
Continuous
 62
     7
370
     0
100
AcDbCircle
 10
464.4284846463
 20
1.1328478898
 30
0.0
 40
55.62761368368375
100
AcDbArc
 50
346.6872067774
 51
44.2818804499
  0
ARC
  5
71
330
46
100
AcDbEntity
  8
0
  6
Continuous
 62
     7
370
     0
100
AcDbCircle
 10
671.5727689264
 20
-185.9690548709
 30
0.0
 40
55.62761368366825
100
AcDbArc
 50
39.5992848036
 51
171.7882282766
  0
ARC
  5
72
330
46
100
AcDbEntity
  8
0
  6
Continuous
 62
     7
370
     0
100
AcDbCircle
 10
219.1309173284
 20
-287.598587012
 30
0.0
 40
55.62761368366822
100
AcDbArc
 50
0.0
 51
90.0
  0
ARC
  5
73
330
46
100
AcDbEntity
  8
0
  6
Continuous
 62
     7
370
     0
100
AcDbCircle
 10
63.5912815337
 20
-51.5698150553
 30
0.0
 40
55.62761368370145
100
AcDbArc
 50
270.0
 51
0.0
  0
ARC
  5
74
330
46
100
AcDbEntity
  8
0
  6
Continuous
 62
     7
370
     0
100
AcDbCircle
 10
63.5912815337
 20
73.5879902946
 30
0.0
 40
55.62761368370145
100
AcDbArc
 50
0.0
 51
90.0
  0
ARC
  5
75
330
46
100
AcDbEntity
  8
0
  6
Continuous
 62
     7
370
     0
100
AcDbCircle
 10
278.1330387818
 20
-786.1671005913
 30
0.0
 40
55.6276136836991
100
AcDbArc
 50
166.6872067774
 51
286.0985506513
  0
ARC
  5
76
330
46
100
AcDbEntity
  8
0
  6
Continuous
 62
     7
370
     0
100
AcDbCircle
 10
598.2914840963
 20
-693.766887036
 30
0.0
 40
55.6276136836682
100
AcDbArc
 50
286.0985506514
 51
351.7882282766
  0
ARC
  5
77
330
46
100
AcDbEntity
  8
0
  6
Continuous
 62
     7
370
     0
100
AcDbCircle
 10
997.8332858737
 20
-580.3602954418
 30
0.0
 40
55.62761368370253
100
AcDbArc
 50
219.5992848036
 51
286.1919412867
  0
ARC
  5
78
330
46
100
AcDbEntity
  8
0
  6
Continuous
 62
     7
370
     0
100
AcDbCircle
 10
1586.1281146836
 20
-423.5855275187
 30
0.0
 40
55.62761368366864
100
AcDbArc
 50
270.0
 51
0.0
  0
ARC
  5
79
330
46
100
AcDbEntity
  8
0
  6
Continuous
 62
     7
370
     0
100
AcDbCircle
 10
1774.8734010732
 20
276.8465881355
 30
0.0
 40
40.46955412504767
100
AcDbArc
 50
270.0
 51
0.0
  0
ARC
  5
7A
330
46
100
AcDbEntity
  8
0
  6
Continuous
 62
     7
370
     0
100
AcDbCircle
 10
1774.8734010732
 20
437.6623778593
 30
0.0
 40
40.46955412504775
100
AcDbArc
 50
0.0
 51
90.0
  0
ARC
  5
7B
330
46
100
AcDbEntity
  8
0
  6
Continuous
 62
     7
370
     0
100
AcDbCircle
 10
978.923471261
 20
422.5043183007
 30
0.0
 40
55.62761368369934
100
AcDbArc
 50
90.0
 51
180.0
  0
ARC
  5
7C
330
46
100
AcDbEntity
  8
0
  6
Continuous
 62
     7
370
     0
100
AcDbCircle
 10
978.923471261
 20
291.6141658775
 30
0.0
 40
55.62761368369922
100
AcDbArc
 50
180.0
 51
270.0
  0
ARC
  5
7D
330
46
100
AcDbEntity
  8
0
  6
Continuous
 62
     7
370
     0
100
AcDbCircle
 10
905.7459044969
 20
781.2587603884
 30
0.0
 40
55.62761368366819
100
AcDbArc
 50
347.4974268903
 51
106.1668587455
  0
ARC
  5
7E
330
46
100
AcDbEntity
  8
0
  6
Continuous
 62
     7
370
     0
100
AcDbCircle
 10
604.2801104592
 20
693.8639124127
 30
0.0
 40
55.6276136836683
100
AcDbArc
 50
106.1668587455
 51
171.8012460535
  0
ARC
  5
7F
330
46
100
AcDbEntity
  8
0
  6
Continuous
 62
     7
370
     0
100
AcDbCircle
 10
273.7504665449
 20
598.8614812289
 30
0.0
 40
55.62761368366799
100
AcDbArc
 50
38.8556584895
 51
105.8183764146
  0
ARC
  5
80
330
46
100
AcDbEntity
  8
0
  6
Continuous
 62
     7
370
     0
100
AcDbCircle
 10
-716.7680027826
 20
423.1800330044
 30
0.0
 40
55.62761368369939
100
AcDbArc
 50
90.0
 51
180.0
  0
ARC
  5
81
330
46
100
AcDbEntity
  8
0
  6
Continuous
 62
     7
370
     0
100
AcDbCircle
 10
-716.7680027826
 20
-423.7014330253
 30
0.0
 40
55.62761368366853
100
AcDbArc
 50
180.0
 51
270.0
  0
ARC
  5
82
330
46
100
AcDbEntity
  8
0
  6
Continuous
 62
     7
370
     0
100
AcDbCircle
 10
219.1309173284
 20
-423.7014330253
 30
0.0
 40
55.62761368369945
100
AcDbArc
 50
270.0
 51
0.0
  0
LINE
  5
83
330
46
100
AcDbEntity
  8
0
  6
Continuous
 62
     7
370
     0
100
AcDbLine
 10
-1775.2437764562
 20
458.2985775566
 30
0.0
 11
-1587.1800722805
 21
458.2985775566
 31
0.0
  0
LINE
  5
84
330
46
100
AcDbEntity
  8
0
  6
Continuous
 62
     7
370
     0
100
AcDbLine
 10
-1557.608482937
 20
442.5417454501
 30
0.0
 11
-1167.3127848467
 21
-138.2941950862
 31
0.0
  0
LINE
  5
85
330
46
100
AcDbEntity
  8
0
  6
Continuous
 62
     7
370
     0
100
AcDbLine
 10
-1167.3127848467
 20
422.6709638731
 30
0.0
 11
-1167.3127848467
 21
-138.2941950862
 31
0.0
  0
LINE
  5
86
330
46
100
AcDbEntity
  8
0
  6
Continuous
 62
     7
370
     0
100
AcDbLine
 10
-1131.6851711632
 20
458.2985775566
 30
0.0
 11
-883.6670100843
 21
458.2985775566
 31
0.0
  0
LINE
  5
87
330
46
100
AcDbEntity
  8
0
  6
Continuous
 62
     7
370
     0
100
AcDbLine
 10
-848.0393964008
 20
422.6709638731
 30
0.0
 11
-848.0393964008
 21
-422.6709638716
 31
0.0
  0
LINE
  5
88
330
46
100
AcDbEntity
  8
0
  6
Continuous
 62
     7
370
     0
100
AcDbLine
 10
-883.6670100843
 20
-458.2985775551
 30
0.0
 11
-1213.6286423958
 21
-458.2985775551
 31
0.0
  0
LINE
  5
89
330
46
100
AcDbEntity
  8
0
  6
Continuous
 62
     7
370
     0
100
AcDbLine
 10
-1665.1672890461
 20
141.98084568
 30
0.0
 11
-1242.5162028167
 21
-443.5236785561
 31
0.0
  0
LINE
  5
8A
330
46
100
AcDbEntity
  8
0
  6
Continuous
 62
     7
370
     0
100
AcDbLine
 10
-1665.1672890461
 20
-422.6709638716
 30
0.0
 11
-1665.1672890461
 21
141.98084568
 31
0.0
  0
LINE
  5
8B
330
46
100
AcDbEntity
  8
0
  6
Continuous
 62
     7
370
     0
100
AcDbLine
 10
-1775.2437764562
 20
-458.2985775551
 30
0.0
 11
-1700.7949027296
 21
-458.2985775551
 31
0.0
  0
LINE
  5
8C
330
46
100
AcDbEntity
  8
0
  6
Continuous
 62
     7
370
     0
100
AcDbLine
 10
-1795.713330581
 20
-437.8290234302
 30
0.0
 11
-1795.713330581
 21
437.8290234317
 31
0.0
  0
LINE
  5
8D
330
46
100
AcDbEntity
  8
0
  6
Continuous
 62
     7
370
     0
100
AcDbLine
 10
-716.7680027826
 20
458.8076466879
 30
0.0
 11
-27.5292825723
 21
458.8076466879
 31
0.0
  0
LINE
  5
8E
330
46
100
AcDbEntity
  8
0
  6
Continuous
 62
     7
370
     0
100
AcDbLine
 10
-27.5292825723
 20
458.8076466879
 30
0.0
 11
-99.0477677645
 21
530.2709748739
 31
0.0
  0
LINE
  5
8F
330
46
100
AcDbEntity
  8
0
  6
Continuous
 62
     7
370
     0
100
AcDbLine
 10
-99.0477677645
 20
530.2709748739
 30
0.0
 11
264.0387765096
 21
633.1398991247
 31
0.0
  0
LINE
  5
90
330
46
100
AcDbEntity
  8
0
  6
Continuous
 62
     7
370
     0
100
AcDbLine
 10
301.4947189366
 20
621.2128417246
 30
0.0
 11
518.9301531369
 21
351.3150175393
 31
0.0
  0
LINE
  5
91
330
46
100
AcDbEntity
  8
0
  6
Continuous
 62
     7
370
     0
100
AcDbLine
 10
518.9301531369
 20
351.3150175393
 30
0.0
 11
569.0166347679
 21
698.9446740632
 31
0.0
  0
LINE
  5
92
330
46
100
AcDbEntity
  8
0
  6
Continuous
 62
     7
370
     0
100
AcDbLine
 10
594.3601143785
 20
728.0826285566
 30
0.0
 11
895.8259084162
 21
815.4774765323
 31
0.0
  0
LINE
  5
93
330
46
100
AcDbEntity
  8
0
  6
Continuous
 62
     7
370
     0
100
AcDbLine
 10
940.5286551389
 20
773.5459713626
 30
0.0
 11
790.1659240582
 21
95.4476383795
 31
0.0
  0
LINE
  5
94
330
46
100
AcDbEntity
  8
0
  6
Continuous
 62
     7
370
     0
100
AcDbLine
 10
790.1659240582
 20
95.4476383795
 30
0.0
 11
1290.4292889099
 21
-408.3821318021
 31
0.0
  0
LINE
  5
95
330
46
100
AcDbEntity
  8
0
  6
Continuous
 62
     7
370
     0
100
AcDbLine
 10
1290.4292889099
 20
-408.3821318021
 30
0.0
 11
1290.4292889099
 21
255.986552194
 31
0.0
  0
LINE
  5
96
330
46
100
AcDbEntity
  8
0
  6
Continuous
 62
     7
370
     0
100
AcDbLine
 10
1290.4292889099
 20
255.986552194
 30
0.0
 11
978.923471261
 21
255.986552194
 31
0.0
  0
LINE
  5
97
330
46
100
AcDbEntity
  8
0
  6
Continuous
 62
     7
370
     0
100
AcDbLine
 10
943.2958575775
 20
291.6141658775
 30
0.0
 11
943.2958575775
 21
422.5043183007
 31
0.0
  0
LINE
  5
98
330
46
100
AcDbEntity
  8
0
  6
Continuous
 62
     7
370
     0
100
AcDbLine
 10
978.923471261
 20
458.1319319842
 30
0.0
 11
1774.8734010732
 21
458.1319319842
 31
0.0
  0
LINE
  5
99
330
46
100
AcDbEntity
  8
0
  6
Continuous
 62
     7
370
     0
100
AcDbLine
 10
1795.342955198
 20
437.6623778593
 30
0.0
 11
1795.342955198
 21
276.8465881355
 31
0.0
  0
LINE
  5
9A
330
46
100
AcDbEntity
  8
0
  6
Continuous
 62
     7
370
     0
100
AcDbLine
 10
1774.8734010732
 20
256.3770340107
 30
0.0
 11
1621.7557283671
 21
256.3770340107
 31
0.0
  0
LINE
  5
9B
330
46
100
AcDbEntity
  8
0
  6
Continuous
 62
     7
370
     0
100
AcDbLine
 10
1621.7557283671
 20
256.3770340107
 30
0.0
 11
1621.7557283671
 21
-423.5855275187
 31
0.0
  0
LINE
  5
9C
330
46
100
AcDbEntity
  8
0
  6
Continuous
 62
     7
370
     0
100
AcDbLine
 10
1586.1281146836
 20
-459.2131412022
 30
0.0
 11
1339.6695201832
 21
-459.2131412022
 31
0.0
  0
LINE
  5
9D
330
46
100
AcDbEntity
  8
0
  6
Continuous
 62
     7
370
     0
100
AcDbLine
 10
1339.6695201832
 20
-459.2131412022
 30
0.0
 11
1385.4091054823
 21
-504.9174545962
 31
0.0
  0
LINE
  5
9E
330
46
100
AcDbEntity
  8
0
  6
Continuous
 62
     7
370
     0
100
AcDbLine
 10
1385.4091054823
 20
-504.9174545962
 30
0.0
 11
1007.7682610309
 21
-614.5746656012
 31
0.0
  0
LINE
  5
9F
330
46
100
AcDbEntity
  8
0
  6
Continuous
 62
     7
370
     0
100
AcDbLine
 10
970.3814542472
 20
-603.0698484346
 30
0.0
 11
695.3546099506
 21
-270.611053459
 31
0.0
  0
LINE
  5
A0
330
46
100
AcDbEntity
  8
0
  6
Continuous
 62
     7
370
     0
100
AcDbLine
 10
695.3546099506
 20
-270.611053459
 30
0.0
 11
633.5538045128
 21
-698.8556605253
 31
0.0
  0
LINE
  5
A1
330
46
100
AcDbEntity
  8
0
  6
Continuous
 62
     7
370
     0
100
AcDbLine
 10
608.1706775441
 20
-727.9974054896
 30
0.0
 11
288.0122322296
 21
-820.3976190449
 31
0.0
  0
LINE
  5
A2
330
46
100
AcDbEntity
  8
0
  6
Continuous
 62
     7
370
     0
100
AcDbLine
 10
243.4628287838
 20
-777.9632359241
 30
0.0
 11
425.2486584403
 21
-9.7212981838
 31
0.0
  0
LINE
  5
A3
330
46
100
AcDbEntity
  8
0
  6
Continuous
 62
     7
370
     0
100
AcDbLine
 10
425.2486584403
 20
-9.7212981838
 30
0.0
 11
159.2646243592
 21
263.0151701683
 31
0.0
  0
LINE
  5
A4
330
46
100
AcDbEntity
  8
0
  6
Continuous
 62
     7
370
     0
100
AcDbLine
 10
-419.9767730238
 20
263.0151701683
 30
0.0
 11
159.2646243592
 21
263.0151701683
 31
0.0
  0
LINE
  5
A5
330
46
100
AcDbEntity
  8
0
  6
Continuous
 62
     7
370
     0
100
AcDbLine
 10
-419.9767730238
 20
109.2156039781
 30
0.0
 11
-419.9767730238
 21
263.0151701683
 31
0.0
  0
LINE
  5
A6
330
46
100
AcDbEntity
  8
0
  6
Continuous
 62
     7
370
     0
100
AcDbLine
 10
63.5912815337
 20
109.2156039781
 30
0.0
 11
-419.9767730238
 21
109.2156039781
 31
0.0
  0
LINE
  5
A7
330
46
100
AcDbEntity
  8
0
  6
Continuous
 62
     7
370
     0
100
AcDbLine
 10
99.2188952172
 20
-51.5698150553
 30
0.0
 11
99.2188952172
 21
73.5879902946
 31
0.0
  0
LINE
  5
A8
330
46
100
AcDbEntity
  8
0
  6
Continuous
 62
     7
370
     0
100
AcDbLine
 10
-419.9767730238
 20
-87.1974287388
 30
0.0
 11
63.5912815337
 21
-87.1974287388
 31
0.0
  0
LINE
  5
A9
330
46
100
AcDbEntity
  8
0
  6
Continuous
 62
     7
370
     0
100
AcDbLine
 10
-419.9767730238
 20
-251.9709733285
 30
0.0
 11
-419.9767730238
 21
-87.1974287388
 31
0.0
  0
LINE
  5
AA
330
46
100
AcDbEntity
  8
0
  6
Continuous
 62
     7
370
     0
100
AcDbLine
 10
219.1309173284
 20
-251.9709733285
 30
0.0
 11
-419.9767730238
 21
-251.9709733285
 31
0.0
  0
LINE
  5
AB
330
46
100
AcDbEntity
  8
0
  6
Continuous
 62
     7
370
     0
100
AcDbLine
 10
254.7585310119
 20
-423.7014330253
 30
0.0
 11
254.7585310119
 21
-287.598587012
 31
0.0
  0
LINE
  5
AC
330
46
100
AcDbEntity
  8
0
  6
Continuous
 62
     7
370
     0
100
AcDbLine
 10
-716.7680027826
 20
-459.3290467088
 30
0.0
 11
219.1309173284
 21
-459.3290467088
 31
0.0
  0
LINE
  5
AD
330
46
100
AcDbEntity
  8
0
  6
Continuous
 62
     7
370
     0
100
AcDbLine
 10
-752.3956164661
 20
423.1800330044
 30
0.0
 11
-752.3956164661
 21
-423.7014330253
 31
0.0
  0
LINE
  5
AE
330
46
100
AcDbEntity
  8
0
  6
Continuous
 62
     7
370
     0
100
AcDbLine
 10
804.2998003838
 20
673.1081113756
 30
0.0
 11
677.3351681763
 21
100.5293557941
 31
0.0
  0
LINE
  5
AF
330
46
100
AcDbEntity
  8
0
  6
Continuous
 62
     7
370
     0
100
AcDbLine
 10
697.5029678163
 20
30.8707085559
 30
0.0
 11
1175.1030802751
 21
-450.1342416968
 31
0.0
  0
LINE
  5
B0
330
46
100
AcDbEntity
  8
0
  6
Continuous
 62
     7
370
     0
100
AcDbLine
 10
1175.1030802751
 20
-450.1342416968
 30
0.0
 11
1024.4448801484
 21
-493.8815171312
 31
0.0
  0
LINE
  5
B1
330
46
100
AcDbEntity
  8
0
  6
Continuous
 62
     7
370
     0
100
AcDbLine
 10
1024.4448801484
 20
-493.8815171312
 30
0.0
 11
729.8454485285
 21
-137.7629270083
 31
0.0
  0
LINE
  5
B2
330
46
100
AcDbEntity
  8
0
  6
Continuous
 62
     7
370
     0
100
AcDbLine
 10
596.7205722638
 20
-175.1669899616
 30
0.0
 11
530.4127137476
 21
-634.642924201
 31
0.0
  0
LINE
  5
B3
330
46
100
AcDbEntity
  8
0
  6
Continuous
 62
     7
370
     0
100
AcDbLine
 10
530.4127137476
 20
-634.642924201
 30
0.0
 11
381.5365450752
 21
-677.6097425998
 31
0.0
  0
LINE
  5
B4
330
46
100
AcDbEntity
  8
0
  6
Continuous
 62
     7
370
     0
100
AcDbLine
 10
381.5365450752
 20
-677.6097425998
 30
0.0
 11
538.0237939297
 21
-16.2816978407
 31
0.0
  0
LINE
  5
B5
330
46
100
AcDbEntity
  8
0
  6
Continuous
 62
     7
370
     0
100
AcDbLine
 10
518.5713194598
 20
53.9352094836
 30
0.0
 11
109.2473797304
 21
473.6504984412
 31
0.0
  0
LINE
  5
B6
330
46
100
AcDbEntity
  8
0
  6
Continuous
 62
     7
370
     0
100
AcDbLine
 10
109.2473797304
 20
473.6504984412
 30
0.0
 11
246.2385432832
 21
512.4625498621
 31
0.0
  0
LINE
  5
B7
330
46
100
AcDbEntity
  8
0
  6
Continuous
 62
     7
370
     0
100
AcDbLine
 10
246.2385432832
 20
512.4625498621
 30
0.0
 11
483.6304252168
 21
217.7932258452
 31
0.0
  0
LINE
  5
B8
330
46
100
AcDbEntity
  8
0
  6
Continuous
 62
     7
370
     0
100
AcDbLine
 10
617.3784825774
 20
254.453951684
 30
0.0
 11
672.1796823774
 21
634.8065267316
 31
0.0
  0
LINE
  5
B9
330
46
100
AcDbEntity
  8
0
  6
Continuous
 62
     7
370
     0
100
AcDbLine
 10
672.1796823774
 20
634.8065267316
 30
0.0
 11
804.2998003838
 21
673.1081113756
 31
0.0
  0
LINE
  5
BA
330
46
100
AcDbEntity
  8
0
  6
Continuous
 62
     7
370
     0
100
AcDbLine
 10
1955.2327139547
 20
478.1319319843
 30
0.0
 11
1986.2593721161
 21
478.1319319843
 31
0.0
  0
LINE
  5
BB
330
46
100
AcDbEntity
  8
0
  6
Continuous
 62
     7
370
     0
100
AcDbLine
 10
1986.2593721161
 20
478.1319319843
 30
0.0
 11
1986.2593721161
 21
236.3770340105
 31
0.0
  0
LINE
  5
BC
330
46
100
AcDbEntity
  8
0
  6
Continuous
 62
     7
370
     0
100
AcDbLine
 10
1955.2327139547
 20
236.3770340105
 30
0.0
 11
1986.2593721161
 21
236.3770340105
 31
0.0
  0
LINE
  5
BD
330
46
100
AcDbEntity
  8
0
  6
Continuous
 62
     7
370
     0
100
AcDbLine
 10
1955.2327139547
 20
478.1319319843
 30
0.0
 11
1955.2327139547
 21
236.3770340105
 31
0.0
  0
LINE
  5
BE
330
46
100
AcDbEntity
  8
0
  6
Continuous
 62
     7
370
     0
100
AcDbLine
 10
-1986.2593721163
 20
478.2985775568
 30
0.0
 11
-1986.2593721163
 21
-478.2985775552
 31
0.0
  0
LINE
  5
BF
330
46
100
AcDbEntity
  8
0
  6
Continuous
 62
     7
370
     0
100
AcDbLine
 10
-1955.2327139549
 20
-478.2985775552
 30
0.0
 11
-1986.2593721163
 21
-478.2985775552
 31
0.0
  0
LINE
  5
C0
330
46
100
AcDbEntity
  8
0
  6
Continuous
 62
     7
370
     0
100
AcDbLine
 10
-1955.2327139549
 20
478.2985775568
 30
0.0
 11
-1955.2327139549
 21
-478.2985775552
 31
0.0
  0
LINE
  5
C1
330
46
100
AcDbEntity
  8
0
  6
Continuous
 62
     7
370
     0
100
AcDbLine
 10
-1955.2327139549
 20
478.2985775568
 30
0.0
 11
-1986.2593721163
 21
478.2985775568
 31
0.0
  0
LINE
  5
C2
330
46
100
AcDbEntity
  8
0
  6
Continuous
 62
     7
370
     0
100
AcDbLine
 10
1875.6425908404
 20
478.1319319843
 30
0.0
 11
1875.6425908404
 21
236.3770340105
 31
0.0
  0
LINE
  5
C3
330
46
100
AcDbEntity
  8
0
  6
Continuous
 62
     7
370
     0
100
AcDbLine
 10
1844.2112371367
 20
236.3770340105
 30
0.0
 11
1875.6425908404
 21
236.3770340105
 31
0.0
  0
LINE
  5
C4
330
46
100
AcDbEntity
  8
0
  6
Continuous
 62
     7
370
     0
100
AcDbLine
 10
1844.2112371367
 20
478.1319319843
 30
0.0
 11
1844.2112371367
 21
236.3770340105
 31
0.0
  0
LINE
  5
C5
330
46
100
AcDbEntity
  8
0
  6
Continuous
 62
     7
370
     0
100
AcDbLine
 10
1844.2112371367
 20
478.1319319843
 30
0.0
 11
1875.6425908404
 21
478.1319319843
 31
0.0
  0
LINE
  5
C6
330
46
100
AcDbEntity
  8
0
  6
Continuous
 62
     7
370
     0
100
AcDbLine
 10
1899.9243233154
 20
478.1319319843
 30
0.0
 11
1930.9509814768
 21
478.1319319843
 31
0.0
  0
LINE
  5
C7
330
46
100
AcDbEntity
  8
0
  6
Continuous
 62
     7
370
     0
100
AcDbLine
 10
1930.9509814768
 20
478.1319319843
 30
0.0
 11
1930.9509814768
 21
236.3770340105
 31
0.0
  0
LINE
  5
C8
330
46
100
AcDbEntity
  8
0
  6
Continuous
 62
     7
370
     0
100
AcDbLine
 10
1899.9243233154
 20
236.3770340105
 30
0.0
 11
1930.9509814768
 21
236.3770340105
 31
0.0
  0
LINE
  5
C9
330
46
100
AcDbEntity
  8
0
  6
Continuous
 62
     7
370
     0
100
AcDbLine
 10
1899.9243233154
 20
478.1319319843
 30
0.0
 11
1899.9243233154
 21
236.3770340105
 31
0.0
  0
LINE
  5
CA
330
46
100
AcDbEntity
  8
0
  6
Continuous
 62
     7
370
     0
100
AcDbLine
 10
-828.0393964006
 20
422.6709638731
 30
0.0
 11
-828.0393964006
 21
-422.6709638716
 31
0.0
  0
LINE
  5
CB
330
46
100
AcDbEntity
  8
0
  6
Continuous
 62
     7
370
     0
100
AcDbLine
 10
-883.6670100843
 20
-478.2985775552
 30
0.0
 11
-1213.6286423958
 21
-478.2985775552
 31
0.0
  0
LINE
  5
CC
330
46
100
AcDbEntity
  8
0
  6
Continuous
 62
     7
370
     0
100
AcDbLine
 10
-1645.1672890459
 20
80.1038430154
 30
0.0
 11
-1258.7325908564
 21
-455.2296069238
 31
0.0
  0
LINE
  5
CD
330
46
100
AcDbEntity
  8
0
  6
Continuous
 62
     7
370
     0
100
AcDbLine
 10
-1645.1672890459
 20
-422.6709638716
 30
0.0
 11
-1645.1672890459
 21
80.1038430154
 31
0.0
  0
LINE
  5
CE
330
46
100
AcDbEntity
  8
0
  6
Continuous
 62
     7
370
     0
100
AcDbLine
 10
-1775.2437764562
 20
-478.2985775552
 30
0.0
 11
-1700.7949027296
 21
-478.2985775552
 31
0.0
  0
LINE
  5
CF
330
46
100
AcDbEntity
  8
0
  6
Continuous
 62
     7
370
     0
100
AcDbLine
 10
-1815.7133305812
 20
-437.8290234302
 30
0.0
 11
-1815.7133305812
 21
437.8290234317
 31
0.0
  0
LINE
  5
D0
330
46
100
AcDbEntity
  8
0
  6
Continuous
 62
     7
370
     0
100
AcDbLine
 10
-1775.2437764562
 20
478.2985775568
 30
0.0
 11
-1587.1800722805
 21
478.2985775568
 31
0.0
  0
LINE
  5
D1
330
46
100
AcDbEntity
  8
0
  6
Continuous
 62
     7
370
     0
100
AcDbLine
 10
-1541.0081068318
 20
453.696453567
 30
0.0
 11
-1187.3127848469
 21
-72.6710058069
 31
0.0
  0
LINE
  5
D2
330
46
100
AcDbEntity
  8
0
  6
Continuous
 62
     7
370
     0
100
AcDbLine
 10
-1187.3127848469
 20
422.6709638731
 30
0.0
 11
-1187.3127848469
 21
-72.6710058069
 31
0.0
  0
LINE
  5
D3
330
46
100
AcDbEntity
  8
0
  6
Continuous
 62
     7
370
     0
100
AcDbLine
 10
-1131.6851711632
 20
478.2985775568
 30
0.0
 11
-883.6670100843
 21
478.2985775568
 31
0.0
  0
LINE
  5
D4
330
46
100
AcDbEntity
  8
0
  6
Continuous
 62
     7
370
     0
100
AcDbLine
 10
1017.407346375
 20
-516.7511474419
 30
0.0
 11
714.4350245406
 21
-150.5112144433
 31
0.0
  0
LINE
  5
D5
330
46
100
AcDbEntity
  8
0
  6
Continuous
 62
     7
370
     0
100
AcDbLine
 10
1213.0308279912
 20
-459.9471080694
 30
0.0
 11
1017.407346375
 21
-516.7511474419
 31
0.0
  0
LINE
  5
D6
330
46
100
AcDbEntity
  8
0
  6
Continuous
 62
     7
370
     0
100
AcDbLine
 10
711.6952449037
 20
44.9625243042
 30
0.0
 11
1213.0308279912
 21
-459.9471080694
 31
0.0
  0
LINE
  5
D7
330
46
100
AcDbEntity
  8
0
  6
Continuous
 62
     7
370
     0
100
AcDbLine
 10
831.1275949348
 20
701.7089474319
 30
0.0
 11
696.8608938965
 21
96.1996866255
 31
0.0
  0
LINE
  5
D8
330
46
100
AcDbEntity
  8
0
  6
Continuous
 62
     7
370
     0
100
AcDbLine
 10
654.2233913848
 20
650.4244691219
 30
0.0
 11
831.1275949348
 21
701.7089474319
 31
0.0
  0
LINE
  5
D9
330
46
100
AcDbEntity
  8
0
  6
Continuous
 62
     7
370
     0
100
AcDbLine
 10
597.5828959266
 20
257.3060998497
 30
0.0
 11
654.2233913848
 21
650.4244691219
 31
0.0
  0
LINE
  5
DA
330
46
100
AcDbEntity
  8
0
  6
Continuous
 62
     7
370
     0
100
AcDbLine
 10
253.5141723619
 20
535.311064356
 30
0.0
 11
499.2050032048
 21
230.3404375078
 31
0.0
  0
LINE
  5
DB
330
46
100
AcDbEntity
  8
0
  6
Continuous
 62
     7
370
     0
100
AcDbLine
 10
71.4751101005
 20
483.7361360042
 30
0.0
 11
253.5141723619
 21
535.311064356
 31
0.0
  0
LINE
  5
DC
330
46
100
AcDbEntity
  8
0
  6
Continuous
 62
     7
370
     0
100
AcDbLine
 10
504.2530480834
 20
39.9714311697
 30
0.0
 11
71.4751101005
 21
483.7361360042
 31
0.0
  0
LINE
  5
DD
330
46
100
AcDbEntity
  8
0
  6
Continuous
 62
     7
370
     0
100
AcDbLine
 10
354.1911083338
 20
-706.3181343381
 30
0.0
 11
518.561244287
 21
-11.676357309
 31
0.0
  0
LINE
  5
DE
330
46
100
AcDbEntity
  8
0
  6
Continuous
 62
     7
370
     0
100
AcDbLine
 10
548.3635036894
 20
-650.2784731642
 30
0.0
 11
354.1911083338
 21
-706.3181343381
 31
0.0
  0
LINE
  5
DF
330
46
100
AcDbEntity
  8
0
  6
Continuous
 62
     7
370
     0
100
AcDbLine
 10
616.5155103868
 20
-178.0236356717
 30
0.0
 11
548.3635036894
 21
-650.2784731642
 31
0.0
  0
LINE
  5
E0
330
46
100
AcDbEntity
  8
0
  6
Continuous
 62
     7
370
     0
100
AcDbLine
 10
-1844.615932681
 20
-478.2985775552
 30
0.0
 11
-1875.6425908424
 21
-478.2985775552
 31
0.0
  0
LINE
  5
E1
330
46
100
AcDbEntity
  8
0
  6
Continuous
 62
     7
370
     0
100
AcDbLine
 10
-1875.6425908424
 20
478.2985775568
 30
0.0
 11
-1875.6425908424
 21
-478.2985775552
 31
0.0
  0
LINE
  5
E2
330
46
100
AcDbEntity
  8
0
  6
Continuous
 62
     7
370
     0
100
AcDbLine
 10
-1844.615932681
 20
478.2985775568
 30
0.0
 11
-1875.6425908424
 21
478.2985775568
 31
0.0
  0
LINE
  5
E3
330
46
100
AcDbEntity
  8
0
  6
Continuous
 62
     7
370
     0
100
AcDbLine
 10
-1844.615932681
 20
478.2985775568
 30
0.0
 11
-1844.615932681
 21
-478.2985775552
 31
0.0
  0
LINE
  5
E4
330
46
100
AcDbEntity
  8
0
  6
Continuous
 62
     7
370
     0
100
AcDbLine
 10
-1930.9509814799
 20
478.2985775568
 30
0.0
 11
-1930.9509814799
 21
-478.2985775552
 31
0.0
  0
LINE
  5
E5
330
46
100
AcDbEntity
  8
0
  6
Continuous
 62
     7
370
     0
100
AcDbLine
 10
-1899.9243233185
 20
-478.2985775552
 30
0.0
 11
-1930.9509814799
 21
-478.2985775552
 31
0.0
  0
LINE
  5
E6
330
46
100
AcDbEntity
  8
0
  6
Continuous
 62
     7
370
     0
100
AcDbLine
 10
-1899.9243233185
 20
478.2985775568
 30
0.0
 11
-1899.9243233185
 21
-478.2985775552
 31
0.0
  0
LINE
  5
E7
330
46
100
AcDbEntity
  8
0
  6
Continuous
 62
     7
370
     0
100
AcDbLine
 10
-1899.9243233185
 20
478.2985775568
 30
0.0
 11
-1930.9509814799
 21
478.2985775568
 31
0.0
  0
LINE
  5
E8
330
46
100
AcDbEntity
  8
0
  6
Continuous
 62
     7
370
     0
100
AcDbLine
 10
274.7585310121
 20
-423.7014330253
 30
0.0
 11
274.7585310121
 21
-287.598587012
 31
0.0
  0
LINE
  5
E9
330
46
100
AcDbEntity
  8
0
  6
Continuous
 62
     7
370
     0
100
AcDbLine
 10
219.1309173284
 20
-231.9709733283
 30
0.0
 11
-399.9767730236
 21
-231.9709733283
 31
0.0
  0
LINE
  5
EA
330
46
100
AcDbEntity
  8
0
  6
Continuous
 62
     7
370
     0
100
AcDbLine
 10
-399.9767730236
 20
-231.9709733283
 30
0.0
 11
-399.9767730236
 21
-107.197428739
 31
0.0
  0
LINE
  5
EB
330
46
100
AcDbEntity
  8
0
  6
Continuous
 62
     7
370
     0
100
AcDbLine
 10
-399.9767730236
 20
-107.197428739
 30
0.0
 11
63.5912815337
 21
-107.197428739
 31
0.0
  0
LINE
  5
EC
330
46
100
AcDbEntity
  8
0
  6
Continuous
 62
     7
370
     0
100
AcDbLine
 10
119.2188952174
 20
-51.5698150553
 30
0.0
 11
119.2188952174
 21
73.5879902946
 31
0.0
  0
LINE
  5
ED
330
46
100
AcDbEntity
  8
0
  6
Continuous
 62
     7
370
     0
100
AcDbLine
 10
63.5912815337
 20
129.2156039783
 30
0.0
 11
-399.9767730236
 21
129.2156039783
 31
0.0
  0
LINE
  5
EE
330
46
100
AcDbEntity
  8
0
  6
Continuous
 62
     7
370
     0
100
AcDbLine
 10
-399.9767730236
 20
129.2156039783
 30
0.0
 11
-399.9767730236
 21
243.0151701681
 31
0.0
  0
LINE
  5
EF
330
46
100
AcDbEntity
  8
0
  6
Continuous
 62
     7
370
     0
100
AcDbLine
 10
-399.9767730236
 20
243.0151701681
 30
0.0
 11
150.833129344
 21
243.0151701681
 31
0.0
  0
LINE
  5
F0
330
46
100
AcDbEntity
  8
0
  6
Continuous
 62
     7
370
     0
100
AcDbLine
 10
403.2545801648
 20
-15.8144068439
 30
0.0
 11
150.833129344
 21
243.0151701681
 31
0.0
  0
LINE
  5
F1
330
46
100
AcDbEntity
  8
0
  6
Continuous
 62
     7
370
     0
100
AcDbLine
 10
224.0002791411
 20
-773.3578953924
 30
0.0
 11
403.2545801648
 21
-15.8144068439
 31
0.0
  0
LINE
  5
F2
330
46
100
AcDbEntity
  8
0
  6
Continuous
 62
     7
370
     0
100
AcDbLine
 10
613.7164845329
 20
-747.2131288653
 30
0.0
 11
293.5580392183
 21
-839.6133424205
 31
0.0
  0
LINE
  5
F3
330
46
100
AcDbEntity
  8
0
  6
Continuous
 62
     7
370
     0
100
AcDbLine
 10
708.7048394864
 20
-318.1258824569
 30
0.0
 11
653.3487426358
 21
-701.7123062352
 31
0.0
  0
LINE
  5
F4
330
46
100
AcDbEntity
  8
0
  6
Continuous
 62
     7
370
     0
100
AcDbLine
 10
954.9710302594
 20
-615.8181358695
 30
0.0
 11
708.7048394864
 21
-318.1258824569
 31
0.0
  0
LINE
  5
F5
330
46
100
AcDbEntity
  8
0
  6
Continuous
 62
     7
370
     0
100
AcDbLine
 10
1423.4824283569
 20
-514.6880496767
 30
0.0
 11
1013.3453817697
 21
-633.781323933
 31
0.0
  0
LINE
  5
F6
330
46
100
AcDbEntity
  8
0
  6
Continuous
 62
     7
370
     0
100
AcDbLine
 10
1387.9801424314
 20
-479.2131412023
 30
0.0
 11
1423.4824283569
 21
-514.6880496767
 31
0.0
  0
LINE
  5
F7
330
46
100
AcDbEntity
  8
0
  6
Continuous
 62
     7
370
     0
100
AcDbLine
 10
1586.1281146836
 20
-479.2131412023
 30
0.0
 11
1387.9801424314
 21
-479.2131412023
 31
0.0
  0
LINE
  5
F8
330
46
100
AcDbEntity
  8
0
  6
Continuous
 62
     7
370
     0
100
AcDbLine
 10
1641.7557283673
 20
236.3770340105
 30
0.0
 11
1641.7557283673
 21
-423.5855275187
 31
0.0
  0
LINE
  5
F9
330
46
100
AcDbEntity
  8
0
  6
Continuous
 62
     7
370
     0
100
AcDbLine
 10
1774.8734010732
 20
236.3770340105
 30
0.0
 11
1641.7557283673
 21
236.3770340105
 31
0.0
  0
LINE
  5
FA
330
46
100
AcDbEntity
  8
0
  6
Continuous
 62
     7
370
     0
100
AcDbLine
 10
1815.3429551982
 20
437.6623778593
 30
0.0
 11
1815.3429551982
 21
276.8465881355
 31
0.0
  0
LINE
  5
FB
330
46
100
AcDbEntity
  8
0
  6
Continuous
 62
     7
370
     0
100
AcDbLine
 10
978.923471261
 20
478.1319319843
 30
0.0
 11
1774.8734010732
 21
478.1319319843
 31
0.0
  0
LINE
  5
FC
330
46
100
AcDbEntity
  8
0
  6
Continuous
 62
     7
370
     0
100
AcDbLine
 10
923.2958575773
 20
291.6141658775
 30
0.0
 11
923.2958575773
 21
422.5043183007
 31
0.0
  0
LINE
  5
FD
330
46
100
AcDbEntity
  8
0
  6
Continuous
 62
     7
370
     0
100
AcDbLine
 10
1270.4292889102
 20
235.9865521938
 30
0.0
 11
978.923471261
 21
235.9865521938
 31
0.0
  0
LINE
  5
FE
330
46
100
AcDbEntity
  8
0
  6
Continuous
 62
     7
370
     0
100
AcDbLine
 10
1270.4292889102
 20
-359.8542803228
 30
0.0
 11
1270.4292889102
 21
235.9865521938
 31
0.0
  0
LINE
  5
FF
330
46
100
AcDbEntity
  8
0
  6
Continuous
 62
     7
370
     0
100
AcDbLine
 10
812.0571201107
 20
101.7856491419
 30
0.0
 11
1270.4292889102
 21
-359.8542803228
 31
0.0
  0
LINE
  5
100
330
46
100
AcDbEntity
  8
0
  6
Continuous
 62
     7
370
     0
100
AcDbLine
 10
960.0543808591
 20
769.216302194
 30
0.0
 11
812.0571201107
 21
101.7856491419
 31
0.0
  0
LINE
  5
101
330
46
100
AcDbEntity
  8
0
  6
Continuous
 62
     7
370
     0
100
AcDbLine
 10
588.791402329
 20
747.2917265603
 30
0.0
 11
890.2571963667
 21
834.686574536
 31
0.0
  0
LINE
  5
102
330
46
100
AcDbEntity
  8
0
  6
Continuous
 62
     7
370
     0
100
AcDbLine
 10
505.6855498589
 20
399.6348453204
 30
0.0
 11
549.2210481172
 21
701.7968222288
 31
0.0
  0
LINE
  5
103
330
46
100
AcDbEntity
  8
0
  6
Continuous
 62
     7
370
     0
100
AcDbLine
 10
317.0692969246
 20
633.760053387
 30
0.0
 11
505.6855498589
 21
399.6348453204
 31
0.0
  0
LINE
  5
104
330
46
100
AcDbEntity
  8
0
  6
Continuous
 62
     7
370
     0
100
AcDbLine
 10
-137.3002269205
 20
540.2205661397
 30
0.0
 11
258.5869996259
 21
652.3825114426
 31
0.0
  0
LINE
  5
105
330
46
100
AcDbEntity
  8
0
  6
Continuous
 62
     7
370
     0
100
AcDbLine
 10
-75.8399075956
 20
478.8076466881
 30
0.0
 11
-137.3002269205
 21
540.2205661397
 31
0.0
  0
LINE
  5
106
330
46
100
AcDbEntity
  8
0
  6
Continuous
 62
     7
370
     0
100
AcDbLine
 10
-716.7680027826
 20
478.8076466881
 30
0.0
 11
-75.8399075956
 21
478.8076466881
 31
0.0
  0
LINE
  5
107
330
46
100
AcDbEntity
  8
0
  6
Continuous
 62
     7
370
     0
100
AcDbLine
 10
-772.3956164663
 20
423.1800330044
 30
0.0
 11
-772.3956164663
 21
-423.7014330253
 31
0.0
  0
LINE
  5
108
330
46
100
AcDbEntity
  8
0
  6
Continuous
 62
     7
370
     0
100
AcDbLine
 10
-716.7680027826
 20
-479.3290467089
 30
0.0
 11
219.1309173284
 21
-479.329046709
 31
0.0
  0
ENDBLK
  5
48
330
46
100
AcDbEntity
  8
0
100
AcDbBlockEnd
  0
BLOCK
  5
212
330
211
100
AcDbEntity
  8
0
100
AcDbBlockBegin
  2
_D
 70
     0
 10
0.0
 20
0.0
 30
0.0
  3
_D
  1

  0
SOLID
  5
214
330
211
100
AcDbEntity
  8
MEDIÇÕES
100
AcDbTrace
 10
481.308929635
 20
383.3788983849
 30
0.0
 11
514.328929635
 21
378.2988983849
 31
0.0
 12
514.328929635
 22
388.4588983849
 32
0.0
 13
514.328929635
 23
388.4588983849
 33
0.0
  0
SOLID
  5
215
330
211
100
AcDbEntity
  8
MEDIÇÕES
100
AcDbTrace
 10
981.308929635
 20
383.3788983849
 30
0.0
 11
948.288929635
 21
388.4588983849
 31
0.0
 12
948.288929635
 22
378.2988983849
 32
0.0
 13
948.288929635
 23
378.2988983849
 33
0.0
  0
LINE
  5
216
330
211
100
AcDbEntity
  8
MEDIÇÕES
100
AcDbLine
 10
481.308929635
 20
499.3788983848
 30
0.0
 11
481.308929635
 21
373.3788983849
 31
0.0
  0
LINE
  5
217
330
211
100
AcDbEntity
  8
MEDIÇÕES
100
AcDbLine
 10
981.308929635
 20
499.3788983848
 30
0.0
 11
981.308929635
 21
373.3788983849
 31
0.0
  0
LINE
  5
218
330
211
100
AcDbEntity
  8
MEDIÇÕES
100
AcDbLine
 10
481.308929635
 20
383.3788983849
 30
0.0
 11
981.308929635
 21
383.3788983849
 31
0.0
  0
MTEXT
  5
219
330
211
100
AcDbEntity
  8
MEDIÇÕES
100
AcDbMText
 10
678.2985143492
 20
428.4962675307
 30
0.0999875
 40
35.0
 41
0.0
 71
     1
 72
     1
  1
500
  7
SLDTEXTSTYLE1
 73
     1
 44
1.0
  0
ENDBLK
  5
213
330
211
100
AcDbEntity
  8
0
100
AcDbBlockEnd
  0
BLOCK
  5
2A0
330
29F
100
AcDbEntity
  8
0
100
AcDbBlockBegin
  2
_D_1
 70
     0
 10
0.0
 20
0.0
 30
0.0
  3
_D_1
  1

  0
SOLID
  5
2A2
330
29F
100
AcDbEntity
  8
MEDIÇÕES
100
AcDbTrace
 10
1408.720998141
 20
483.3788983849
 30
0.0
 11
1413.800998141
 21
516.3988983849
 31
0.0
 12
1403.640998141
 22
516.3988983849
 32
0.0
 13
1403.640998141
 23
516.3988983849
 33
0.0
  0
SOLID
  5
2A3
330
29F
100
AcDbEntity
  8
MEDIÇÕES
100
AcDbTrace
 10
1408.720998141
 20
832.3788983848
 30
0.0
 11
1403.640998141
 21
799.3588983848
 31
0.0
 12
1413.800998141
 22
799.3588983848
 32
0.0
 13
1413.800998141
 23
799.3588983848
 33
0.0
  0
LINE
  5
2A4
330
29F
100
AcDbEntity
  8
MEDIÇÕES
100
AcDbLine
 10
1527.321048141
 20
483.3788983849
 30
0.0
 11
1398.720998141
 21
483.3788983849
 31
0.0
  0
LINE
  5
2A5
330
29F
100
AcDbEntity
  8
MEDIÇÕES
100
AcDbLine
 10
1503.721048141
 20
832.3788983848
 30
0.0
 11
1398.720998141
 21
832.3788983848
 31
0.0
  0
LINE
  5
2A6
330
29F
100
AcDbEntity
  8
MEDIÇÕES
100
AcDbLine
 10
1408.720998141
 20
483.3788983849
 30
0.0
 11
1408.720998141
 21
832.3788983848
 31
0.0
  0
MTEXT
  5
2A7
330
29F
100
AcDbEntity
  8
MEDIÇÕES
100
AcDbMText
 10
1363.6036289952
 20
604.868483099
 30
0.1
 40
35.0
 41
0.0
 71
     1
 72
     1
  1
349
  7
SLDTEXTSTYLE1
 11
6.123233995736766E-17
 21
1.0
 31
0.0
 73
     1
 44
1.0
  0
ENDBLK
  5
2A1
330
29F
100
AcDbEntity
  8
0
100
AcDbBlockEnd
  0
BLOCK
  5
2D3
330
2D2
100
AcDbEntity
  8
0
100
AcDbBlockBegin
  2
_D_2
 70
     0
 10
0.0
 20
0.0
 30
0.0
  3
_D_2
  1

  0
SOLID
  5
2D5
330
2D2
100
AcDbEntity
  8
MEDIÇÕES
100
AcDbTrace
 10
381.308929635
 20
1733.1655660518
 30
0.0
 11
376.228929635
 21
1700.1455660518
 31
0.0
 12
386.388929635
 22
1700.1455660518
 32
0.0
 13
386.388929635
 23
1700.1455660518
 33
0.0
  0
SOLID
  5
2D6
330
2D2
100
AcDbEntity
  8
MEDIÇÕES
100
AcDbTrace
 10
381.308929635
 20
1325.1655660518
 30
0.0
 11
386.388929635
 21
1358.1855660518
 31
0.0
 12
376.228929635
 22
1358.1855660518
 32
0.0
 13
376.228929635
 23
1358.1855660518
 33
0.0
  0
LINE
  5
2D7
330
2D2
100
AcDbEntity
  8
MEDIÇÕES
100
AcDbLine
 10
476.308929635
 20
1733.1655660518
 30
0.0
 11
371.308929635
 21
1733.1655660518
 31
0.0
  0
LINE
  5
2D8
330
2D2
100
AcDbEntity
  8
MEDIÇÕES
100
AcDbLine
 10
476.308929635
 20
1325.1655660518
 30
0.0
 11
371.308929635
 21
1325.1655660518
 31
0.0
  0
LINE
  5
2D9
330
2D2
100
AcDbEntity
  8
MEDIÇÕES
100
AcDbLine
 10
381.308929635
 20
1733.1655660518
 30
0.0
 11
381.308929635
 21
1325.1655660518
 31
0.0
  0
MTEXT
  5
2DA
330
2D2
100
AcDbEntity
  8
MEDIÇÕES
100
AcDbMText
 10
336.1915604893
 20
1476.155150766
 30
5.5999999999
 40
35.0
 41
0.0
 71
     1
 72
     1
  1
408
  7
SLDTEXTSTYLE1
 11
-7.044195017643634E-15
 21
1.0
 31
0.0
 73
     1
 44
1.0
  0
ENDBLK
  5
2D4
330
2D2
100
AcDbEntity
  8
0
100
AcDbBlockEnd
  0
ENDSEC
  0
SECTION
  2
ENTITIES
  0
LINE
  5
109
330
1F
100
AcDbEntity
  8
0
  6
Continuous
 62
     7
370
     0
100
AcDbLine
 10
73.6486218951
 20
2015.2546462079
 30
0.0
 11
2908.3430426184
 21
2015.2546462079
 31
0.0
  0
LINE
  5
10A
330
1F
100
AcDbEntity
  8
0
  6
Continuous
 62
     7
370
     0
100
AcDbLine
 10
73.6486218951
 20
2015.2546462079
 30
0.0
 11
73.6486218951
 21
52.0062153195
 31
0.0
  0
LINE
  5
10B
330
1F
100
AcDbEntity
  8
0
  6
Continuous
 62
     7
370
     0
100
AcDbLine
 10
73.6486218951
 20
52.0062153195
 30
0.0
 11
2908.3430426184
 21
52.0062153195
 31
0.0
  0
LINE
  5
10C
330
1F
100
AcDbEntity
  8
0
  6
Continuous
 62
     8
420
  8421504
370
    40
100
AcDbLine
 10
2065.3036793829
 20
289.6106299821
 30
0.0
 11
2908.3430426184
 21
289.6106299821
 31
0.0
  0
LINE
  5
10D
330
1F
100
AcDbEntity
  8
0
  6
Continuous
 62
     7
370
     0
100
AcDbLine
 10
2908.3430426184
 20
2015.2546462079
 30
0.0
 11
2908.3430426184
 21
52.0062153195
 31
0.0
  0
LINE
  5
10E
330
1F
100
AcDbEntity
  8
0
  6
Continuous
 62
     8
420
  8421504
370
    40
100
AcDbLine
 10
2065.3036793829
 20
244.0269995402
 30
0.0
 11
2908.3430426184
 21
244.0269995402
 31
0.0
  0
LINE
  5
10F
330
1F
100
AcDbEntity
  8
0
  6
Continuous
 62
     8
420
  8421504
370
    40
100
AcDbLine
 10
2065.3036793829
 20
104.4852736976
 30
0.0
 11
2908.3430426184
 21
104.4852736976
 31
0.0
  0
INSERT
  5
110
330
1F
100
AcDbEntity
  8
0
  6
Continuous
 62
     7
100
AcDbBlockReference
  2
Logo_Next.V3
 10
2533.2833433192
 20
385.1362543806
 30
0.0
 41
0.088
 42
0.088
 43
0.088
  0
MTEXT
  5
112
330
1F
100
AcDbEntity
  8
0
  6
Continuous
 62
     7
370
     0
100
AcDbMText
 10
2785.0
 20
84.3360149091
 30
0.0
 40
15.0
 41
0.0
 71
     1
 72
     1
  1
SHEET 1 OF 1
  7
SLDTEXTSTYLE0
 73
     1
 44
1.0
  0
MTEXT
  5
114
330
1F
100
AcDbEntity
  8
0
  6
Continuous
 62
     7
370
     0
100
AcDbMText
 10
2070.1338428396
 20
269.4144030073
 30
0.0
 40
13.2291666667
 41
0.0
 71
     1
 72
     1
  1
TITLE:
  7
SLDTEXTSTYLE1
 73
     1
 44
1.0
  0
MTEXT
  5
116
330
1F
100
AcDbEntity
  8
0
  6
Continuous
 62
     7
370
     0
100
AcDbMText
 10
2189.0191473576
 20
186.4031371449
 30
0.0
 40
26.4583333333
 41
0.0
 71
     1
 72
     1
  1
NC00556
  7
SLDTEXTSTYLE2
 73
     1
 44
1.0
  0
MTEXT
  5
117
330
1F
100
AcDbEntity
  8
0
  6
Continuous
 62
     7
370
     0
100
AcDbMText
 10
2760.0378578924
 20
132.5666195236
 30
0.0
 40
21.1666666667
 41
0.0
 71
     1
 72
     1
  1
06-11-2014
  7
SLDTEXTSTYLE2
 73
     1
 44
1.0
  0
MTEXT
  5
118
330
1F
100
AcDbEntity
  8
0
  6
Continuous
 62
     7
370
     0
100
AcDbMText
 10
2070.1338428396
 20
172.9511179359
 30
0.0
 40
13.2291666667
 41
0.0
 71
     1
 72
     1
  1
Reference :
  7
SLDTEXTSTYLE1
 73
     1
 44
1.0
  0
MTEXT
  5
119
330
1F
100
AcDbEntity
  8
0
  6
Continuous
 62
     7
370
     0
100
AcDbMText
 10
2725.0566539417
 20
124.4366111594
 30
0.0
 40
13.2291666667
 41
0.0
 71
     2
 72
     1
  1
Date:
  7
SLDTEXTSTYLE1
 73
     1
 44
1.0
  0
MTEXT
  5
11A
330
1F
100
AcDbEntity
  8
0
  6
Continuous
 62
     7
370
     0
100
AcDbMText
 10
2070.1338428396
 20
226.1682214746
 30
0.0
 40
13.2291666667
 41
0.0
 71
     1
 72
     1
  1
REVISION:
  7
SLDTEXTSTYLE1
 73
     1
 44
1.0
  0
MTEXT
  5
11B
330
1F
100
AcDbEntity
  8
0
  6
Continuous
 62
     7
370
     0
100
AcDbMText
 10
2189.0191473576
 20
234.0630452774
 30
0.0
 40
21.1666666667
 41
0.0
 71
     1
 72
     1
  1
V1.0
  7
SLDTEXTSTYLE1
 73
     1
 44
1.0
  0
MTEXT
  5
11C
330
1F
100
AcDbEntity
  8
0
  6
Continuous
 62
     7
370
     0
100
AcDbMText
 10
2532.5182715356
 20
278.2716088622
 30
0.0
 40
21.1666666667
 41
0.0
 71
     2
 72
     1
  1
NEXT XS12 - 12" Bandpass Subwoofer
  7
SLDTEXTSTYLE1
 73
     1
 44
1.0
  0
MTEXT
  5
11D
330
1F
100
AcDbEntity
  8
MEDIÇÕES
100
AcDbMText
 10
2414.0896881916
 20
84.9563102753
 30
0.0
 40
15.875
 41
0.0
 71
     1
 72
     1
  1
All dimensions in mm
  7
SLDTEXTSTYLE1
 73
     1
 44
1.0
  0
MTEXT
  5
11E
330
1F
100
AcDbEntity
  8
0
  6
Continuous
 62
     7
370
     0
100
AcDbMText
 10
2356.2250577519
 20
341.3159263744
 30
0.0
 40
32.0
 41
0.0
 71
     1
 72
     1
  1
proaudio
  7
SLDTEXTSTYLE1
 73
     1
 44
1.0
  0
LWPOLYLINE
  5
11F
330
1F
100
AcDbEntity
  8
0
  6
Continuous
 62
     7
370
    15
100
AcDbPolyline
 90
        3
 70
   128
 43
0.0
 10
542.6224097738
 20
484.7447912719
 10
542.965389801
 20
492.0618425633
 10
543.0739894638
 20
494.3788986232
  0
LWPOLYLINE
  5
120
330
1F
100
AcDbEntity
  8
0
  6
Continuous
 62
     7
370
    15
100
AcDbPolyline
 90
        3
 70
   128
 43
0.0
 10
507.5438693294
 20
494.3788986232
 10
507.6524689922
 20
492.0618425633
 10
507.9954490194
 20
484.7447912719
  0
ARC
  5
121
330
1F
100
AcDbEntity
  8
0
  6
Continuous
 62
     7
370
    15
100
AcDbCircle
 10
539.708929635
 20
483.8788983849
 30
0.0
 40
0.5
100
AcDbArc
 50
270.0
 51
0.0
  0
ARC
  5
122
330
1F
100
AcDbEntity
  8
0
  6
Continuous
 62
     7
370
    15
100
AcDbCircle
 10
510.908929635
 20
483.8788983849
 30
0.0
 40
0.5000000000000568
100
AcDbArc
 50
180.0
 51
270.0
  0
LINE
  5
123
330
1F
100
AcDbEntity
  8
0
  6
Continuous
 62
     7
370
    15
100
AcDbLine
 10
510.9089240561
 20
483.3788912322
 30
0.0
 11
539.7089347372
 21
483.3788912322
 31
0.0
  0
ARC
  5
124
330
1F
100
AcDbEntity
  8
0
  6
Continuous
 62
     7
370
    15
100
AcDbCircle
 10
541.6276092124
 20
484.8788934759
 30
0.0
 40
0.9999937798603186
100
AcDbArc
 50
269.9999450005
 51
356.3181517549
  0
ARC
  5
125
330
1F
100
AcDbEntity
  8
0
  6
Continuous
 62
     7
370
    15
100
AcDbCircle
 10
508.9902452479
 20
484.8788914959
 30
0.0
 40
0.9999917998221929
100
AcDbArc
 50
183.3934681785
 51
270.0003032614
  0
LWPOLYLINE
  5
126
330
1F
100
AcDbEntity
  8
0
  6
Continuous
 62
     7
370
    15
100
AcDbPolyline
 90
        3
 70
   128
 43
0.0
 10
954.6224102507
 20
484.7447912719
 10
954.9653902779
 20
492.0618425633
 10
955.0739899406
 20
494.3788986232
  0
LWPOLYLINE
  5
127
330
1F
100
AcDbEntity
  8
0
  6
Continuous
 62
     7
370
    15
100
AcDbPolyline
 90
        3
 70
   128
 43
0.0
 10
919.5438698063
 20
494.3788986232
 10
919.6524694691
 20
492.0618425633
 10
919.9954494963
 20
484.7447912719
  0
ARC
  5
128
330
1F
100
AcDbEntity
  8
0
  6
Continuous
 62
     7
370
    15
100
AcDbCircle
 10
951.708929635
 20
483.8788983849
 30
0.0
 40
0.5000000000000568
100
AcDbArc
 50
270.0
 51
0.0
  0
ARC
  5
129
330
1F
100
AcDbEntity
  8
0
  6
Continuous
 62
     7
370
    15
100
AcDbCircle
 10
922.908929635
 20
483.8788983849
 30
0.0
 40
0.5000000000000568
100
AcDbArc
 50
180.0
 51
270.0
  0
LINE
  5
12A
330
1F
100
AcDbEntity
  8
0
  6
Continuous
 62
     7
370
    15
100
AcDbLine
 10
922.9089245329
 20
483.3788912322
 30
0.0
 11
951.708935214
 21
483.3788912322
 31
0.0
  0
ARC
  5
12B
330
1F
100
AcDbEntity
  8
0
  6
Continuous
 62
     7
370
    15
100
AcDbCircle
 10
953.6276096893
 20
484.8788934759
 30
0.0
 40
0.9999937798606371
100
AcDbArc
 50
269.9999450005
 51
356.3181517549
  0
ARC
  5
12C
330
1F
100
AcDbEntity
  8
0
  6
Continuous
 62
     7
370
    15
100
AcDbCircle
 10
920.9902457247
 20
484.8788914959
 30
0.0
 40
0.9999917998220224
100
AcDbArc
 50
183.3934681785
 51
270.0003032614
  0
SPLINE
  5
12D
330
1F
100
AcDbEntity
  8
0
  6
Continuous
 62
     7
370
    15
100
AcDbSpline
210
0.0
220
0.0
230
1.0
 70
    24
 71
     3
 72
     9
 73
     5
 74
     0
 42
0.00000001
 43
0.00000001
 12
1.0
 22
0.0
 32
0.0
 13
1.0
 23
0.0
 33
0.0
 40
0.0
 40
0.0
 40
0.0
 40
0.0
 40
0.5937556166077556
 40
0.9999999999999999
 40
0.9999999999999999
 40
0.9999999999999999
 40
0.9999999999999999
 10
541.2668064365362
 20
484.832067372987
 30
0.0
 10
541.5090520132125
 20
484.832067372987
 30
0.0
 10
541.9170407040147
 20
484.832067372987
 30
0.0
 10
542.1663800297888
 20
484.8320673729871
 30
0.0
 10
542.2676727304433
 20
484.832067372987
 30
0.0
  0
SPLINE
  5
12E
330
1F
100
AcDbEntity
  8
0
  6
Continuous
 62
     7
370
    15
100
AcDbSpline
210
0.0
220
0.0
230
1.0
 70
     8
 71
     3
 72
     9
 73
     5
 74
     0
 42
0.00000001
 43
0.00000001
 12
1.0
 22
0.0
 32
0.0
 13
1.0
 23
0.0
 33
0.0
 40
0.0
 40
0.0
 40
0.0
 40
0.0
 40
0.5933591783932656
 40
1.0
 40
1.0
 40
1.0
 40
1.0
 10
539.6603420505498
 20
484.832067372987
 30
0.0
 10
540.0182942241281
 20
484.8320759639353
 30
0.0
 10
540.6215581266899
 20
484.832090442431
 30
0.0
 10
541.0802738840708
 20
484.832074042051
 30
0.0
 10
541.2668064365362
 20
484.832067372987
 30
0.0
  0
SPLINE
  5
12F
330
1F
100
AcDbEntity
  8
0
  6
Continuous
 62
     7
370
    15
100
AcDbSpline
210
0.0
220
0.0
230
1.0
 70
    24
 71
     3
 72
     9
 73
     5
 74
     0
 42
0.00000001
 43
0.00000001
 12
1.0
 22
0.0
 32
0.0
 13
1.0
 23
0.0
 33
0.0
 40
0.0
 40
0.0
 40
0.0
 40
0.0
 40
0.6315649022962626
 40
1.0
 40
1.0
 40
1.0
 40
1.0
 10
537.6538410911534
 20
484.832067372987
 30
0.0
 10
538.1091952201097
 20
484.832067372987
 30
0.0
 10
538.8301886244307
 20
484.832067372987
 30
0.0
 10
539.4368329786365
 20
484.832067372987
 30
0.0
 10
539.6603420505498
 20
484.832067372987
 30
0.0
  0
SPLINE
  5
130
330
1F
100
AcDbEntity
  8
0
  6
Continuous
 62
     7
370
    15
100
AcDbSpline
210
0.0
220
0.0
230
1.0
 70
     8
 71
     3
 72
     9
 73
     5
 74
     0
 42
0.00000001
 43
0.00000001
 12
1.0
 22
0.0
 32
0.0
 13
1.0
 23
0.0
 33
0.0
 40
0.0
 40
0.0
 40
0.0
 40
0.0
 40
0.5933620050648538
 40
0.9999999999999999
 40
0.9999999999999999
 40
0.9999999999999999
 40
0.9999999999999999
 10
535.0658372173284
 20
484.832067372987
 30
0.0
 10
535.6072137017943
 20
484.8320759639778
 30
0.0
 10
536.5196018895193
 20
484.832090442476
 30
0.0
 10
537.3259495110952
 20
484.8320740420311
 30
0.0
 10
537.6538410911534
 20
484.832067372987
 30
0.0
  0
SPLINE
  5
131
330
1F
100
AcDbEntity
  8
0
  6
Continuous
 62
     7
370
    15
100
AcDbSpline
210
0.0
220
0.0
230
1.0
 70
    24
 71
     3
 72
     9
 73
     5
 74
     0
 42
0.00000001
 43
0.00000001
 12
1.0
 22
0.0
 32
0.0
 13
1.0
 23
0.0
 33
0.0
 40
0.0
 40
0.0
 40
0.0
 40
0.0
 40
0.5937504282096494
 40
0.9999999999999999
 40
0.9999999999999999
 40
0.9999999999999999
 40
0.9999999999999999
 10
532.1098640689823
 20
484.832067372987
 30
0.0
 10
532.7174119874358
 20
484.8320673729871
 30
0.0
 10
533.7406498489819
 20
484.8320673729871
 30
0.0
 10
534.6830055978688
 20
484.832067372987
 30
0.0
 10
535.0658372173284
 20
484.832067372987
 30
0.0
  0
SPLINE
  5
132
330
1F
100
AcDbEntity
  8
0
  6
Continuous
 62
     7
370
    15
100
AcDbSpline
210
0.0
220
0.0
230
1.0
 70
     8
 71
     3
 72
     9
 73
     5
 74
     0
 42
0.00000001
 43
0.00000001
 12
1.0
 22
0.0
 32
0.0
 13
1.0
 23
0.0
 33
0.0
 40
0.0
 40
0.0
 40
0.0
 40
0.0
 40
0.3812020884148371
 40
1.0
 40
1.0
 40
1.0
 40
1.0
 10
527.0336941013311
 20
484.832067372987
 30
0.0
 10
527.6976368224271
 20
484.8320738699839
 30
0.0
 10
529.439344806916
 20
484.8320909134291
 30
0.0
 10
531.0890376085649
 20
484.8320763715014
 30
0.0
 10
532.1098640689823
 20
484.832067372987
 30
0.0
  0
SPLINE
  5
133
330
1F
100
AcDbEntity
  8
0
  6
Continuous
 62
     7
370
    15
100
AcDbSpline
210
0.0
220
0.0
230
1.0
 70
     8
 71
     3
 72
     9
 73
     5
 74
     0
 42
0.00000001
 43
0.00000001
 12
1.0
 22
0.0
 32
0.0
 13
1.0
 23
0.0
 33
0.0
 40
0.0
 40
0.0
 40
0.0
 40
0.0
 40
0.3811659966499399
 40
1.0
 40
1.0
 40
1.0
 40
1.0
 10
521.7991992959951
 20
484.832067372987
 30
0.0
 10
522.458543704594
 20
484.8320738697498
 30
0.0
 10
524.1883528019268
 20
484.8320909141947
 30
0.0
 10
525.9460013894386
 20
484.8320763721184
 30
0.0
 10
527.0336941013311
 20
484.832067372987
 30
0.0
  0
SPLINE
  5
134
330
1F
100
AcDbEntity
  8
0
  6
Continuous
 62
     7
370
    15
100
AcDbSpline
210
0.0
220
0.0
230
1.0
 70
    24
 71
     3
 72
     9
 73
     5
 74
     0
 42
0.00000001
 43
0.00000001
 12
1.0
 22
0.0
 32
0.0
 13
1.0
 23
0.0
 33
0.0
 40
0.0
 40
0.0
 40
0.0
 40
0.0
 40
0.5937556166077556
 40
0.9999999999999999
 40
0.9999999999999999
 40
0.9999999999999999
 40
0.9999999999999999
 10
518.5811147222494
 20
484.832067372987
 30
0.0
 10
519.2047455036766
 20
484.832067372987
 30
0.0
 10
520.2550610947782
 20
484.832067372987
 30
0.0
 10
521.3531193124345
 20
484.8320673729871
 30
0.0
 10
521.7991992959951
 20
484.832067372987
 30
0.0
  0
SPLINE
  5
135
330
1F
100
AcDbEntity
  8
0
  6
Continuous
 62
     7
370
    15
100
AcDbSpline
210
0.0
220
0.0
230
1.0
 70
     8
 71
     3
 72
     9
 73
     5
 74
     0
 42
0.00000001
 43
0.00000001
 12
1.0
 22
0.0
 32
0.0
 13
1.0
 23
0.0
 33
0.0
 40
0.0
 40
0.0
 40
0.0
 40
0.0
 40
0.5933651215151245
 40
1.0
 40
1.0
 40
1.0
 40
1.0
 10
515.6159326562856
 20
484.832067372987
 30
0.0
 10
516.1810905980236
 20
484.8320759640246
 30
0.0
 10
517.1335529542454
 20
484.8320904425256
 30
0.0
 10
518.1626485569103
 20
484.8320740420091
 30
0.0
 10
518.5811147222494
 20
484.832067372987
 30
0.0
  0
SPLINE
  5
136
330
1F
100
AcDbEntity
  8
0
  6
Continuous
 62
     7
370
    15
100
AcDbSpline
210
0.0
220
0.0
230
1.0
 70
    24
 71
     3
 72
     9
 73
     5
 74
     0
 42
0.00000001
 43
0.00000001
 12
1.0
 22
0.0
 32
0.0
 13
1.0
 23
0.0
 33
0.0
 40
0.0
 40
0.0
 40
0.0
 40
0.0
 40
0.6315636006895525
 40
1.0
 40
1.0
 40
1.0
 40
1.0
 10
513.1631419191335
 20
484.832067372987
 30
0.0
 10
513.6532182326636
 20
484.832067372987
 30
0.0
 10
514.4291912510499
 20
484.832067372987
 30
0.0
 10
515.2964156290581
 20
484.8320673729871
 30
0.0
 10
515.6159326562856
 20
484.832067372987
 30
0.0
  0
SPLINE
  5
137
330
1F
100
AcDbEntity
  8
0
  6
Continuous
 62
     7
370
    15
100
AcDbSpline
210
0.0
220
0.0
230
1.0
 70
     8
 71
     3
 72
     9
 73
     5
 74
     0
 42
0.00000001
 43
0.00000001
 12
1.0
 22
0.0
 32
0.0
 13
1.0
 23
0.0
 33
0.0
 40
0.0
 40
0.0
 40
0.0
 40
0.0
 40
0.593360213172277
 40
1.0
 40
1.0
 40
1.0
 40
1.0
 10
511.0008791217778
 20
484.832067372987
 30
0.0
 10
511.3938752981272
 20
484.8320759639508
 30
0.0
 10
512.0561983990448
 20
484.8320904424475
 30
0.0
 10
512.8431401096764
 20
484.8320740420436
 30
0.0
 10
513.1631419191335
 20
484.832067372987
 30
0.0
  0
SPLINE
  5
138
330
1F
100
AcDbEntity
  8
0
  6
Continuous
 62
     7
370
    15
100
AcDbSpline
210
0.0
220
0.0
230
1.0
 70
    24
 71
     3
 72
     9
 73
     5
 74
     0
 42
0.00000001
 43
0.00000001
 12
1.0
 22
0.0
 32
0.0
 13
1.0
 23
0.0
 33
0.0
 40
0.0
 40
0.0
 40
0.0
 40
0.0
 40
0.5937504282096494
 40
0.9999999999999999
 40
0.9999999999999999
 40
0.9999999999999999
 40
0.9999999999999999
 10
509.382076574323
 20
484.832067372987
 30
0.0
 10
509.6622430649147
 20
484.8320673729871
 30
0.0
 10
510.1341020771877
 20
484.8320673729871
 30
0.0
 10
510.7504770521408
 20
484.832067372987
 30
0.0
 10
511.0008791217778
 20
484.832067372987
 30
0.0
  0
SPLINE
  5
139
330
1F
100
AcDbEntity
  8
0
  6
Continuous
 62
     7
370
    15
100
AcDbSpline
210
0.0
220
0.0
230
1.0
 70
     8
 71
     3
 72
     9
 73
     5
 74
     0
 42
0.00000001
 43
0.00000001
 12
1.0
 22
0.0
 32
0.0
 13
1.0
 23
0.0
 33
0.0
 40
0.0
 40
0.0
 40
0.0
 40
0.0
 40
0.3812020884148371
 40
1.0
 40
1.0
 40
1.0
 40
1.0
 10
508.0769136676763
 20
484.832067372987
 30
0.0
 10
508.1632293012005
 20
484.8320738699839
 30
0.0
 10
508.3896594183153
 20
484.8320909134291
 30
0.0
 10
509.0027175084606
 20
484.8320763715014
 30
0.0
 10
509.382076574323
 20
484.832067372987
 30
0.0
  0
LINE
  5
13A
330
1F
100
AcDbEntity
  8
0
  6
Continuous
 62
     7
370
    15
100
AcDbLine
 10
508.0674365292
 20
484.8320822741
 30
0.0
 11
508.0769136677
 21
484.832067373
 31
0.0
  0
ARC
  5
13B
330
1F
100
AcDbEntity
  8
0
  6
Continuous
 62
     7
370
    15
100
AcDbCircle
 10
523.1133927868
 20
484.6123983795
 30
0.0
 40
1.332425982185403
100
AcDbArc
 50
170.5106696027
 51
213.4012280915
  0
ARC
  5
13C
330
1F
100
AcDbEntity
  8
0
  6
Continuous
 62
     7
370
    15
100
AcDbCircle
 10
524.6045901064
 20
484.6038128583
 30
0.0
 40
2.439804570339671
100
AcDbArc
 50
342.7153331698
 51
5.3681239271
  0
SPLINE
  5
13D
330
1F
100
AcDbEntity
  8
0
  6
Continuous
 62
     7
370
    15
100
AcDbSpline
210
0.0
220
0.0
230
1.0
 70
    24
 71
     3
 72
     9
 73
     5
 74
     0
 42
0.00000001
 43
0.00000001
 12
1.0
 22
0.0
 32
0.0
 13
1.0
 23
0.0
 33
0.0
 40
0.0
 40
0.0
 40
0.0
 40
0.0
 40
0.4942302744824954
 40
1.0
 40
1.0
 40
1.0
 40
1.0
 10
526.934213949201
 20
483.8788996960614
 30
0.0
 10
526.1167426307335
 20
483.8788996960614
 30
0.0
 10
524.4627134045326
 20
483.8788996960614
 30
0.0
 10
522.8278831655857
 20
483.8788996960614
 30
0.0
 10
522.0010355243658
 20
483.8788996960614
 30
0.0
  0
LWPOLYLINE
  5
13E
330
1F
100
AcDbEntity
  8
0
  6
Continuous
 62
     7
370
    15
100
AcDbPolyline
 90
        9
 70
   128
 43
0.0
 10
531.7181572447
 20
483.8788996961
 10
531.7924097309
 20
483.8969897058
 10
531.863965107
 20
483.9506040837
 10
531.9302603731
 20
484.037805679
 10
531.9888666401
 20
484.1554205443
 10
532.0376977453
 20
484.299231651
 10
532.0749506483
 20
484.4640086915
 10
532.0992991457
 20
484.6437912013
 10
532.109864069
 20
484.832067373
  0
SPLINE
  5
13F
330
1F
100
AcDbEntity
  8
0
  6
Continuous
 62
     7
370
    15
100
AcDbSpline
210
0.0
220
0.0
230
1.0
 70
    24
 71
     3
 72
     9
 73
     5
 74
     0
 42
0.00000001
 43
0.00000001
 12
1.0
 22
0.0
 32
0.0
 13
1.0
 23
0.0
 33
0.0
 40
0.0
 40
0.0
 40
0.0
 40
0.0
 40
0.4942587333121403
 40
1.0
 40
1.0
 40
1.0
 40
1.0
 10
531.7181572446798
 20
483.8788996960614
 30
0.0
 10
530.9531938215817
 20
483.8788996960614
 30
0.0
 10
529.405495477494
 20
483.8788996960614
 30
0.0
 10
527.7642563197674
 20
483.8788996960614
 30
0.0
 10
526.934213949201
 20
483.8788996960614
 30
0.0
  0
LWPOLYLINE
  5
140
330
1F
100
AcDbEntity
  8
0
  6
Continuous
 62
     7
370
    15
100
AcDbPolyline
 90
        9
 70
   128
 43
0.0
 10
518.9696326981
 20
483.8788996961
 10
518.8959762583
 20
483.8969897058
 10
518.8250020275
 20
483.9506040837
 10
518.7592581043
 20
484.037805679
 10
518.7011137733
 20
484.1554205443
 10
518.6526999006
 20
484.299231651
 10
518.6157450209
 20
484.4640086915
 10
518.5915902386
 20
484.6437912013
 10
518.5811147222
 20
484.832067373
  0
LINE
  5
141
330
1F
100
AcDbEntity
  8
0
  6
Continuous
 62
     7
370
    15
100
AcDbLine
 10
522.0010355244
 20
483.8788996961
 30
0.0
 11
518.9696326981
 21
483.8788996961
 31
0.0
  0
LWPOLYLINE
  5
142
330
1F
100
AcDbEntity
  8
0
  6
Continuous
 62
     7
370
    15
100
AcDbPolyline
 90
        9
 70
   128
 43
0.0
 10
516.1746367941
 20
483.8788996961
 10
516.0687342415
 20
483.8969897058
 10
515.9666612873
 20
483.9506040837
 10
515.8721134195
 20
484.037805679
 10
515.7885030041
 20
484.1554205443
 10
515.7188698778
 20
484.299231651
 10
515.665732337
 20
484.4640086915
 10
515.6309977303
 20
484.6437912013
 10
515.6159326563
 20
484.832067373
  0
LINE
  5
143
330
1F
100
AcDbEntity
  8
0
  6
Continuous
 62
     7
370
    15
100
AcDbLine
 10
518.9696326981
 20
483.8788996961
 30
0.0
 11
516.1746367941
 21
483.8788996961
 31
0.0
  0
LWPOLYLINE
  5
144
330
1F
100
AcDbEntity
  8
0
  6
Continuous
 62
     7
370
    15
100
AcDbPolyline
 90
        9
 70
   128
 43
0.0
 10
534.50264783
 20
483.8788996961
 10
534.6093997488
 20
483.8969897058
 10
534.7122922668
 20
483.9506040837
 10
534.8076000938
 20
484.037805679
 10
534.8918661604
 20
484.1554205443
 10
534.9620655308
 20
484.299231651
 10
535.0156352053
 20
484.4640086915
 10
535.0506380329
 20
484.6437912013
 10
535.0658372173
 20
484.832067373
  0
LINE
  5
145
330
1F
100
AcDbEntity
  8
0
  6
Continuous
 62
     7
370
    15
100
AcDbLine
 10
534.50264783
 20
483.8788996961
 30
0.0
 11
531.7181572447
 21
483.8788996961
 31
0.0
  0
ARC
  5
146
330
1F
100
AcDbEntity
  8
0
  6
Continuous
 62
     7
370
    15
100
AcDbCircle
 10
514.0335738625
 20
484.7378441938
 30
0.0
 40
0.8755168619765809
100
AcDbArc
 50
173.82185932
 51
258.8343232984
  0
LINE
  5
147
330
1F
100
AcDbEntity
  8
0
  6
Continuous
 62
     7
370
    15
100
AcDbLine
 10
516.1746367941
 20
483.8788996961
 30
0.0
 11
513.864032937
 21
483.8788996961
 31
0.0
  0
ARC
  5
148
330
1F
100
AcDbEntity
  8
0
  6
Continuous
 62
     7
370
    15
100
AcDbCircle
 10
536.7802057497
 20
484.7421014915
 30
0.0
 40
0.8782554125472584
100
AcDbArc
 50
280.6235565583
 51
5.8795232224
  0
LINE
  5
149
330
1F
100
AcDbEntity
  8
0
  6
Continuous
 62
     7
370
    15
100
AcDbLine
 10
536.9421169291
 20
483.8788996961
 30
0.0
 11
534.50264783
 21
483.8788996961
 31
0.0
  0
ARC
  5
14A
330
1F
100
AcDbEntity
  8
0
  6
Continuous
 62
     7
370
    15
100
AcDbCircle
 10
511.9160806178
 20
484.7905909557
 30
0.0
 40
0.916140857942505
100
AcDbArc
 50
177.4051629791
 51
264.3507233571
  0
LINE
  5
14B
330
1F
100
AcDbEntity
  8
0
  6
Continuous
 62
     7
370
    15
100
AcDbLine
 10
513.864032937
 20
483.8788996961
 30
0.0
 11
511.8258968124
 21
483.8788996961
 31
0.0
  0
ARC
  5
14C
330
1F
100
AcDbEntity
  8
0
  6
Continuous
 62
     7
370
    15
100
AcDbCircle
 10
538.7438565121
 20
484.791987842
 30
0.0
 40
0.9173614941585295
100
AcDbArc
 50
275.5324850848
 51
2.5040501228
  0
LINE
  5
14D
330
1F
100
AcDbEntity
  8
0
  6
Continuous
 62
     7
370
    15
100
AcDbLine
 10
538.8322994242
 20
483.8788996961
 30
0.0
 11
536.9421169291
 21
483.8788996961
 31
0.0
  0
ARC
  5
14E
330
1F
100
AcDbEntity
  8
0
  6
Continuous
 62
     7
370
    15
100
AcDbCircle
 10
510.3401614052
 20
484.8361915584
 30
0.0
 40
0.9580937073453871
100
AcDbArc
 50
180.2466346933
 51
267.6557218202
  0
LINE
  5
14F
330
1F
100
AcDbEntity
  8
0
  6
Continuous
 62
     7
370
    15
100
AcDbLine
 10
511.8258968124
 20
483.8788996961
 30
0.0
 11
510.3009715805
 21
483.8788996961
 31
0.0
  0
ARC
  5
150
330
1F
100
AcDbEntity
  8
0
  6
Continuous
 62
     7
370
    15
100
AcDbCircle
 10
540.3080627088
 20
484.8368824891
 30
0.0
 40
0.95875581922743
100
AcDbArc
 50
272.3009644943
 51
359.7122447819
  0
LINE
  5
151
330
1F
100
AcDbEntity
  8
0
  6
Continuous
 62
     7
370
    15
100
AcDbLine
 10
540.3465554247
 20
483.8788996961
 30
0.0
 11
538.8322994242
 21
483.8788996961
 31
0.0
  0
ARC
  5
152
330
1F
100
AcDbEntity
  8
0
  6
Continuous
 62
     7
370
    15
100
AcDbCircle
 10
509.0731761439
 20
484.8761335413
 30
0.0
 40
0.9972365560964334
100
AcDbArc
 50
182.5326266175
 51
269.8664052725
  0
SPLINE
  5
153
330
1F
100
AcDbEntity
  8
0
  6
Continuous
 62
     7
370
    15
100
AcDbSpline
210
0.0
220
0.0
230
1.0
 70
    24
 71
     3
 72
     9
 73
     5
 74
     0
 42
0.00000001
 43
0.00000001
 12
1.0
 22
0.0
 32
0.0
 13
1.0
 23
0.0
 33
0.0
 40
0.0
 40
0.0
 40
0.0
 40
0.0
 40
0.4942587333121403
 40
1.0
 40
1.0
 40
1.0
 40
1.0
 10
510.3009715805028
 20
483.8788996960614
 30
0.0
 10
510.0083851785202
 20
483.8788996960614
 30
0.0
 10
509.416415057887
 20
483.8788996960614
 30
0.0
 10
509.1869173719938
 20
483.8788996960614
 30
0.0
 10
509.0708509216283
 20
483.8788996960614
 30
0.0
  0
ARC
  5
154
330
1F
100
AcDbEntity
  8
0
  6
Continuous
 62
     7
370
    15
100
AcDbCircle
 10
541.279606691
 20
484.8675544803
 30
0.0
 40
0.9887031066822817
100
AcDbArc
 50
270.5664750515
 51
357.9430647233
  0
LINE
  5
155
330
1F
100
AcDbEntity
  8
0
  6
Continuous
 62
     7
370
    15
100
AcDbLine
 10
541.2893816957
 20
483.8788996961
 30
0.0
 11
540.3465554247
 21
483.8788996961
 31
0.0
  0
SPLINE
  5
156
330
1F
100
AcDbEntity
  8
0
  6
Continuous
 62
     7
370
    15
100
AcDbSpline
210
0.0
220
0.0
230
1.0
 70
    24
 71
     3
 72
     9
 73
     5
 74
     0
 42
0.00000001
 43
0.00000001
 12
1.0
 22
0.0
 32
0.0
 13
1.0
 23
0.0
 33
0.0
 40
0.0
 40
0.0
 40
0.0
 40
0.0
 40
0.5937556166077556
 40
0.9999999999999999
 40
0.9999999999999999
 40
0.9999999999999999
 40
0.9999999999999999
 10
953.2668069133733
 20
484.832067372987
 30
0.0
 10
953.5090524900495
 20
484.832067372987
 30
0.0
 10
953.9170411808517
 20
484.832067372987
 30
0.0
 10
954.1663805066258
 20
484.8320673729871
 30
0.0
 10
954.2676732072805
 20
484.832067372987
 30
0.0
  0
SPLINE
  5
157
330
1F
100
AcDbEntity
  8
0
  6
Continuous
 62
     7
370
    15
100
AcDbSpline
210
0.0
220
0.0
230
1.0
 70
     8
 71
     3
 72
     9
 73
     5
 74
     0
 42
0.00000001
 43
0.00000001
 12
1.0
 22
0.0
 32
0.0
 13
1.0
 23
0.0
 33
0.0
 40
0.0
 40
0.0
 40
0.0
 40
0.0
 40
0.5933591783932656
 40
1.0
 40
1.0
 40
1.0
 40
1.0
 10
951.660342527387
 20
484.832067372987
 30
0.0
 10
952.0182947009654
 20
484.8320759639353
 30
0.0
 10
952.6215586035271
 20
484.832090442431
 30
0.0
 10
953.0802743609079
 20
484.832074042051
 30
0.0
 10
953.2668069133733
 20
484.832067372987
 30
0.0
  0
SPLINE
  5
158
330
1F
100
AcDbEntity
  8
0
  6
Continuous
 62
     7
370
    15
100
AcDbSpline
210
0.0
220
0.0
230
1.0
 70
    24
 71
     3
 72
     9
 73
     5
 74
     0
 42
0.00000001
 43
0.00000001
 12
1.0
 22
0.0
 32
0.0
 13
1.0
 23
0.0
 33
0.0
 40
0.0
 40
0.0
 40
0.0
 40
0.0
 40
0.6315649022962626
 40
1.0
 40
1.0
 40
1.0
 40
1.0
 10
949.6538415679906
 20
484.832067372987
 30
0.0
 10
950.1091956969468
 20
484.832067372987
 30
0.0
 10
950.8301891012678
 20
484.832067372987
 30
0.0
 10
951.4368334554738
 20
484.832067372987
 30
0.0
 10
951.660342527387
 20
484.832067372987
 30
0.0
  0
SPLINE
  5
159
330
1F
100
AcDbEntity
  8
0
  6
Continuous
 62
     7
370
    15
100
AcDbSpline
210
0.0
220
0.0
230
1.0
 70
     8
 71
     3
 72
     9
 73
     5
 74
     0
 42
0.00000001
 43
0.00000001
 12
1.0
 22
0.0
 32
0.0
 13
1.0
 23
0.0
 33
0.0
 40
0.0
 40
0.0
 40
0.0
 40
0.0
 40
0.5933600952418827
 40
1.0
 40
1.0
 40
1.0
 40
1.0
 10
947.0658227930044
 20
484.832067372987
 30
0.0
 10
947.6071982307133
 20
484.8320759639491
 30
0.0
 10
948.5195875909858
 20
484.8320904424456
 30
0.0
 10
949.3259446217853
 20
484.8320740420446
 30
0.0
 10
949.6538415679906
 20
484.832067372987
 30
0.0
  0
SPLINE
  5
15A
330
1F
100
AcDbEntity
  8
0
  6
Continuous
 62
     7
370
    15
100
AcDbSpline
210
0.0
220
0.0
230
1.0
 70
    24
 71
     3
 72
     9
 73
     5
 74
     0
 42
0.00000001
 43
0.00000001
 12
1.0
 22
0.0
 32
0.0
 13
1.0
 23
0.0
 33
0.0
 40
0.0
 40
0.0
 40
0.0
 40
0.0
 40
0.5937526507808585
 40
1.0
 40
1.0
 40
1.0
 40
1.0
 10
944.1098645458196
 20
484.832067372987
 30
0.0
 10
944.7174131066929
 20
484.8320673729871
 30
0.0
 10
945.7406482199583
 20
484.8320673729871
 30
0.0
 10
946.6829963593393
 20
484.832067372987
 30
0.0
 10
947.0658227930044
 20
484.832067372987
 30
0.0
  0
SPLINE
  5
15B
330
1F
100
AcDbEntity
  8
0
  6
Continuous
 62
     7
370
    15
100
AcDbSpline
210
0.0
220
0.0
230
1.0
 70
     8
 71
     3
 72
     9
 73
     5
 74
     0
 42
0.00000001
 43
0.00000001
 12
1.0
 22
0.0
 32
0.0
 13
1.0
 23
0.0
 33
0.0
 40
0.0
 40
0.0
 40
0.0
 40
0.0
 40
0.3812020884148371
 40
1.0
 40
1.0
 40
1.0
 40
1.0
 10
939.0336945781683
 20
484.832067372987
 30
0.0
 10
939.6976372992642
 20
484.8320738699839
 30
0.0
 10
941.4393452837531
 20
484.8320909134291
 30
0.0
 10
943.0890380854021
 20
484.8320763715014
 30
0.0
 10
944.1098645458196
 20
484.832067372987
 30
0.0
  0
SPLINE
  5
15C
330
1F
100
AcDbEntity
  8
0
  6
Continuous
 62
     7
370
    15
100
AcDbSpline
210
0.0
220
0.0
230
1.0
 70
     8
 71
     3
 72
     9
 73
     5
 74
     0
 42
0.00000001
 43
0.00000001
 12
1.0
 22
0.0
 32
0.0
 13
1.0
 23
0.0
 33
0.0
 40
0.0
 40
0.0
 40
0.0
 40
0.0
 40
0.3811659966499399
 40
1.0
 40
1.0
 40
1.0
 40
1.0
 10
933.7991997728324
 20
484.832067372987
 30
0.0
 10
934.4585441814313
 20
484.8320738697498
 30
0.0
 10
936.188353278764
 20
484.8320909141947
 30
0.0
 10
937.9460018662758
 20
484.8320763721184
 30
0.0
 10
939.0336945781683
 20
484.832067372987
 30
0.0
  0
SPLINE
  5
15D
330
1F
100
AcDbEntity
  8
0
  6
Continuous
 62
     7
370
    15
100
AcDbSpline
210
0.0
220
0.0
230
1.0
 70
    24
 71
     3
 72
     9
 73
     5
 74
     0
 42
0.00000001
 43
0.00000001
 12
1.0
 22
0.0
 32
0.0
 13
1.0
 23
0.0
 33
0.0
 40
0.0
 40
0.0
 40
0.0
 40
0.0
 40
0.5937556166077556
 40
0.9999999999999999
 40
0.9999999999999999
 40
0.9999999999999999
 40
0.9999999999999999
 10
930.5811151990865
 20
484.832067372987
 30
0.0
 10
931.2047459805138
 20
484.832067372987
 30
0.0
 10
932.2550615716153
 20
484.832067372987
 30
0.0
 10
933.3531197892717
 20
484.8320673729871
 30
0.0
 10
933.7991997728324
 20
484.832067372987
 30
0.0
  0
SPLINE
  5
15E
330
1F
100
AcDbEntity
  8
0
  6
Continuous
 62
     7
370
    15
100
AcDbSpline
210
0.0
220
0.0
230
1.0
 70
     8
 71
     3
 72
     9
 73
     5
 74
     0
 42
0.00000001
 43
0.00000001
 12
1.0
 22
0.0
 32
0.0
 13
1.0
 23
0.0
 33
0.0
 40
0.0
 40
0.0
 40
0.0
 40
0.0
 40
0.5933612078708086
 40
1.0
 40
1.0
 40
1.0
 40
1.0
 10
927.6159331331228
 20
484.832067372987
 30
0.0
 10
928.1810854519865
 20
484.8320759639657
 30
0.0
 10
929.1335446140736
 20
484.8320904424633
 30
0.0
 10
930.1626436216602
 20
484.8320740420367
 30
0.0
 10
930.5811151990865
 20
484.832067372987
 30
0.0
  0
SPLINE
  5
15F
330
1F
100
AcDbEntity
  8
0
  6
Continuous
 62
     7
370
    15
100
AcDbSpline
210
0.0
220
0.0
230
1.0
 70
    24
 71
     3
 72
     9
 73
     5
 74
     0
 42
0.00000001
 43
0.00000001
 12
1.0
 22
0.0
 32
0.0
 13
1.0
 23
0.0
 33
0.0
 40
0.0
 40
0.0
 40
0.0
 40
0.0
 40
0.6315636006895525
 40
1.0
 40
1.0
 40
1.0
 40
1.0
 10
925.1631423959707
 20
484.832067372987
 30
0.0
 10
925.6532187095007
 20
484.832067372987
 30
0.0
 10
926.4291917278872
 20
484.832067372987
 30
0.0
 10
927.2964161058952
 20
484.8320673729871
 30
0.0
 10
927.6159331331228
 20
484.832067372987
 30
0.0
  0
SPLINE
  5
160
330
1F
100
AcDbEntity
  8
0
  6
Continuous
 62
     7
370
    15
100
AcDbSpline
210
0.0
220
0.0
230
1.0
 70
     8
 71
     3
 72
     9
 73
     5
 74
     0
 42
0.00000001
 43
0.00000001
 12
1.0
 22
0.0
 32
0.0
 13
1.0
 23
0.0
 33
0.0
 40
0.0
 40
0.0
 40
0.0
 40
0.0
 40
0.593360213172277
 40
1.0
 40
1.0
 40
1.0
 40
1.0
 10
923.000879598615
 20
484.832067372987
 30
0.0
 10
923.3938757749644
 20
484.8320759639508
 30
0.0
 10
924.0561988758819
 20
484.8320904424475
 30
0.0
 10
924.8431405865136
 20
484.8320740420436
 30
0.0
 10
925.1631423959707
 20
484.832067372987
 30
0.0
  0
SPLINE
  5
161
330
1F
100
AcDbEntity
  8
0
  6
Continuous
 62
     7
370
    15
100
AcDbSpline
210
0.0
220
0.0
230
1.0
 70
    24
 71
     3
 72
     9
 73
     5
 74
     0
 42
0.00000001
 43
0.00000001
 12
1.0
 22
0.0
 32
0.0
 13
1.0
 23
0.0
 33
0.0
 40
0.0
 40
0.0
 40
0.0
 40
0.0
 40
0.5937504282096494
 40
0.9999999999999999
 40
0.9999999999999999
 40
0.9999999999999999
 40
0.9999999999999999
 10
921.3820770511602
 20
484.832067372987
 30
0.0
 10
921.6622435417518
 20
484.8320673729871
 30
0.0
 10
922.1341025540247
 20
484.8320673729871
 30
0.0
 10
922.750477528978
 20
484.832067372987
 30
0.0
 10
923.000879598615
 20
484.832067372987
 30
0.0
  0
SPLINE
  5
162
330
1F
100
AcDbEntity
  8
0
  6
Continuous
 62
     7
370
    15
100
AcDbSpline
210
0.0
220
0.0
230
1.0
 70
     8
 71
     3
 72
     9
 73
     5
 74
     0
 42
0.00000001
 43
0.00000001
 12
1.0
 22
0.0
 32
0.0
 13
1.0
 23
0.0
 33
0.0
 40
0.0
 40
0.0
 40
0.0
 40
0.0
 40
0.3812020884148371
 40
1.0
 40
1.0
 40
1.0
 40
1.0
 10
920.0769141445135
 20
484.832067372987
 30
0.0
 10
920.1632297780377
 20
484.8320738699839
 30
0.0
 10
920.3896598951525
 20
484.8320909134291
 30
0.0
 10
921.0027179852979
 20
484.8320763715014
 30
0.0
 10
921.3820770511602
 20
484.832067372987
 30
0.0
  0
LINE
  5
163
330
1F
100
AcDbEntity
  8
0
  6
Continuous
 62
     7
370
    15
100
AcDbLine
 10
920.067437006
 20
484.8320822741
 30
0.0
 11
920.0769141445
 21
484.832067373
 31
0.0
  0
ARC
  5
164
330
1F
100
AcDbEntity
  8
0
  6
Continuous
 62
     7
370
    15
100
AcDbCircle
 10
935.1133932637
 20
484.6123983795
 30
0.0
 40
1.332425982184234
100
AcDbArc
 50
170.5106696027
 51
213.4012280915
  0
ARC
  5
165
330
1F
100
AcDbEntity
  8
0
  6
Continuous
 62
     7
370
    15
100
AcDbCircle
 10
936.6045905833
 20
484.6038128583
 30
0.0
 40
2.439804570342944
100
AcDbArc
 50
342.7153331698
 51
5.3681239271
  0
SPLINE
  5
166
330
1F
100
AcDbEntity
  8
0
  6
Continuous
 62
     7
370
    15
100
AcDbSpline
210
0.0
220
0.0
230
1.0
 70
    24
 71
     3
 72
     9
 73
     5
 74
     0
 42
0.00000001
 43
0.00000001
 12
1.0
 22
0.0
 32
0.0
 13
1.0
 23
0.0
 33
0.0
 40
0.0
 40
0.0
 40
0.0
 40
0.0
 40
0.4942302744824954
 40
1.0
 40
1.0
 40
1.0
 40
1.0
 10
938.9342144260382
 20
483.8788996960614
 30
0.0
 10
938.1167431075708
 20
483.8788996960614
 30
0.0
 10
936.4627138813696
 20
483.8788996960614
 30
0.0
 10
934.8278836424228
 20
483.8788996960614
 30
0.0
 10
934.001036001203
 20
483.8788996960614
 30
0.0
  0
LWPOLYLINE
  5
167
330
1F
100
AcDbEntity
  8
0
  6
Continuous
 62
     7
370
    15
100
AcDbPolyline
 90
        9
 70
   128
 43
0.0
 10
943.7181577215
 20
483.8788996961
 10
943.7924102077
 20
483.8969897058
 10
943.8639655838
 20
483.9506040837
 10
943.93026085
 20
484.037805679
 10
943.9888671169
 20
484.1554205443
 10
944.0376982222
 20
484.299231651
 10
944.0749511251
 20
484.4640086915
 10
944.0992996225
 20
484.6437912013
 10
944.1098645458
 20
484.832067373
  0
SPLINE
  5
168
330
1F
100
AcDbEntity
  8
0
  6
Continuous
 62
     7
370
    15
100
AcDbSpline
210
0.0
220
0.0
230
1.0
 70
    24
 71
     3
 72
     9
 73
     5
 74
     0
 42
0.00000001
 43
0.00000001
 12
1.0
 22
0.0
 32
0.0
 13
1.0
 23
0.0
 33
0.0
 40
0.0
 40
0.0
 40
0.0
 40
0.0
 40
0.4942587333121403
 40
1.0
 40
1.0
 40
1.0
 40
1.0
 10
943.7181577215171
 20
483.8788996960614
 30
0.0
 10
942.9531942984189
 20
483.8788996960614
 30
0.0
 10
941.4054959543314
 20
483.8788996960614
 30
0.0
 10
939.7642567966047
 20
483.8788996960614
 30
0.0
 10
938.9342144260382
 20
483.8788996960614
 30
0.0
  0
LWPOLYLINE
  5
169
330
1F
100
AcDbEntity
  8
0
  6
Continuous
 62
     7
370
    15
100
AcDbPolyline
 90
        9
 70
   128
 43
0.0
 10
930.9696331749
 20
483.8788996961
 10
930.8959767351
 20
483.8969897058
 10
930.8250025043
 20
483.9506040837
 10
930.7592585812
 20
484.037805679
 10
930.7011142502
 20
484.1554205443
 10
930.6527003775
 20
484.299231651
 10
930.6157454977
 20
484.4640086915
 10
930.5915907154
 20
484.6437912013
 10
930.5811151991
 20
484.832067373
  0
LINE
  5
16A
330
1F
100
AcDbEntity
  8
0
  6
Continuous
 62
     7
370
    15
100
AcDbLine
 10
934.0010360012
 20
483.8788996961
 30
0.0
 11
930.9696331749
 21
483.8788996961
 31
0.0
  0
LWPOLYLINE
  5
16B
330
1F
100
AcDbEntity
  8
0
  6
Continuous
 62
     7
370
    15
100
AcDbPolyline
 90
        9
 70
   128
 43
0.0
 10
928.1746372709
 20
483.8788996961
 10
928.0687347183
 20
483.8969897058
 10
927.9666617641
 20
483.9506040837
 10
927.8721138964
 20
484.037805679
 10
927.7885034809
 20
484.1554205443
 10
927.7188703546
 20
484.299231651
 10
927.6657328138
 20
484.4640086915
 10
927.6309982071
 20
484.6437912013
 10
927.6159331331
 20
484.832067373
  0
LINE
  5
16C
330
1F
100
AcDbEntity
  8
0
  6
Continuous
 62
     7
370
    15
100
AcDbLine
 10
930.9696331749
 20
483.8788996961
 30
0.0
 11
928.1746372709
 21
483.8788996961
 31
0.0
  0
LWPOLYLINE
  5
16D
330
1F
100
AcDbEntity
  8
0
  6
Continuous
 62
     7
370
    15
100
AcDbPolyline
 90
        9
 70
   128
 43
0.0
 10
946.5026483068
 20
483.8788996961
 10
946.6094002256
 20
483.8969897058
 10
946.7122927437
 20
483.9506040837
 10
946.8076005707
 20
484.037805679
 10
946.8918666372
 20
484.1554205443
 10
946.9620660076
 20
484.299231651
 10
947.0156356821
 20
484.4640086915
 10
947.0506385097
 20
484.6437912013
 10
947.065822793
 20
484.832067373
  0
LINE
  5
16E
330
1F
100
AcDbEntity
  8
0
  6
Continuous
 62
     7
370
    15
100
AcDbLine
 10
946.5026483068
 20
483.8788996961
 30
0.0
 11
943.7181577215
 21
483.8788996961
 31
0.0
  0
ARC
  5
16F
330
1F
100
AcDbEntity
  8
0
  6
Continuous
 62
     7
370
    15
100
AcDbCircle
 10
926.0335743394
 20
484.7378441938
 30
0.0
 40
0.8755168619764111
100
AcDbArc
 50
173.82185932
 51
258.8343232984
  0
LINE
  5
170
330
1F
100
AcDbEntity
  8
0
  6
Continuous
 62
     7
370
    15
100
AcDbLine
 10
928.1746372709
 20
483.8788996961
 30
0.0
 11
925.8640334139
 21
483.8788996961
 31
0.0
  0
ARC
  5
171
330
1F
100
AcDbEntity
  8
0
  6
Continuous
 62
     7
370
    15
100
AcDbCircle
 10
948.7802062265
 20
484.7421014915
 30
0.0
 40
0.8782554125472932
100
AcDbArc
 50
280.6235565583
 51
5.8795232224
  0
LINE
  5
172
330
1F
100
AcDbEntity
  8
0
  6
Continuous
 62
     7
370
    15
100
AcDbLine
 10
948.9421174059
 20
483.8788996961
 30
0.0
 11
946.5026483068
 21
483.8788996961
 31
0.0
  0
ARC
  5
173
330
1F
100
AcDbEntity
  8
0
  6
Continuous
 62
     7
370
    15
100
AcDbCircle
 10
923.9160810947
 20
484.7905909557
 30
0.0
 40
0.9161408579424873
100
AcDbArc
 50
177.4051629791
 51
264.3507233571
  0
LINE
  5
174
330
1F
100
AcDbEntity
  8
0
  6
Continuous
 62
     7
370
    15
100
AcDbLine
 10
925.8640334139
 20
483.8788996961
 30
0.0
 11
923.8258972893
 21
483.8788996961
 31
0.0
  0
ARC
  5
175
330
1F
100
AcDbEntity
  8
0
  6
Continuous
 62
     7
370
    15
100
AcDbCircle
 10
950.743856989
 20
484.791987842
 30
0.0
 40
0.9173614941585405
100
AcDbArc
 50
275.5324850848
 51
2.5040501228
  0
LINE
  5
176
330
1F
100
AcDbEntity
  8
0
  6
Continuous
 62
     7
370
    15
100
AcDbLine
 10
950.832299901
 20
483.8788996961
 30
0.0
 11
948.9421174059
 21
483.8788996961
 31
0.0
  0
ARC
  5
177
330
1F
100
AcDbEntity
  8
0
  6
Continuous
 62
     7
370
    15
100
AcDbCircle
 10
922.3401553326
 20
484.8361852445
 30
0.0
 40
0.958087130812254
100
AcDbArc
 50
180.2462587949
 51
267.6560977186
  0
LINE
  5
178
330
1F
100
AcDbEntity
  8
0
  6
Continuous
 62
     7
370
    15
100
AcDbLine
 10
923.8258972893
 20
483.8788996961
 30
0.0
 11
922.3009720573
 21
483.8788996961
 31
0.0
  0
ARC
  5
179
330
1F
100
AcDbEntity
  8
0
  6
Continuous
 62
     7
370
    15
100
AcDbCircle
 10
952.3080631856
 20
484.8368824891
 30
0.0
 40
0.9587558192275021
100
AcDbArc
 50
272.3009644943
 51
359.7122447819
  0
LINE
  5
17A
330
1F
100
AcDbEntity
  8
0
  6
Continuous
 62
     7
370
    15
100
AcDbLine
 10
952.3465559015
 20
483.8788996961
 30
0.0
 11
950.832299901
 21
483.8788996961
 31
0.0
  0
ARC
  5
17B
330
1F
100
AcDbEntity
  8
0
  6
Continuous
 62
     7
370
    15
100
AcDbCircle
 10
921.0731766208
 20
484.8761335413
 30
0.0
 40
0.9972365560963888
100
AcDbArc
 50
182.5326266175
 51
269.8664052726
  0
SPLINE
  5
17C
330
1F
100
AcDbEntity
  8
0
  6
Continuous
 62
     7
370
    15
100
AcDbSpline
210
0.0
220
0.0
230
1.0
 70
    24
 71
     3
 72
     9
 73
     5
 74
     0
 42
0.00000001
 43
0.00000001
 12
1.0
 22
0.0
 32
0.0
 13
1.0
 23
0.0
 33
0.0
 40
0.0
 40
0.0
 40
0.0
 40
0.0
 40
0.4942587333121403
 40
1.0
 40
1.0
 40
1.0
 40
1.0
 10
922.30097205734
 20
483.8788996960614
 30
0.0
 10
922.0083856553572
 20
483.8788996960614
 30
0.0
 10
921.4164155347244
 20
483.8788996960614
 30
0.0
 10
921.1869178488311
 20
483.8788996960614
 30
0.0
 10
921.0708513984656
 20
483.8788996960614
 30
0.0
  0
ARC
  5
17D
330
1F
100
AcDbEntity
  8
0
  6
Continuous
 62
     7
370
    15
100
AcDbCircle
 10
953.2796008666
 20
484.8675609476
 30
0.0
 40
0.9887096359802665
100
AcDbArc
 50
270.5668364838
 51
357.942703291
  0
LINE
  5
17E
330
1F
100
AcDbEntity
  8
0
  6
Continuous
 62
     7
370
    15
100
AcDbLine
 10
953.2893821726
 20
483.8788996961
 30
0.0
 11
952.3465559015
 21
483.8788996961
 31
0.0
  0
LINE
  5
17F
330
1F
100
AcDbEntity
  8
0
  6
Continuous
 62
     7
370
    15
100
AcDbLine
 10
759.8069012294
 20
691.7150172915
 30
0.0
 11
757.3396414647
 21
674.5907816615
 31
0.0
  0
LINE
  5
180
330
1F
100
AcDbEntity
  8
0
  6
Continuous
 62
     7
370
    15
100
AcDbLine
 10
767.512846751
 20
693.9489695754
 30
0.0
 11
759.8069012294
 21
691.7150172915
 31
0.0
  0
LINE
  5
181
330
1F
100
AcDbEntity
  8
0
  6
Continuous
 62
     7
370
    15
100
AcDbLine
 10
784.1485515366
 20
643.3472320016
 30
0.0
 11
762.310374541
 21
665.341095398
 31
0.0
  0
ARC
  5
182
330
1F
100
AcDbEntity
  8
0
  6
Continuous
 62
     7
370
    15
100
AcDbCircle
 10
764.0298674034
 20
667.0484167967
 30
0.0
 40
2.423138852058902
100
AcDbArc
 50
167.4974268903
 51
224.7964938611
  0
LINE
  5
183
330
1F
100
AcDbEntity
  8
0
  6
Continuous
 62
     7
370
    15
100
AcDbLine
 10
761.6641894112
 20
667.5729861993
 30
0.0
 11
767.512846751
 21
693.9489695754
 31
0.0
  0
ARC
  5
184
330
1F
100
AcDbEntity
  8
0
  6
Continuous
 62
     7
370
    15
100
AcDbCircle
 10
754.9412678259
 20
674.9363391862
 30
0.0
 40
2.423138852059302
100
AcDbArc
 50
218.8556584935
 51
351.801246054
  0
LINE
  5
185
330
1F
100
AcDbEntity
  8
0
  6
Continuous
 62
     7
370
    15
100
AcDbLine
 10
753.054300336
 20
673.4161575835
 30
0.0
 11
742.3520069698
 21
686.7006778296
 31
0.0
  0
LINE
  5
186
330
1F
100
AcDbEntity
  8
0
  6
Continuous
 62
     7
370
    15
100
AcDbLine
 10
742.3520069698
 20
686.7006778296
 30
0.0
 11
734.4223854726
 21
684.4540744599
 31
0.0
  0
LINE
  5
187
330
1F
100
AcDbEntity
  8
0
  6
Continuous
 62
     7
370
    15
100
AcDbLine
 10
734.4223854726
 20
684.4540744599
 30
0.0
 11
753.2741930464
 21
665.123683498
 31
0.0
  0
ARC
  5
188
330
1F
100
AcDbEntity
  8
0
  6
Continuous
 62
     7
370
    15
100
AcDbCircle
 10
751.5394344256
 20
663.4318747801
 30
0.0
 40
2.423138852059207
100
AcDbArc
 50
346.687206778
 51
44.2818804504
  0
LINE
  5
189
330
1F
100
AcDbEntity
  8
0
  6
Continuous
 62
     7
370
    15
100
AcDbLine
 10
753.8974583278
 20
662.8739057735
 30
0.0
 11
746.7374941463
 21
632.615309539
 31
0.0
  0
LINE
  5
18A
330
1F
100
AcDbEntity
  8
0
  6
Continuous
 62
     7
370
    15
100
AcDbLine
 10
746.7374941463
 20
632.615309539
 30
0.0
 11
755.1956437657
 21
635.0563972767
 31
0.0
  0
LINE
  5
18B
330
1F
100
AcDbEntity
  8
0
  6
Continuous
 62
     7
370
    15
100
AcDbLine
 10
755.1956437657
 20
635.0563972767
 30
0.0
 11
758.1643443683
 21
655.6278181772
 31
0.0
  0
ARC
  5
18C
330
1F
100
AcDbEntity
  8
0
  6
Continuous
 62
     7
370
    15
100
AcDbCircle
 10
760.5626394494
 20
655.2817158962
 30
0.0
 40
2.423138852059313
100
AcDbArc
 50
39.599284803
 51
171.7882282765
  0
LINE
  5
18D
330
1F
100
AcDbEntity
  8
0
  6
Continuous
 62
     7
370
    15
100
AcDbLine
 10
762.4297198037
 20
656.8262594331
 30
0.0
 11
775.6271921227
 21
640.8728476192
 31
0.0
  0
LINE
  5
18E
330
1F
100
AcDbEntity
  8
0
  6
Continuous
 62
     7
370
    15
100
AcDbLine
 10
775.6271921227
 20
640.8728476192
 30
0.0
 11
784.1485515366
 21
643.3472320016
 31
0.0
  0
LINE
  5
18F
330
1F
100
AcDbEntity
  8
0
  6
Continuous
 62
     7
370
    15
100
AcDbLine
 10
549.3089333305
 20
817.3788975503
 30
0.0
 11
549.3089333305
 21
509.3788992192
 31
0.0
  0
LINE
  5
190
330
1F
100
AcDbEntity
  8
0
  6
Continuous
 62
     7
370
    15
100
AcDbLine
 10
546.3089272509
 20
509.3788992192
 30
0.0
 11
546.3089272509
 21
817.3788975503
 31
0.0
  0
LINE
  5
191
330
1F
100
AcDbEntity
  8
0
  6
Continuous
 62
     7
370
    15
100
AcDbLine
 10
913.3089259396
 20
509.3788992192
 30
0.0
 11
913.3089259396
 21
817.3788975503
 31
0.0
  0
LINE
  5
192
330
1F
100
AcDbEntity
  8
0
  6
Continuous
 62
     7
370
    15
100
AcDbLine
 10
916.3089320192
 20
817.3788975503
 30
0.0
 11
916.3089320192
 21
509.3788992192
 31
0.0
  0
ARC
  5
193
330
1F
100
AcDbEntity
  8
0
  6
Continuous
 62
     7
370
    15
100
AcDbCircle
 10
657.2223036721
 20
644.970980739
 30
0.0
 40
2.423138852059992
100
AcDbArc
 50
270.0
 51
360.0
  0
LINE
  5
194
330
1F
100
AcDbEntity
  8
0
  6
Continuous
 62
     7
370
    15
100
AcDbLine
 10
659.6454456577
 20
644.9709798719
 30
0.0
 11
659.6454456577
 21
666.8718514077
 31
0.0
  0
LINE
  5
195
330
1F
100
AcDbEntity
  8
0
  6
Continuous
 62
     7
370
    15
100
AcDbLine
 10
659.6454456577
 20
666.8718514077
 30
0.0
 11
676.4785386751
 21
643.5527264651
 31
0.0
  0
ARC
  5
196
330
1F
100
AcDbEntity
  8
0
  6
Continuous
 62
     7
370
    15
100
AcDbCircle
 10
678.4432659723
 20
644.970980739
 30
0.0
 40
2.423138852059219
100
AcDbArc
 50
215.8239333715
 51
270.0
  0
LINE
  5
197
330
1F
100
AcDbEntity
  8
0
  6
Continuous
 62
     7
370
    15
100
AcDbLine
 10
678.4432642291
 20
642.5478424456
 30
0.0
 11
692.8163953254
 21
642.5478424456
 31
0.0
  0
ARC
  5
198
330
1F
100
AcDbEntity
  8
0
  6
Continuous
 62
     7
370
    15
100
AcDbCircle
 10
692.8163946757
 20
644.970980739
 30
0.0
 40
2.423138852059196
100
AcDbArc
 50
270.0
 51
0.0
  0
LINE
  5
199
330
1F
100
AcDbEntity
  8
0
  6
Continuous
 62
     7
370
    15
100
AcDbLine
 10
695.2395327518
 20
644.9709798719
 30
0.0
 11
695.2395327518
 21
681.7940756257
 31
0.0
  0
ARC
  5
19A
330
1F
100
AcDbEntity
  8
0
  6
Continuous
 62
     7
370
    15
100
AcDbCircle
 10
692.8163946757
 20
681.7940751116
 30
0.0
 40
2.423138852058969
100
AcDbArc
 50
360.0
 51
90.0
  0
LINE
  5
19B
330
1F
100
AcDbEntity
  8
0
  6
Continuous
 62
     7
370
    15
100
AcDbLine
 10
692.8163953254
 20
684.2172130521
 30
0.0
 11
682.012721909
 21
684.2172130521
 31
0.0
  0
ARC
  5
19C
330
1F
100
AcDbEntity
  8
0
  6
Continuous
 62
     7
370
    15
100
AcDbCircle
 10
682.0127235792
 20
681.7940751116
 30
0.0
 40
2.423138852059196
100
AcDbArc
 50
90.0
 51
180.0
  0
LINE
  5
19D
330
1F
100
AcDbEntity
  8
0
  6
Continuous
 62
     7
370
    15
100
AcDbLine
 10
679.5895844827
 20
681.7940756257
 30
0.0
 11
679.5895844827
 21
660.2169788487
 31
0.0
  0
LINE
  5
19E
330
1F
100
AcDbEntity
  8
0
  6
Continuous
 62
     7
370
    15
100
AcDbLine
 10
679.5895844827
 20
660.2169788487
 30
0.0
 11
664.1826182733
 21
683.1455457534
 31
0.0
  0
ARC
  5
19F
330
1F
100
AcDbEntity
  8
0
  6
Continuous
 62
     7
370
    15
100
AcDbCircle
 10
662.1713656865
 20
681.7940751116
 30
0.0
 40
2.423138852059151
100
AcDbArc
 50
33.8993301944
 51
90.0
  0
LINE
  5
1A0
330
1F
100
AcDbEntity
  8
0
  6
Continuous
 62
     7
370
    15
100
AcDbLine
 10
662.1713638434
 20
684.2172130521
 30
0.0
 11
646.5503275523
 21
684.2172130521
 31
0.0
  0
ARC
  5
1A1
330
1F
100
AcDbEntity
  8
0
  6
Continuous
 62
     7
370
    15
100
AcDbCircle
 10
646.5503251633
 20
682.454360186
 30
0.0
 40
1.762853777685336
100
AcDbArc
 50
90.0
 51
180.0
  0
LINE
  5
1A2
330
1F
100
AcDbEntity
  8
0
  6
Continuous
 62
     7
370
    15
100
AcDbLine
 10
644.787468029
 20
682.4543609794
 30
0.0
 11
644.787468029
 21
644.3106963809
 31
0.0
  0
ARC
  5
1A3
330
1F
100
AcDbEntity
  8
0
  6
Continuous
 62
     7
370
    15
100
AcDbCircle
 10
646.5503251633
 20
644.3106956647
 30
0.0
 40
1.76285377768545
100
AcDbArc
 50
180.0
 51
270.0
  0
ARC
  5
1A4
330
1F
100
AcDbEntity
  8
0
  6
Continuous
 62
     7
370
    15
100
AcDbCircle
 10
740.8542723939
 20
650.8547334751
 30
0.0
 40
2.423138852059196
100
AcDbArc
 50
0.0
 51
90.0
  0
LINE
  5
1A5
330
1F
100
AcDbEntity
  8
0
  6
Continuous
 62
     7
370
    15
100
AcDbLine
 10
713.8859406242
 20
658.7130081419
 30
0.0
 11
734.0789658612
 21
658.7130081419
 31
0.0
  0
ARC
  5
1A6
330
1F
100
AcDbEntity
  8
0
  6
Continuous
 62
     7
370
    15
100
AcDbCircle
 10
734.0789658586
 20
661.1361467815
 30
0.0
 40
2.423138852059196
100
AcDbArc
 50
270.0
 51
0.0
  0
LINE
  5
1A7
330
1F
100
AcDbEntity
  8
0
  6
Continuous
 62
     7
370
    15
100
AcDbLine
 10
736.5021049174
 20
661.1361467324
 30
0.0
 11
736.5021049174
 21
666.5880208414
 31
0.0
  0
ARC
  5
1A8
330
1F
100
AcDbEntity
  8
0
  6
Continuous
 62
     7
370
    15
100
AcDbCircle
 10
734.0789658586
 20
666.5880207826
 30
0.0
 40
2.423138852059196
100
AcDbArc
 50
0.0
 51
90.0
  0
ARC
  5
1A9
330
1F
100
AcDbEntity
  8
0
  6
Continuous
 62
     7
370
    15
100
AcDbCircle
 10
800.4006703105
 20
644.9311423471
 30
0.0
 40
2.423138852059196
100
AcDbArc
 50
270.0
 51
0.0
  0
LINE
  5
1AA
330
1F
100
AcDbEntity
  8
0
  6
Continuous
 62
     7
370
    15
100
AcDbLine
 10
802.8238117824
 20
673.6791118558
 30
0.0
 11
816.0675317178
 21
673.6791118558
 31
0.0
  0
ARC
  5
1AB
330
1F
100
AcDbEntity
  8
0
  6
Continuous
 62
     7
370
    15
100
AcDbCircle
 10
816.0675341067
 20
675.4419653045
 30
0.0
 40
1.762853777684882
100
AcDbArc
 50
270.0
 51
0.0
  0
ARC
  5
1AC
330
1F
100
AcDbEntity
  8
0
  6
Continuous
 62
     7
370
    15
100
AcDbCircle
 10
773.9508360432
 20
676.0852409909
 30
0.0
 40
2.423138852059196
100
AcDbArc
 50
180.0
 51
270.0
  0
LINE
  5
1AD
330
1F
100
AcDbEntity
  8
0
  6
Continuous
 62
     7
370
    15
100
AcDbLine
 10
773.9508375654
 20
673.6621021803
 30
0.0
 11
786.6488285491
 21
673.6621021803
 31
0.0
  0
LINE
  5
1AE
330
1F
100
AcDbEntity
  8
0
  6
Continuous
 62
     7
370
    15
100
AcDbLine
 10
786.6488285491
 20
673.6621021803
 30
0.0
 11
786.6488285491
 21
647.7072763767
 31
0.0
  0
LINE
  5
1AF
330
1F
100
AcDbEntity
  8
0
  6
Continuous
 62
     7
370
    15
100
AcDbLine
 10
786.6488285491
 20
647.7072763767
 30
0.0
 11
766.6821368167
 21
667.8163109857
 31
0.0
  0
LINE
  5
1B0
330
1F
100
AcDbEntity
  8
0
  6
Continuous
 62
     7
370
    15
100
AcDbLine
 10
766.6821368167
 20
667.8163109857
 30
0.0
 11
773.1288969645
 21
696.8895908024
 31
0.0
  0
ARC
  5
1B1
330
1F
100
AcDbEntity
  8
0
  6
Continuous
 62
     7
370
    15
100
AcDbCircle
 10
770.7632212348
 20
697.4141595291
 30
0.0
 40
2.423138852059175
100
AcDbArc
 50
347.4974268903
 51
106.1668587471
  0
LINE
  5
1B2
330
1F
100
AcDbEntity
  8
0
  6
Continuous
 62
     7
370
    15
100
AcDbLine
 10
770.0885348151
 20
699.7414756145
 30
0.0
 11
756.9566834847
 21
695.934556755
 31
0.0
  0
ARC
  5
1B3
330
1F
100
AcDbEntity
  8
0
  6
Continuous
 62
     7
370
    15
100
AcDbCircle
 10
757.6313712465
 20
693.6072399509
 30
0.0
 40
2.423138852059199
100
AcDbArc
 50
106.1668587471
 51
171.801246054
  0
LINE
  5
1B4
330
1F
100
AcDbEntity
  8
0
  6
Continuous
 62
     7
370
    15
100
AcDbLine
 10
755.2329991142
 20
693.9527973111
 30
0.0
 11
753.3365916589
 21
680.7906221177
 31
0.0
  0
LINE
  5
1B5
330
1F
100
AcDbEntity
  8
0
  6
Continuous
 62
     7
370
    15
100
AcDbLine
 10
753.3365916589
 20
680.7906221177
 30
0.0
 11
745.1204685623
 21
690.9891165372
 31
0.0
  0
ARC
  5
1B6
330
1F
100
AcDbEntity
  8
0
  6
Continuous
 62
     7
370
    15
100
AcDbCircle
 10
743.2334999563
 20
689.4689340471
 30
0.0
 40
2.423138852059373
100
AcDbArc
 50
38.8556584935
 51
105.8183764146
  0
LINE
  5
1B7
330
1F
100
AcDbEntity
  8
0
  6
Continuous
 62
     7
370
    15
100
AcDbLine
 10
742.5729790831
 20
691.8003096755
 30
0.0
 11
725.3281315917
 21
686.9145355697
 31
0.0
  0
LINE
  5
1B8
330
1F
100
AcDbEntity
  8
0
  6
Continuous
 62
     7
370
    15
100
AcDbLine
 10
725.3281315917
 20
686.9145355697
 30
0.0
 11
728.0053433625
 21
684.2393897053
 31
0.0
  0
LINE
  5
1B9
330
1F
100
AcDbEntity
  8
0
  6
Continuous
 62
     7
370
    15
100
AcDbLine
 10
728.0053433625
 20
684.2393897053
 30
0.0
 11
700.0865154097
 21
684.2393897053
 31
0.0
  0
ARC
  5
1BA
330
1F
100
AcDbEntity
  8
0
  6
Continuous
 62
     7
370
    15
100
AcDbCircle
 10
700.0865154338
 20
681.8162501632
 30
0.0
 40
2.423138852059083
100
AcDbArc
 50
90.0
 51
180.0
  0
LINE
  5
1BB
330
1F
100
AcDbEntity
  8
0
  6
Continuous
 62
     7
370
    15
100
AcDbLine
 10
697.6633779833
 20
681.8162504162
 30
0.0
 11
697.6633779833
 21
644.9260938491
 31
0.0
  0
LINE
  5
1BC
330
1F
100
AcDbEntity
  8
0
  6
Continuous
 62
     7
370
    15
100
AcDbLine
 10
700.0865154097
 20
642.5029545601
 30
0.0
 11
740.8542726318
 21
642.5029545601
 31
0.0
  0
ARC
  5
1BD
330
1F
100
AcDbEntity
  8
0
  6
Continuous
 62
     7
370
    15
100
AcDbCircle
 10
740.8542723939
 20
644.9260935027
 30
0.0
 40
2.423138852059196
100
AcDbArc
 50
270.0
 51
0.0
  0
LINE
  5
1BE
330
1F
100
AcDbEntity
  8
0
  6
Continuous
 62
     7
370
    15
100
AcDbLine
 10
549.3089333305
 20
509.3788992192
 30
0.0
 11
913.3089259396
 21
509.3788992192
 31
0.0
  0
LINE
  5
1BF
330
1F
100
AcDbEntity
  8
0
  6
Continuous
 62
     7
370
    15
100
AcDbLine
 10
913.3089259396
 20
817.3788975503
 30
0.0
 11
549.3089333305
 21
817.3788975503
 31
0.0
  0
LINE
  5
1C0
330
1F
100
AcDbEntity
  8
0
  6
Continuous
 62
     7
370
    15
100
AcDbLine
 10
646.5503275523
 20
642.5478424456
 30
0.0
 11
657.2223007808
 21
642.5478424456
 31
0.0
  0
LINE
  5
1C1
330
1F
100
AcDbEntity
  8
0
  6
Continuous
 62
     7
370
    15
100
AcDbLine
 10
713.8859406242
 20
669.0111596647
 30
0.0
 11
713.8859406242
 21
673.9682688888
 31
0.0
  0
LINE
  5
1C2
330
1F
100
AcDbEntity
  8
0
  6
Continuous
 62
     7
370
    15
100
AcDbLine
 10
713.8859406242
 20
673.9682688888
 30
0.0
 11
737.8792208748
 21
673.9682688888
 31
0.0
  0
ARC
  5
1C3
330
1F
100
AcDbEntity
  8
0
  6
Continuous
 62
     7
370
    15
100
AcDbCircle
 10
700.0865154338
 20
644.9260935027
 30
0.0
 40
2.423138852059196
100
AcDbArc
 50
180.0
 51
270.0
  0
LINE
  5
1C4
330
1F
100
AcDbEntity
  8
0
  6
Continuous
 62
     7
370
    15
100
AcDbLine
 10
743.2774109895
 20
644.9260938491
 30
0.0
 11
743.2774109895
 21
650.8547331717
 31
0.0
  0
LINE
  5
1C5
330
1F
100
AcDbEntity
  8
0
  6
Continuous
 62
     7
370
    15
100
AcDbLine
 10
748.8746997098
 20
662.6936523637
 30
0.0
 11
741.0663813481
 21
629.6950581994
 31
0.0
  0
LINE
  5
1C6
330
1F
100
AcDbEntity
  8
0
  6
Continuous
 62
     7
370
    15
100
AcDbLine
 10
740.8542726318
 20
653.2778724607
 30
0.0
 11
713.8859406242
 21
653.2778724607
 31
0.0
  0
LINE
  5
1C7
330
1F
100
AcDbEntity
  8
0
  6
Continuous
 62
     7
370
    15
100
AcDbLine
 10
713.8859406242
 20
653.2778724607
 30
0.0
 11
713.8859406242
 21
658.7130081419
 31
0.0
  0
ARC
  5
1C8
330
1F
100
AcDbEntity
  8
0
  6
Continuous
 62
     7
370
    15
100
AcDbCircle
 10
816.0675341067
 20
682.4471011049
 30
0.0
 40
1.762853777684882
100
AcDbArc
 50
0.0
 51
90.0
  0
LINE
  5
1C9
330
1F
100
AcDbEntity
  8
0
  6
Continuous
 62
     7
370
    15
100
AcDbLine
 10
816.0675317178
 20
684.209954324
 30
0.0
 11
773.9508375654
 21
684.209954324
 31
0.0
  0
ARC
  5
1CA
330
1F
100
AcDbEntity
  8
0
  6
Continuous
 62
     7
370
    15
100
AcDbCircle
 10
773.9508360432
 20
681.7868160305
 30
0.0
 40
2.423138852059196
100
AcDbArc
 50
90.0
 51
180.0
  0
LINE
  5
1CB
330
1F
100
AcDbEntity
  8
0
  6
Continuous
 62
     7
370
    15
100
AcDbLine
 10
771.5276964138
 20
681.7868168976
 30
0.0
 11
771.5276964138
 21
676.085240538
 31
0.0
  0
LINE
  5
1CC
330
1F
100
AcDbEntity
  8
0
  6
Continuous
 62
     7
370
    15
100
AcDbLine
 10
734.0789658612
 20
669.0111596647
 30
0.0
 11
713.8859406242
 21
669.0111596647
 31
0.0
  0
LINE
  5
1CD
330
1F
100
AcDbEntity
  8
0
  6
Continuous
 62
     7
370
    15
100
AcDbLine
 10
793.3158241341
 20
640.9627165224
 30
0.0
 11
791.7693443725
 21
642.5080041911
 31
0.0
  0
LINE
  5
1CE
330
1F
100
AcDbEntity
  8
0
  6
Continuous
 62
     7
370
    15
100
AcDbLine
 10
791.7693443725
 20
642.5080041911
 30
0.0
 11
800.4006669054
 21
642.5080041911
 31
0.0
  0
LINE
  5
1CF
330
1F
100
AcDbEntity
  8
0
  6
Continuous
 62
     7
370
    15
100
AcDbLine
 10
737.8792208748
 20
673.9682688888
 30
0.0
 11
748.8746997098
 21
662.6936523637
 31
0.0
  0
LINE
  5
1D0
330
1F
100
AcDbEntity
  8
0
  6
Continuous
 62
     7
370
    15
100
AcDbLine
 10
802.8238117824
 20
644.9311416175
 30
0.0
 11
802.8238117824
 21
673.6791118558
 31
0.0
  0
ARC
  5
1D1
330
1F
100
AcDbEntity
  8
0
  6
Continuous
 62
     7
370
    15
100
AcDbCircle
 10
743.4244048041
 20
629.1370890246
 30
0.0
 40
2.42313885205894
100
AcDbArc
 50
166.687206778
 51
286.0985506511
  0
LINE
  5
1D2
330
1F
100
AcDbEntity
  8
0
  6
Continuous
 62
     7
370
    15
100
AcDbLine
 10
744.0963182727
 20
626.808971497
 30
0.0
 11
758.0424193422
 21
630.8339241471
 31
0.0
  0
ARC
  5
1D3
330
1F
100
AcDbEntity
  8
0
  6
Continuous
 62
     7
370
    15
100
AcDbCircle
 10
757.3705066821
 20
633.162042327
 30
0.0
 40
2.423138852059173
100
AcDbArc
 50
286.0985506511
 51
351.7882282765
  0
LINE
  5
1D4
330
1F
100
AcDbEntity
  8
0
  6
Continuous
 62
     7
370
    15
100
AcDbLine
 10
759.7688008229
 20
632.815940636
 30
0.0
 11
762.1801123152
 21
649.5249647226
 31
0.0
  0
LINE
  5
1D5
330
1F
100
AcDbEntity
  8
0
  6
Continuous
 62
     7
370
    15
100
AcDbLine
 10
762.1801123152
 20
649.5249647226
 30
0.0
 11
772.9074694345
 21
636.557489964
 31
0.0
  0
ARC
  5
1D6
330
1F
100
AcDbEntity
  8
0
  6
Continuous
 62
     7
370
    15
100
AcDbCircle
 10
774.7745475676
 20
638.1020334566
 30
0.0
 40
2.423138852059193
100
AcDbArc
 50
219.599284803
 51
286.191941286
  0
LINE
  5
1D7
330
1F
100
AcDbEntity
  8
0
  6
Continuous
 62
     7
370
    15
100
AcDbLine
 10
775.4502557347
 20
635.7750132259
 30
0.0
 11
793.3158241341
 21
640.9627165224
 31
0.0
  0
LINE
  5
1D8
330
1F
100
AcDbEntity
  8
0
  6
Continuous
 62
     7
370
    15
100
AcDbLine
 10
817.8303912411
 20
675.4419648599
 30
0.0
 11
817.8303912411
 21
682.4471003886
 31
0.0
  0
LINE
  5
1D9
330
1F
100
AcDbEntity
  8
0
  6
Continuous
 62
     7
370
    15
100
AcDbLine
 10
973.3089283237
 20
502.3788999345
 30
0.0
 11
973.3089283237
 21
509.3788992192
 31
0.0
  0
LINE
  5
1DA
330
1F
100
AcDbEntity
  8
0
  6
Continuous
 62
     7
370
    15
100
AcDbLine
 10
966.308929039
 20
502.3788999345
 30
0.0
 11
973.3089283237
 21
502.3788999345
 31
0.0
  0
LINE
  5
1DB
330
1F
100
AcDbEntity
  8
0
  6
Continuous
 62
     7
370
    15
100
AcDbLine
 10
966.308929039
 20
824.378896835
 30
0.0
 11
966.308929039
 21
502.3788999345
 31
0.0
  0
LINE
  5
1DC
330
1F
100
AcDbEntity
  8
0
  6
Continuous
 62
     7
370
    15
100
AcDbLine
 10
973.3089283237
 20
824.378896835
 30
0.0
 11
966.308929039
 21
824.378896835
 31
0.0
  0
LINE
  5
1DD
330
1F
100
AcDbEntity
  8
0
  6
Continuous
 62
     7
370
    15
100
AcDbLine
 10
973.3089283237
 20
817.3788975503
 30
0.0
 11
973.3089283237
 21
824.378896835
 31
0.0
  0
LINE
  5
1DE
330
1F
100
AcDbEntity
  8
0
  6
Continuous
 62
     7
370
    15
100
AcDbLine
 10
973.3089283237
 20
817.3788975503
 30
0.0
 11
976.3089344034
 21
817.3788975503
 31
0.0
  0
LINE
  5
1DF
330
1F
100
AcDbEntity
  8
0
  6
Continuous
 62
     7
370
    15
100
AcDbLine
 10
976.3089344034
 20
509.3788992192
 30
0.0
 11
976.3089344034
 21
817.3788975503
 31
0.0
  0
LINE
  5
1E0
330
1F
100
AcDbEntity
  8
0
  6
Continuous
 62
     7
370
    15
100
AcDbLine
 10
976.3089344034
 20
509.3788992192
 30
0.0
 11
973.3089283237
 21
509.3788992192
 31
0.0
  0
LINE
  5
1E1
330
1F
100
AcDbEntity
  8
0
  6
Continuous
 62
     7
370
    15
100
AcDbLine
 10
981.308929635
 20
817.3788975503
 30
0.0
 11
981.308929635
 21
509.3788992192
 31
0.0
  0
LINE
  5
1E2
330
1F
100
AcDbEntity
  8
0
  6
Continuous
 62
     7
370
    15
100
AcDbLine
 10
981.308929635
 20
509.3788992192
 30
0.0
 11
976.3089344034
 21
509.3788992192
 31
0.0
  0
LINE
  5
1E3
330
1F
100
AcDbEntity
  8
0
  6
Continuous
 62
     7
370
    15
100
AcDbLine
 10
976.3089344034
 20
817.3788975503
 30
0.0
 11
981.308929635
 21
817.3788975503
 31
0.0
  0
LINE
  5
1E4
330
1F
100
AcDbEntity
  8
0
  6
Continuous
 62
     7
370
    15
100
AcDbLine
 10
489.3089309463
 20
824.378896835
 30
0.0
 11
489.3089309463
 21
817.3788975503
 31
0.0
  0
LINE
  5
1E5
330
1F
100
AcDbEntity
  8
0
  6
Continuous
 62
     7
370
    15
100
AcDbLine
 10
496.3089302311
 20
824.378896835
 30
0.0
 11
489.3089309463
 21
824.378896835
 31
0.0
  0
LINE
  5
1E6
330
1F
100
AcDbEntity
  8
0
  6
Continuous
 62
     7
370
    15
100
AcDbLine
 10
496.3089302311
 20
824.378896835
 30
0.0
 11
496.3089302311
 21
502.3788999345
 31
0.0
  0
LINE
  5
1E7
330
1F
100
AcDbEntity
  8
0
  6
Continuous
 62
     7
370
    15
100
AcDbLine
 10
489.3089309463
 20
502.3788999345
 30
0.0
 11
496.3089302311
 21
502.3788999345
 31
0.0
  0
LINE
  5
1E8
330
1F
100
AcDbEntity
  8
0
  6
Continuous
 62
     7
370
    15
100
AcDbLine
 10
489.3089309463
 20
509.3788992192
 30
0.0
 11
489.3089309463
 21
502.3788999345
 31
0.0
  0
LINE
  5
1E9
330
1F
100
AcDbEntity
  8
0
  6
Continuous
 62
     7
370
    15
100
AcDbLine
 10
486.3089248667
 20
817.3788975503
 30
0.0
 11
486.3089248667
 21
509.3788992192
 31
0.0
  0
LINE
  5
1EA
330
1F
100
AcDbEntity
  8
0
  6
Continuous
 62
     7
370
    15
100
AcDbLine
 10
486.3089248667
 20
817.3788975503
 30
0.0
 11
489.3089309463
 21
817.3788975503
 31
0.0
  0
LINE
  5
1EB
330
1F
100
AcDbEntity
  8
0
  6
Continuous
 62
     7
370
    15
100
AcDbLine
 10
489.3089309463
 20
509.3788992192
 30
0.0
 11
486.3089248667
 21
509.3788992192
 31
0.0
  0
LINE
  5
1EC
330
1F
100
AcDbEntity
  8
0
  6
Continuous
 62
     7
370
    15
100
AcDbLine
 10
481.308929635
 20
509.3788992192
 30
0.0
 11
481.308929635
 21
817.3788975503
 31
0.0
  0
LINE
  5
1ED
330
1F
100
AcDbEntity
  8
0
  6
Continuous
 62
     7
370
    15
100
AcDbLine
 10
481.308929635
 20
817.3788975503
 30
0.0
 11
486.3089248667
 21
817.3788975503
 31
0.0
  0
LINE
  5
1EE
330
1F
100
AcDbEntity
  8
0
  6
Continuous
 62
     7
370
    15
100
AcDbLine
 10
486.3089248667
 20
509.3788992192
 30
0.0
 11
481.308929635
 21
509.3788992192
 31
0.0
  0
LINE
  5
1EF
330
1F
100
AcDbEntity
  8
0
  6
Continuous
 62
     7
370
    15
100
AcDbLine
 10
496.3089302311
 20
502.3788999345
 30
0.0
 11
496.3089302311
 21
509.3788992192
 31
0.0
  0
LINE
  5
1F0
330
1F
100
AcDbEntity
  8
0
  6
Continuous
 62
     7
370
    15
100
AcDbLine
 10
966.308929039
 20
509.3788992192
 30
0.0
 11
496.3089302311
 21
509.3788992192
 31
0.0
  0
LINE
  5
1F1
330
1F
100
AcDbEntity
  8
0
  6
Continuous
 62
     7
370
    15
100
AcDbLine
 10
966.308929039
 20
502.3788999345
 30
0.0
 11
966.308929039
 21
509.3788992192
 31
0.0
  0
LINE
  5
1F2
330
1F
100
AcDbEntity
  8
0
  6
Continuous
 62
     7
370
    15
100
AcDbLine
 10
976.3089344034
 20
499.3788938548
 30
0.0
 11
976.3089344034
 21
509.3788992192
 31
0.0
  0
LINE
  5
1F3
330
1F
100
AcDbEntity
  8
0
  6
Continuous
 62
     7
370
    15
100
AcDbLine
 10
486.3089248667
 20
499.3788938548
 30
0.0
 11
976.3089344034
 21
499.3788938548
 31
0.0
  0
LINE
  5
1F4
330
1F
100
AcDbEntity
  8
0
  6
Continuous
 62
     7
370
    15
100
AcDbLine
 10
486.3089248667
 20
509.3788992192
 30
0.0
 11
486.3089248667
 21
499.3788938548
 31
0.0
  0
LINE
  5
1F5
330
1F
100
AcDbEntity
  8
0
  6
Continuous
 62
     7
370
    15
100
AcDbLine
 10
981.308929635
 20
509.3788992192
 30
0.0
 11
981.308929635
 21
499.3788938548
 31
0.0
  0
LINE
  5
1F6
330
1F
100
AcDbEntity
  8
0
  6
Continuous
 62
     7
370
    15
100
AcDbLine
 10
976.3089344034
 20
499.3788938548
 30
0.0
 11
981.308929635
 21
499.3788938548
 31
0.0
  0
LINE
  5
1F7
330
1F
100
AcDbEntity
  8
0
  6
Continuous
 62
     7
370
    15
100
AcDbLine
 10
481.308929635
 20
499.3788938548
 30
0.0
 11
486.3089248667
 21
499.3788938548
 31
0.0
  0
LINE
  5
1F8
330
1F
100
AcDbEntity
  8
0
  6
Continuous
 62
     7
370
    15
100
AcDbLine
 10
481.308929635
 20
499.3788938548
 30
0.0
 11
481.308929635
 21
509.3788992192
 31
0.0
  0
ARC
  5
1F9
330
1F
100
AcDbEntity
  8
0
  6
Continuous
 62
     7
370
    15
100
AcDbCircle
 10
486.308929635
 20
499.3788983848
 30
0.0
 40
5.000000000000057
100
AcDbArc
 50
180.0
 51
270.0
  0
LINE
  5
1FA
330
1F
100
AcDbEntity
  8
0
  6
Continuous
 62
     7
370
    15
100
AcDbLine
 10
486.3089248667
 20
499.3788938548
 30
0.0
 11
486.3089248667
 21
494.3788986232
 31
0.0
  0
ARC
  5
1FB
330
1F
100
AcDbEntity
  8
0
  6
Continuous
 62
     7
370
    15
100
AcDbCircle
 10
976.308929635
 20
499.3788983848
 30
0.0
 40
5.000000000000057
100
AcDbArc
 50
270.0
 51
0.0
  0
LINE
  5
1FC
330
1F
100
AcDbEntity
  8
0
  6
Continuous
 62
     7
370
    15
100
AcDbLine
 10
976.3089344034
 20
499.3788938548
 30
0.0
 11
976.3089344034
 21
494.3788986232
 31
0.0
  0
LINE
  5
1FD
330
1F
100
AcDbEntity
  8
0
  6
Continuous
 62
     7
370
    15
100
AcDbLine
 10
976.3089344034
 20
494.3788986232
 30
0.0
 11
486.3089248667
 21
494.3788986232
 31
0.0
  0
LINE
  5
1FE
330
1F
100
AcDbEntity
  8
0
  6
Continuous
 62
     7
370
    15
100
AcDbLine
 10
966.308929039
 20
824.378896835
 30
0.0
 11
966.308929039
 21
817.3788975503
 31
0.0
  0
LINE
  5
1FF
330
1F
100
AcDbEntity
  8
0
  6
Continuous
 62
     7
370
    15
100
AcDbLine
 10
496.3089302311
 20
817.3788975503
 30
0.0
 11
966.308929039
 21
817.3788975503
 31
0.0
  0
LINE
  5
200
330
1F
100
AcDbEntity
  8
0
  6
Continuous
 62
     7
370
    15
100
AcDbLine
 10
496.3089302311
 20
824.378896835
 30
0.0
 11
496.3089302311
 21
817.3788975503
 31
0.0
  0
LINE
  5
201
330
1F
100
AcDbEntity
  8
0
  6
Continuous
 62
     7
370
    15
100
AcDbLine
 10
486.3089248667
 20
827.3789029147
 30
0.0
 11
486.3089248667
 21
817.3788975503
 31
0.0
  0
LINE
  5
202
330
1F
100
AcDbEntity
  8
0
  6
Continuous
 62
     7
370
    15
100
AcDbLine
 10
976.3089344034
 20
827.3789029147
 30
0.0
 11
486.3089248667
 21
827.3789029147
 31
0.0
  0
LINE
  5
203
330
1F
100
AcDbEntity
  8
0
  6
Continuous
 62
     7
370
    15
100
AcDbLine
 10
976.3089344034
 20
817.3788975503
 30
0.0
 11
976.3089344034
 21
827.3789029147
 31
0.0
  0
ARC
  5
204
330
1F
100
AcDbEntity
  8
0
  6
Continuous
 62
     7
370
    15
100
AcDbCircle
 10
976.308929635
 20
827.3788983848
 30
0.0
 40
5.0
100
AcDbArc
 50
0.0
 51
90.0
  0
LINE
  5
205
330
1F
100
AcDbEntity
  8
0
  6
Continuous
 62
     7
370
    15
100
AcDbLine
 10
981.308929635
 20
827.3789029147
 30
0.0
 11
976.3089344034
 21
827.3789029147
 31
0.0
  0
LINE
  5
206
330
1F
100
AcDbEntity
  8
0
  6
Continuous
 62
     7
370
    15
100
AcDbLine
 10
976.3089344034
 20
832.3788981463
 30
0.0
 11
976.3089344034
 21
827.3789029147
 31
0.0
  0
LINE
  5
207
330
1F
100
AcDbEntity
  8
0
  6
Continuous
 62
     7
370
    15
100
AcDbLine
 10
481.308929635
 20
817.3788975503
 30
0.0
 11
481.308929635
 21
827.3789029147
 31
0.0
  0
LINE
  5
208
330
1F
100
AcDbEntity
  8
0
  6
Continuous
 62
     7
370
    15
100
AcDbLine
 10
486.3089248667
 20
827.3789029147
 30
0.0
 11
481.308929635
 21
827.3789029147
 31
0.0
  0
LINE
  5
209
330
1F
100
AcDbEntity
  8
0
  6
Continuous
 62
     7
370
    15
100
AcDbLine
 10
486.3089248667
 20
832.3788981463
 30
0.0
 11
976.3089344034
 21
832.3788981463
 31
0.0
  0
LINE
  5
20A
330
1F
100
AcDbEntity
  8
0
  6
Continuous
 62
     7
370
    15
100
AcDbLine
 10
486.3089248667
 20
832.3788981463
 30
0.0
 11
486.3089248667
 21
827.3789029147
 31
0.0
  0
LINE
  5
20B
330
1F
100
AcDbEntity
  8
0
  6
Continuous
 62
     7
370
    15
100
AcDbLine
 10
981.308929635
 20
827.3789029147
 30
0.0
 11
981.308929635
 21
817.3788975503
 31
0.0
  0
ARC
  5
20C
330
1F
100
AcDbEntity
  8
0
  6
Continuous
 62
     7
370
    15
100
AcDbCircle
 10
486.308929635
 20
827.3788983848
 30
0.0
 40
5.0
100
AcDbArc
 50
90.0
 51
180.0
  0
SPLINE
  5
20D
330
1F
100
AcDbEntity
  8
0
  6
Continuous
 62
     8
370
    15
100
AcDbSpline
210
0.0
220
0.0
230
1.0
 70
     8
 71
     3
 72
     9
 73
     5
 74
     0
 42
0.00000001
 43
0.00000001
 12
1.0
 22
0.0
 32
0.0
 13
1.0
 23
0.0
 33
0.0
 40
0.0
 40
0.0
 40
0.0
 40
0.0
 40
0.5687920002816745
 40
1.0
 40
1.0
 40
1.0
 40
1.0
 10
542.2676727304433
 20
484.832067372987
 30
0.0
 10
542.39330995661
 20
484.832073752651
 30
0.0
 10
542.6141942624802
 20
484.8320849688142
 30
0.0
 10
542.5696361001472
 20
484.8320830860228
 30
0.0
 10
542.5504222640966
 20
484.8320822741482
 30
0.0
  0
SPLINE
  5
20E
330
1F
100
AcDbEntity
  8
0
  6
Continuous
 62
     8
370
    15
100
AcDbSpline
210
0.0
220
0.0
230
1.0
 70
     8
 71
     3
 72
     9
 73
     5
 74
     0
 42
0.00000001
 43
0.00000001
 12
1.0
 22
0.0
 32
0.0
 13
1.0
 23
0.0
 33
0.0
 40
0.0
 40
0.0
 40
0.0
 40
0.0
 40
0.5687920002816745
 40
1.0
 40
1.0
 40
1.0
 40
1.0
 10
954.2676732072805
 20
484.832067372987
 30
0.0
 10
954.3933104334471
 20
484.832073752651
 30
0.0
 10
954.6141947393172
 20
484.8320849688142
 30
0.0
 10
954.5696365769844
 20
484.8320830860228
 30
0.0
 10
954.5504227409338
 20
484.8320822741482
 30
0.0
  0
DIMENSION
  5
20F
330
1F
100
AcDbEntity
  8
MEDIÇÕES
100
AcDbDimension
  2
_D
 10
981.308929635
 20
383.3788983849
 30
0.0
 11
731.308929635
 21
383.3788983849
 31
0.0
 70
   160
  1
<>
 71
     2
 42
-1.0
  3
SLDDIMSTYLE0
100
AcDbAlignedDimension
 13
481.308929635
 23
509.3788983848
 33
0.0
 14
981.308929635
 24
509.3788983848
 34
0.0
100
AcDbRotatedDimension
  0
LWPOLYLINE
  5
21A
330
1F
100
AcDbEntity
  8
0
  6
Continuous
 62
     7
370
    15
100
AcDbPolyline
 90
        3
 70
   128
 43
0.0
 10
1569.0345300679
 20
484.7447912719
 10
1569.3775100951
 20
492.0618425633
 10
1569.4861097579
 20
494.3788986232
  0
LWPOLYLINE
  5
21B
330
1F
100
AcDbEntity
  8
0
  6
Continuous
 62
     7
370
    15
100
AcDbPolyline
 90
        3
 70
   128
 43
0.0
 10
1533.9559747224
 20
494.3788986232
 10
1534.0645892863
 20
492.0618425633
 10
1534.4075693135
 20
484.7447912719
  0
ARC
  5
21C
330
1F
100
AcDbEntity
  8
0
  6
Continuous
 62
     7
370
    15
100
AcDbCircle
 10
1566.121048141
 20
483.8788983849
 30
0.0
 40
0.5000000000002274
100
AcDbArc
 50
270.0
 51
0.0
  0
ARC
  5
21D
330
1F
100
AcDbEntity
  8
0
  6
Continuous
 62
     7
370
    15
100
AcDbCircle
 10
1537.321048141
 20
483.8788983849
 30
0.0
 40
0.5000000000000568
100
AcDbArc
 50
180.0
 51
270.0
  0
LINE
  5
21E
330
1F
100
AcDbEntity
  8
0
  6
Continuous
 62
     7
370
    15
100
AcDbLine
 10
1537.3210443501
 20
483.3788912322
 30
0.0
 11
1566.1210550313
 21
483.3788912322
 31
0.0
  0
ARC
  5
21F
330
1F
100
AcDbEntity
  8
0
  6
Continuous
 62
     7
370
    15
100
AcDbCircle
 10
1568.0397295065
 20
484.8788934759
 30
0.0
 40
0.9999937798606371
100
AcDbArc
 50
269.9999450005
 51
356.3181517549
  0
ARC
  5
220
330
1F
100
AcDbEntity
  8
0
  6
Continuous
 62
     7
370
    15
100
AcDbCircle
 10
1535.402365542
 20
484.8788914959
 30
0.0
 40
0.9999917998220224
100
AcDbArc
 50
183.3934681785
 51
270.0003032614
  0
LWPOLYLINE
  5
221
330
1F
100
AcDbEntity
  8
0
  6
Continuous
 62
     7
370
    15
100
AcDbPolyline
 90
        3
 70
   128
 43
0.0
 10
1891.0345269685
 20
484.7447912719
 10
1891.3775069957
 20
492.0618425633
 10
1891.4861215596
 20
494.3788986232
  0
LWPOLYLINE
  5
222
330
1F
100
AcDbEntity
  8
0
  6
Continuous
 62
     7
370
    15
100
AcDbPolyline
 90
        3
 70
   128
 43
0.0
 10
1855.9559865241
 20
494.3788986232
 10
1856.0645861869
 20
492.0618425633
 10
1856.4075662141
 20
484.7447912719
  0
ARC
  5
223
330
1F
100
AcDbEntity
  8
0
  6
Continuous
 62
     7
370
    15
100
AcDbCircle
 10
1888.121048141
 20
483.8788983849
 30
0.0
 40
0.5
100
AcDbArc
 50
270.0
 51
0.0
  0
ARC
  5
224
330
1F
100
AcDbEntity
  8
0
  6
Continuous
 62
     7
370
    15
100
AcDbCircle
 10
1859.321048141
 20
483.8788983849
 30
0.0
 40
0.5
100
AcDbArc
 50
180.0
 51
270.0
  0
LINE
  5
225
330
1F
100
AcDbEntity
  8
0
  6
Continuous
 62
     7
370
    15
100
AcDbLine
 10
1859.3210412507
 20
483.3788912322
 30
0.0
 11
1888.1210519319
 21
483.3788912322
 31
0.0
  0
ARC
  5
226
330
1F
100
AcDbEntity
  8
0
  6
Continuous
 62
     7
370
    15
100
AcDbCircle
 10
1890.0397264071
 20
484.8788934759
 30
0.0
 40
0.9999937798601255
100
AcDbArc
 50
269.9999450005
 51
356.3181517549
  0
ARC
  5
227
330
1F
100
AcDbEntity
  8
0
  6
Continuous
 62
     7
370
    15
100
AcDbCircle
 10
1857.4023624425
 20
484.8788914959
 30
0.0
 40
0.9999917998224589
100
AcDbArc
 50
183.3934681785
 51
270.0003032614
  0
SPLINE
  5
228
330
1F
100
AcDbEntity
  8
0
  6
Continuous
 62
     7
370
    15
100
AcDbSpline
210
0.0
220
0.0
230
1.0
 70
    24
 71
     3
 72
     9
 73
     5
 74
     0
 42
0.00000001
 43
0.00000001
 12
1.0
 22
0.0
 32
0.0
 13
1.0
 23
0.0
 33
0.0
 40
0.0
 40
0.0
 40
0.0
 40
0.0
 40
0.5937556166077556
 40
0.9999999999999999
 40
0.9999999999999999
 40
0.9999999999999999
 40
0.9999999999999999
 10
1567.678926730634
 20
484.832067372987
 30
0.0
 10
1567.92117230731
 20
484.832067372987
 30
0.0
 10
1568.329160998112
 20
484.832067372987
 30
0.0
 10
1568.578500323886
 20
484.8320673729871
 30
0.0
 10
1568.67979302454
 20
484.832067372987
 30
0.0
  0
SPLINE
  5
229
330
1F
100
AcDbEntity
  8
0
  6
Continuous
 62
     7
370
    15
100
AcDbSpline
210
0.0
220
0.0
230
1.0
 70
     8
 71
     3
 72
     9
 73
     5
 74
     0
 42
0.00000001
 43
0.00000001
 12
1.0
 22
0.0
 32
0.0
 13
1.0
 23
0.0
 33
0.0
 40
0.0
 40
0.0
 40
0.0
 40
0.0
 40
0.5933630920335798
 40
1.0
 40
1.0
 40
1.0
 40
1.0
 10
1566.072462344647
 20
484.832067372987
 30
0.0
 10
1566.430413264359
 20
484.8320759639941
 30
0.0
 10
1567.033671074827
 20
484.8320904424933
 30
0.0
 10
1567.492393330835
 20
484.8320740420234
 30
0.0
 10
1567.678926730634
 20
484.832067372987
 30
0.0
  0
SPLINE
  5
22A
330
1F
100
AcDbEntity
  8
0
  6
Continuous
 62
     7
370
    15
100
AcDbSpline
210
0.0
220
0.0
230
1.0
 70
    24
 71
     3
 72
     9
 73
     5
 74
     0
 42
0.00000001
 43
0.00000001
 12
1.0
 22
0.0
 32
0.0
 13
1.0
 23
0.0
 33
0.0
 40
0.0
 40
0.0
 40
0.0
 40
0.0
 40
0.6315636006895525
 40
1.0
 40
1.0
 40
1.0
 40
1.0
 10
1564.065961385251
 20
484.832067372987
 30
0.0
 10
1564.521316175306
 20
484.832067372987
 30
0.0
 10
1565.242312112308
 20
484.832067372987
 30
0.0
 10
1565.848953555606
 20
484.8320673729871
 30
0.0
 10
1566.072462344647
 20
484.832067372987
 30
0.0
  0
SPLINE
  5
22B
330
1F
100
AcDbEntity
  8
0
  6
Continuous
 62
     7
370
    15
100
AcDbSpline
210
0.0
220
0.0
230
1.0
 70
     8
 71
     3
 72
     9
 73
     5
 74
     0
 42
0.00000001
 43
0.00000001
 12
1.0
 22
0.0
 32
0.0
 13
1.0
 23
0.0
 33
0.0
 40
0.0
 40
0.0
 40
0.0
 40
0.0
 40
0.5933583033750238
 40
1.0
 40
1.0
 40
1.0
 40
1.0
 10
1561.477942610265
 20
484.832067372987
 30
0.0
 10
1562.019319083348
 20
484.8320759639221
 30
0.0
 10
1562.931712943861
 20
484.832090442417
 30
0.0
 10
1563.738065012132
 20
484.8320740420572
 30
0.0
 10
1564.065961385251
 20
484.832067372987
 30
0.0
  0
SPLINE
  5
22C
330
1F
100
AcDbEntity
  8
0
  6
Continuous
 62
     7
370
    15
100
AcDbSpline
210
0.0
220
0.0
230
1.0
 70
    24
 71
     3
 72
     9
 73
     5
 74
     0
 42
0.00000001
 43
0.00000001
 12
1.0
 22
0.0
 32
0.0
 13
1.0
 23
0.0
 33
0.0
 40
0.0
 40
0.0
 40
0.0
 40
0.0
 40
0.5937526507808585
 40
1.0
 40
1.0
 40
1.0
 40
1.0
 10
1558.52198436308
 20
484.832067372987
 30
0.0
 10
1559.129532923953
 20
484.8320673729871
 30
0.0
 10
1560.152768037218
 20
484.8320673729871
 30
0.0
 10
1561.095116176599
 20
484.832067372987
 30
0.0
 10
1561.477942610265
 20
484.832067372987
 30
0.0
  0
SPLINE
  5
22D
330
1F
100
AcDbEntity
  8
0
  6
Continuous
 62
     7
370
    15
100
AcDbSpline
210
0.0
220
0.0
230
1.0
 70
     8
 71
     3
 72
     9
 73
     5
 74
     0
 42
0.00000001
 43
0.00000001
 12
1.0
 22
0.0
 32
0.0
 13
1.0
 23
0.0
 33
0.0
 40
0.0
 40
0.0
 40
0.0
 40
0.0
 40
0.3811993261978379
 40
1.0
 40
1.0
 40
1.0
 40
1.0
 10
1553.445814395428
 20
484.832067372987
 30
0.0
 10
1554.109752006961
 20
484.832073869966
 30
0.0
 10
1555.851459208165
 20
484.8320909134876
 30
0.0
 10
1557.50115283514
 20
484.8320763715486
 30
0.0
 10
1558.52198436308
 20
484.832067372987
 30
0.0
  0
SPLINE
  5
22E
330
1F
100
AcDbEntity
  8
0
  6
Continuous
 62
     7
370
    15
100
AcDbSpline
210
0.0
220
0.0
230
1.0
 70
     8
 71
     3
 72
     9
 73
     5
 74
     0
 42
0.00000001
 43
0.00000001
 12
1.0
 22
0.0
 32
0.0
 13
1.0
 23
0.0
 33
0.0
 40
0.0
 40
0.0
 40
0.0
 40
0.0
 40
0.3811659966499399
 40
1.0
 40
1.0
 40
1.0
 40
1.0
 10
1548.211319590092
 20
484.832067372987
 30
0.0
 10
1548.870663998691
 20
484.8320738697498
 30
0.0
 10
1550.600473096024
 20
484.8320909141947
 30
0.0
 10
1552.358121683536
 20
484.8320763721184
 30
0.0
 10
1553.445814395428
 20
484.832067372987
 30
0.0
  0
SPLINE
  5
22F
330
1F
100
AcDbEntity
  8
0
  6
Continuous
 62
     7
370
    15
100
AcDbSpline
210
0.0
220
0.0
230
1.0
 70
    24
 71
     3
 72
     9
 73
     5
 74
     0
 42
0.00000001
 43
0.00000001
 12
1.0
 22
0.0
 32
0.0
 13
1.0
 23
0.0
 33
0.0
 40
0.0
 40
0.0
 40
0.0
 40
0.0
 40
0.5937556166077556
 40
0.9999999999999999
 40
0.9999999999999999
 40
0.9999999999999999
 40
0.9999999999999999
 10
1544.993235016347
 20
484.832067372987
 30
0.0
 10
1545.616865797774
 20
484.832067372987
 30
0.0
 10
1546.667181388875
 20
484.832067372987
 30
0.0
 10
1547.765239606532
 20
484.8320673729871
 30
0.0
 10
1548.211319590092
 20
484.832067372987
 30
0.0
  0
SPLINE
  5
230
330
1F
100
AcDbEntity
  8
0
  6
Continuous
 62
     7
370
    15
100
AcDbSpline
210
0.0
220
0.0
230
1.0
 70
     8
 71
     3
 72
     9
 73
     5
 74
     0
 42
0.00000001
 43
0.00000001
 12
1.0
 22
0.0
 32
0.0
 13
1.0
 23
0.0
 33
0.0
 40
0.0
 40
0.0
 40
0.0
 40
0.0
 40
0.5933591783932656
 40
1.0
 40
1.0
 40
1.0
 40
1.0
 10
1542.028052950383
 20
484.832067372987
 30
0.0
 10
1542.593206808394
 20
484.8320759639353
 30
0.0
 10
1543.545671822151
 20
484.832090442431
 30
0.0
 10
1544.574764090739
 20
484.832074042051
 30
0.0
 10
1544.993235016347
 20
484.832067372987
 30
0.0
  0
SPLINE
  5
231
330
1F
100
AcDbEntity
  8
0
  6
Continuous
 62
     7
370
    15
100
AcDbSpline
210
0.0
220
0.0
230
1.0
 70
    24
 71
     3
 72
     9
 73
     5
 74
     0
 42
0.00000001
 43
0.00000001
 12
1.0
 22
0.0
 32
0.0
 13
1.0
 23
0.0
 33
0.0
 40
0.0
 40
0.0
 40
0.0
 40
0.0
 40
0.6315649022962626
 40
1.0
 40
1.0
 40
1.0
 40
1.0
 10
1539.57524731207
 20
484.832067372987
 30
0.0
 10
1540.065329181188
 20
484.832067372987
 30
0.0
 10
1540.841309396897
 20
484.832067372987
 30
0.0
 10
1541.708536169637
 20
484.832067372987
 30
0.0
 10
1542.028052950383
 20
484.832067372987
 30
0.0
  0
SPLINE
  5
232
330
1F
100
AcDbEntity
  8
0
  6
Continuous
 62
     7
370
    15
100
AcDbSpline
210
0.0
220
0.0
230
1.0
 70
     8
 71
     3
 72
     9
 73
     5
 74
     0
 42
0.00000001
 43
0.00000001
 12
1.0
 22
0.0
 32
0.0
 13
1.0
 23
0.0
 33
0.0
 40
0.0
 40
0.0
 40
0.0
 40
0.0
 40
0.5933600952418827
 40
1.0
 40
1.0
 40
1.0
 40
1.0
 10
1537.412999415875
 20
484.832067372987
 30
0.0
 10
1537.80599781167
 20
484.8320759639491
 30
0.0
 10
1538.468324784693
 20
484.8320904424456
 30
0.0
 10
1539.255251505336
 20
484.8320740420446
 30
0.0
 10
1539.57524731207
 20
484.832067372987
 30
0.0
  0
SPLINE
  5
233
330
1F
100
AcDbEntity
  8
0
  6
Continuous
 62
     7
370
    15
100
AcDbSpline
210
0.0
220
0.0
230
1.0
 70
    24
 71
     3
 72
     9
 73
     5
 74
     0
 42
0.00000001
 43
0.00000001
 12
1.0
 22
0.0
 32
0.0
 13
1.0
 23
0.0
 33
0.0
 40
0.0
 40
0.0
 40
0.0
 40
0.0
 40
0.5937526507808585
 40
1.0
 40
1.0
 40
1.0
 40
1.0
 10
1535.79419686842
 20
484.832067372987
 30
0.0
 10
1536.074362326108
 20
484.8320673729871
 30
0.0
 10
1536.54621783247
 20
484.8320673729871
 30
0.0
 10
1537.16259700921
 20
484.832067372987
 30
0.0
 10
1537.412999415875
 20
484.832067372987
 30
0.0
  0
SPLINE
  5
234
330
1F
100
AcDbEntity
  8
0
  6
Continuous
 62
     7
370
    15
100
AcDbSpline
210
0.0
220
0.0
230
1.0
 70
     8
 71
     3
 72
     9
 73
     5
 74
     0
 42
0.00000001
 43
0.00000001
 12
1.0
 22
0.0
 32
0.0
 13
1.0
 23
0.0
 33
0.0
 40
0.0
 40
0.0
 40
0.0
 40
0.0
 40
0.3812020884148371
 40
1.0
 40
1.0
 40
1.0
 40
1.0
 10
1534.489033961774
 20
484.832067372987
 30
0.0
 10
1534.575349595298
 20
484.8320738699839
 30
0.0
 10
1534.801779712413
 20
484.8320909134291
 30
0.0
 10
1535.414837802558
 20
484.8320763715014
 30
0.0
 10
1535.79419686842
 20
484.832067372987
 30
0.0
  0
LINE
  5
235
330
1F
100
AcDbEntity
  8
0
  6
Continuous
 62
     7
370
    15
100
AcDbLine
 10
1534.4795568233
 20
484.8320822741
 30
0.0
 11
1534.4890339618
 21
484.832067373
 31
0.0
  0
ARC
  5
236
330
1F
100
AcDbEntity
  8
0
  6
Continuous
 62
     7
370
    15
100
AcDbCircle
 10
1551.0167104005
 20
484.6038128583
 30
0.0
 40
2.43980457034174
100
AcDbArc
 50
342.7153331698
 51
5.3681239271
  0
ARC
  5
237
330
1F
100
AcDbEntity
  8
0
  6
Continuous
 62
     7
370
    15
100
AcDbCircle
 10
1549.5255130809
 20
484.6123983795
 30
0.0
 40
1.332425982186413
100
AcDbArc
 50
170.5106696027
 51
213.4012280915
  0
SPLINE
  5
238
330
1F
100
AcDbEntity
  8
0
  6
Continuous
 62
     7
370
    15
100
AcDbSpline
210
0.0
220
0.0
230
1.0
 70
    24
 71
     3
 72
     9
 73
     5
 74
     0
 42
0.00000001
 43
0.00000001
 12
1.0
 22
0.0
 32
0.0
 13
1.0
 23
0.0
 33
0.0
 40
0.0
 40
0.0
 40
0.0
 40
0.0
 40
0.4942302744824954
 40
1.0
 40
1.0
 40
1.0
 40
1.0
 10
1553.346334243298
 20
483.8788996960614
 30
0.0
 10
1552.528862924831
 20
483.8788996960614
 30
0.0
 10
1550.87483369863
 20
483.8788996960614
 30
0.0
 10
1549.240003459683
 20
483.8788996960614
 30
0.0
 10
1548.413155818463
 20
483.8788996960614
 30
0.0
  0
LWPOLYLINE
  5
239
330
1F
100
AcDbEntity
  8
0
  6
Continuous
 62
     7
370
    15
100
AcDbPolyline
 90
        9
 70
   128
 43
0.0
 10
1558.5219843631
 20
484.832067373
 10
1558.5114194398
 20
484.6437912013
 10
1558.4870709424
 20
484.4640086915
 10
1558.4498180394
 20
484.299231651
 10
1558.4009869342
 20
484.1554205443
 10
1558.3423806672
 20
484.037805679
 10
1558.2760854011
 20
483.9506040837
 10
1558.204530025
 20
483.8969897058
 10
1558.1302775388
 20
483.8788996961
  0
SPLINE
  5
23A
330
1F
100
AcDbEntity
  8
0
  6
Continuous
 62
     7
370
    15
100
AcDbSpline
210
0.0
220
0.0
230
1.0
 70
    24
 71
     3
 72
     9
 73
     5
 74
     0
 42
0.00000001
 43
0.00000001
 12
1.0
 22
0.0
 32
0.0
 13
1.0
 23
0.0
 33
0.0
 40
0.0
 40
0.0
 40
0.0
 40
0.0
 40
0.4942587333121403
 40
1.0
 40
1.0
 40
1.0
 40
1.0
 10
1558.130277538777
 20
483.8788996960614
 30
0.0
 10
1557.365314115679
 20
483.8788996960614
 30
0.0
 10
1555.817615771591
 20
483.8788996960614
 30
0.0
 10
1554.176376613865
 20
483.8788996960614
 30
0.0
 10
1553.346334243298
 20
483.8788996960614
 30
0.0
  0
LWPOLYLINE
  5
23B
330
1F
100
AcDbEntity
  8
0
  6
Continuous
 62
     7
370
    15
100
AcDbPolyline
 90
        9
 70
   128
 43
0.0
 10
1544.9932350163
 20
484.832067373
 10
1545.0037105327
 20
484.6437912013
 10
1545.027865315
 20
484.4640086915
 10
1545.0648201947
 20
484.299231651
 10
1545.1132340674
 20
484.1554205443
 10
1545.1713783984
 20
484.037805679
 10
1545.2371223216
 20
483.9506040837
 10
1545.3080965524
 20
483.8969897058
 10
1545.381738091
 20
483.8788996961
  0
LINE
  5
23C
330
1F
100
AcDbEntity
  8
0
  6
Continuous
 62
     7
370
    15
100
AcDbLine
 10
1548.4131558185
 20
483.8788996961
 30
0.0
 11
1545.381738091
 21
483.8788996961
 31
0.0
  0
LWPOLYLINE
  5
23D
330
1F
100
AcDbEntity
  8
0
  6
Continuous
 62
     7
370
    15
100
AcDbPolyline
 90
        9
 70
   128
 43
0.0
 10
1542.0280529504
 20
484.832067373
 10
1542.0431180243
 20
484.6437912013
 10
1542.0778526311
 20
484.4640086915
 10
1542.1309901719
 20
484.299231651
 10
1542.2006232982
 20
484.1554205443
 10
1542.2842337136
 20
484.037805679
 10
1542.3787815814
 20
483.9506040837
 10
1542.4808396344
 20
483.8969897058
 10
1542.586742187
 20
483.8788996961
  0
LINE
  5
23E
330
1F
100
AcDbEntity
  8
0
  6
Continuous
 62
     7
370
    15
100
AcDbLine
 10
1545.381738091
 20
483.8788996961
 30
0.0
 11
1542.586742187
 21
483.8788996961
 31
0.0
  0
LWPOLYLINE
  5
23F
330
1F
100
AcDbEntity
  8
0
  6
Continuous
 62
     7
370
    15
100
AcDbPolyline
 90
        9
 70
   128
 43
0.0
 10
1561.4779426103
 20
484.832067373
 10
1561.462758327
 20
484.6437912013
 10
1561.4277554994
 20
484.4640086915
 10
1561.3741858249
 20
484.299231651
 10
1561.3039864545
 20
484.1554205443
 10
1561.2197203879
 20
484.037805679
 10
1561.1244125609
 20
483.9506040837
 10
1561.0215200429
 20
483.8969897058
 10
1560.9147681241
 20
483.8788996961
  0
LINE
  5
240
330
1F
100
AcDbEntity
  8
0
  6
Continuous
 62
     7
370
    15
100
AcDbLine
 10
1560.9147681241
 20
483.8788996961
 30
0.0
 11
1558.1302775388
 21
483.8788996961
 31
0.0
  0
ARC
  5
241
330
1F
100
AcDbEntity
  8
0
  6
Continuous
 62
     7
370
    15
100
AcDbCircle
 10
1540.4457025782
 20
484.7378639944
 30
0.0
 40
0.8755379185749737
100
AcDbArc
 50
173.8233118129
 51
258.8340335385
  0
LINE
  5
242
330
1F
100
AcDbEntity
  8
0
  6
Continuous
 62
     7
370
    15
100
AcDbLine
 10
1542.586742187
 20
483.8788996961
 30
0.0
 11
1540.2761532311
 21
483.8788996961
 31
0.0
  0
ARC
  5
243
330
1F
100
AcDbEntity
  8
0
  6
Continuous
 62
     7
370
    15
100
AcDbCircle
 10
1563.1923260438
 20
484.7421014915
 30
0.0
 40
0.8782554125474049
100
AcDbArc
 50
280.6235565583
 51
5.8795232223
  0
LINE
  5
244
330
1F
100
AcDbEntity
  8
0
  6
Continuous
 62
     7
370
    15
100
AcDbLine
 10
1563.3542372231
 20
483.8788996961
 30
0.0
 11
1560.9147681241
 21
483.8788996961
 31
0.0
  0
ARC
  5
245
330
1F
100
AcDbEntity
  8
0
  6
Continuous
 62
     7
370
    15
100
AcDbCircle
 10
1538.3282009119
 20
484.7905909557
 30
0.0
 40
0.9161408579429592
100
AcDbArc
 50
177.4051629791
 51
264.3507233571
  0
LINE
  5
246
330
1F
100
AcDbEntity
  8
0
  6
Continuous
 62
     7
370
    15
100
AcDbLine
 10
1540.2761532311
 20
483.8788996961
 30
0.0
 11
1538.2380171065
 21
483.8788996961
 31
0.0
  0
ARC
  5
247
330
1F
100
AcDbEntity
  8
0
  6
Continuous
 62
     7
370
    15
100
AcDbCircle
 10
1565.1559795611
 20
484.7919868313
 30
0.0
 40
0.9173587860619158
100
AcDbArc
 50
275.5313935583
 51
2.5041207087
  0
LINE
  5
248
330
1F
100
AcDbEntity
  8
0
  6
Continuous
 62
     7
370
    15
100
AcDbLine
 10
1565.2444048171
 20
483.8788996961
 30
0.0
 11
1563.3542372231
 21
483.8788996961
 31
0.0
  0
ARC
  5
249
330
1F
100
AcDbEntity
  8
0
  6
Continuous
 62
     7
370
    15
100
AcDbCircle
 10
1536.7522751499
 20
484.8361852445
 30
0.0
 40
0.9580871308128065
100
AcDbArc
 50
180.2462587949
 51
267.6560977186
  0
LINE
  5
24A
330
1F
100
AcDbEntity
  8
0
  6
Continuous
 62
     7
370
    15
100
AcDbLine
 10
1538.2380171065
 20
483.8788996961
 30
0.0
 11
1536.7130918746
 21
483.8788996961
 31
0.0
  0
ARC
  5
24B
330
1F
100
AcDbEntity
  8
0
  6
Continuous
 62
     7
370
    15
100
AcDbCircle
 10
1566.7201840816
 20
484.8368820492
 30
0.0
 40
0.9587547382398812
100
AcDbArc
 50
272.3000113478
 51
359.7122707466
  0
LINE
  5
24C
330
1F
100
AcDbEntity
  8
0
  6
Continuous
 62
     7
370
    15
100
AcDbLine
 10
1566.7586608176
 20
483.8788996961
 30
0.0
 11
1565.2444048171
 21
483.8788996961
 31
0.0
  0
ARC
  5
24D
330
1F
100
AcDbEntity
  8
0
  6
Continuous
 62
     7
370
    15
100
AcDbCircle
 10
1535.485296438
 20
484.8761335413
 30
0.0
 40
0.9972365560962747
100
AcDbArc
 50
182.5326266175
 51
269.8664052726
  0
SPLINE
  5
24E
330
1F
100
AcDbEntity
  8
0
  6
Continuous
 62
     7
370
    15
100
AcDbSpline
210
0.0
220
0.0
230
1.0
 70
    24
 71
     3
 72
     9
 73
     5
 74
     0
 42
0.00000001
 43
0.00000001
 12
1.0
 22
0.0
 32
0.0
 13
1.0
 23
0.0
 33
0.0
 40
0.0
 40
0.0
 40
0.0
 40
0.0
 40
0.4942587333121403
 40
1.0
 40
1.0
 40
1.0
 40
1.0
 10
1536.7130918746
 20
483.8788996960614
 30
0.0
 10
1536.420505472617
 20
483.8788996960614
 30
0.0
 10
1535.828535351984
 20
483.8788996960614
 30
0.0
 10
1535.599037666091
 20
483.8788996960614
 30
0.0
 10
1535.482971215726
 20
483.8788996960614
 30
0.0
  0
ARC
  5
24F
330
1F
100
AcDbEntity
  8
0
  6
Continuous
 62
     7
370
    15
100
AcDbCircle
 10
1567.6917209416
 20
484.8675608359
 30
0.0
 40
0.9887093743771471
100
AcDbArc
 50
270.5659581305
 51
357.942709227
  0
LINE
  5
250
330
1F
100
AcDbEntity
  8
0
  6
Continuous
 62
     7
370
    15
100
AcDbLine
 10
1567.7014870887
 20
483.8788996961
 30
0.0
 11
1566.7586608176
 21
483.8788996961
 31
0.0
  0
SPLINE
  5
251
330
1F
100
AcDbEntity
  8
0
  6
Continuous
 62
     7
370
    15
100
AcDbSpline
210
0.0
220
0.0
230
1.0
 70
    24
 71
     3
 72
     9
 73
     5
 74
     0
 42
0.00000001
 43
0.00000001
 12
1.0
 22
0.0
 32
0.0
 13
1.0
 23
0.0
 33
0.0
 40
0.0
 40
0.0
 40
0.0
 40
0.0
 40
0.5937556166077556
 40
0.9999999999999999
 40
0.9999999999999999
 40
0.9999999999999999
 40
0.9999999999999999
 10
1889.678923631192
 20
484.832067372987
 30
0.0
 10
1889.921169207868
 20
484.832067372987
 30
0.0
 10
1890.32915789867
 20
484.832067372987
 30
0.0
 10
1890.578497224444
 20
484.8320673729871
 30
0.0
 10
1890.679789925099
 20
484.832067372987
 30
0.0
  0
SPLINE
  5
252
330
1F
100
AcDbEntity
  8
0
  6
Continuous
 62
     7
370
    15
100
AcDbSpline
210
0.0
220
0.0
230
1.0
 70
     8
 71
     3
 72
     9
 73
     5
 74
     0
 42
0.00000001
 43
0.00000001
 12
1.0
 22
0.0
 32
0.0
 13
1.0
 23
0.0
 33
0.0
 40
0.0
 40
0.0
 40
0.0
 40
0.0
 40
0.5933651215151245
 40
1.0
 40
1.0
 40
1.0
 40
1.0
 10
1888.072459245206
 20
484.832067372987
 30
0.0
 10
1888.430418105725
 20
484.8320759640246
 30
0.0
 10
1889.033687235542
 20
484.8320904425256
 30
0.0
 10
1889.492396461027
 20
484.8320740420091
 30
0.0
 10
1889.678923631192
 20
484.832067372987
 30
0.0
  0
SPLINE
  5
253
330
1F
100
AcDbEntity
  8
0
  6
Continuous
 62
     7
370
    15
100
AcDbSpline
210
0.0
220
0.0
230
1.0
 70
    24
 71
     3
 72
     9
 73
     5
 74
     0
 42
0.00000001
 43
0.00000001
 12
1.0
 22
0.0
 32
0.0
 13
1.0
 23
0.0
 33
0.0
 40
0.0
 40
0.0
 40
0.0
 40
0.0
 40
0.6315636006895525
 40
1.0
 40
1.0
 40
1.0
 40
1.0
 10
1886.065958285809
 20
484.832067372987
 30
0.0
 10
1886.521313075865
 20
484.832067372987
 30
0.0
 10
1887.242309012866
 20
484.832067372987
 30
0.0
 10
1887.848950456164
 20
484.8320673729871
 30
0.0
 10
1888.072459245206
 20
484.832067372987
 30
0.0
  0
SPLINE
  5
254
330
1F
100
AcDbEntity
  8
0
  6
Continuous
 62
     7
370
    15
100
AcDbSpline
210
0.0
220
0.0
230
1.0
 70
     8
 71
     3
 72
     9
 73
     5
 74
     0
 42
0.00000001
 43
0.00000001
 12
1.0
 22
0.0
 32
0.0
 13
1.0
 23
0.0
 33
0.0
 40
0.0
 40
0.0
 40
0.0
 40
0.0
 40
0.593360213172277
 40
1.0
 40
1.0
 40
1.0
 40
1.0
 10
1883.477954411984
 20
484.832067372987
 30
0.0
 10
1884.019331931834
 20
484.8320759639508
 30
0.0
 10
1884.931724619837
 20
484.8320904424475
 30
0.0
 10
1885.738067278842
 20
484.8320740420436
 30
0.0
 10
1886.065958285809
 20
484.832067372987
 30
0.0
  0
SPLINE
  5
255
330
1F
100
AcDbEntity
  8
0
  6
Continuous
 62
     7
370
    15
100
AcDbSpline
210
0.0
220
0.0
230
1.0
 70
    24
 71
     3
 72
     9
 73
     5
 74
     0
 42
0.00000001
 43
0.00000001
 12
1.0
 22
0.0
 32
0.0
 13
1.0
 23
0.0
 33
0.0
 40
0.0
 40
0.0
 40
0.0
 40
0.0
 40
0.5937504282096494
 40
0.9999999999999999
 40
0.9999999999999999
 40
0.9999999999999999
 40
0.9999999999999999
 10
1880.521981263638
 20
484.832067372987
 30
0.0
 10
1881.129529182092
 20
484.8320673729871
 30
0.0
 10
1882.152767043638
 20
484.8320673729871
 30
0.0
 10
1883.095122792525
 20
484.832067372987
 30
0.0
 10
1883.477954411984
 20
484.832067372987
 30
0.0
  0
SPLINE
  5
256
330
1F
100
AcDbEntity
  8
0
  6
Continuous
 62
     7
370
    15
100
AcDbSpline
210
0.0
220
0.0
230
1.0
 70
     8
 71
     3
 72
     9
 73
     5
 74
     0
 42
0.00000001
 43
0.00000001
 12
1.0
 22
0.0
 32
0.0
 13
1.0
 23
0.0
 33
0.0
 40
0.0
 40
0.0
 40
0.0
 40
0.0
 40
0.3812020884148371
 40
1.0
 40
1.0
 40
1.0
 40
1.0
 10
1875.445811295987
 20
484.832067372987
 30
0.0
 10
1876.109754017083
 20
484.8320738699839
 30
0.0
 10
1877.851462001572
 20
484.8320909134291
 30
0.0
 10
1879.501154803221
 20
484.8320763715014
 30
0.0
 10
1880.521981263638
 20
484.832067372987
 30
0.0
  0
SPLINE
  5
257
330
1F
100
AcDbEntity
  8
0
  6
Continuous
 62
     7
370
    15
100
AcDbSpline
210
0.0
220
0.0
230
1.0
 70
     8
 71
     3
 72
     9
 73
     5
 74
     0
 42
0.00000001
 43
0.00000001
 12
1.0
 22
0.0
 32
0.0
 13
1.0
 23
0.0
 33
0.0
 40
0.0
 40
0.0
 40
0.0
 40
0.0
 40
0.3811659966499399
 40
1.0
 40
1.0
 40
1.0
 40
1.0
 10
1870.211316490651
 20
484.832067372987
 30
0.0
 10
1870.87066089925
 20
484.8320738697498
 30
0.0
 10
1872.600469996583
 20
484.8320909141947
 30
0.0
 10
1874.358118584094
 20
484.8320763721184
 30
0.0
 10
1875.445811295987
 20
484.832067372987
 30
0.0
  0
SPLINE
  5
258
330
1F
100
AcDbEntity
  8
0
  6
Continuous
 62
     7
370
    15
100
AcDbSpline
210
0.0
220
0.0
230
1.0
 70
    24
 71
     3
 72
     9
 73
     5
 74
     0
 42
0.00000001
 43
0.00000001
 12
1.0
 22
0.0
 32
0.0
 13
1.0
 23
0.0
 33
0.0
 40
0.0
 40
0.0
 40
0.0
 40
0.0
 40
0.5937556166077556
 40
0.9999999999999999
 40
0.9999999999999999
 40
0.9999999999999999
 40
0.9999999999999999
 10
1866.993231916905
 20
484.832067372987
 30
0.0
 10
1867.616862698332
 20
484.832067372987
 30
0.0
 10
1868.667178289434
 20
484.832067372987
 30
0.0
 10
1869.76523650709
 20
484.8320673729871
 30
0.0
 10
1870.211316490651
 20
484.832067372987
 30
0.0
  0
SPLINE
  5
259
330
1F
100
AcDbEntity
  8
0
  6
Continuous
 62
     7
370
    15
100
AcDbSpline
210
0.0
220
0.0
230
1.0
 70
     8
 71
     3
 72
     9
 73
     5
 74
     0
 42
0.00000001
 43
0.00000001
 12
1.0
 22
0.0
 32
0.0
 13
1.0
 23
0.0
 33
0.0
 40
0.0
 40
0.0
 40
0.0
 40
0.0
 40
0.5933630920335798
 40
1.0
 40
1.0
 40
1.0
 40
1.0
 10
1864.028049850941
 20
484.832067372987
 30
0.0
 10
1864.593209331848
 20
484.8320759639941
 30
0.0
 10
1865.545677539754
 20
484.8320904424933
 30
0.0
 10
1866.574766403378
 20
484.8320740420234
 30
0.0
 10
1866.993231916905
 20
484.832067372987
 30
0.0
  0
SPLINE
  5
25A
330
1F
100
AcDbEntity
  8
0
  6
Continuous
 62
     7
370
    15
100
AcDbSpline
210
0.0
220
0.0
230
1.0
 70
    24
 71
     3
 72
     9
 73
     5
 74
     0
 42
0.00000001
 43
0.00000001
 12
1.0
 22
0.0
 32
0.0
 13
1.0
 23
0.0
 33
0.0
 40
0.0
 40
0.0
 40
0.0
 40
0.0
 40
0.6315636006895525
 40
1.0
 40
1.0
 40
1.0
 40
1.0
 10
1861.575259113789
 20
484.832067372987
 30
0.0
 10
1862.065335427319
 20
484.832067372987
 30
0.0
 10
1862.841308445706
 20
484.832067372987
 30
0.0
 10
1863.708532823714
 20
484.8320673729871
 30
0.0
 10
1864.028049850941
 20
484.832067372987
 30
0.0
  0
SPLINE
  5
25B
330
1F
100
AcDbEntity
  8
0
  6
Continuous
 62
     7
370
    15
100
AcDbSpline
210
0.0
220
0.0
230
1.0
 70
     8
 71
     3
 72
     9
 73
     5
 74
     0
 42
0.00000001
 43
0.00000001
 12
1.0
 22
0.0
 32
0.0
 13
1.0
 23
0.0
 33
0.0
 40
0.0
 40
0.0
 40
0.0
 40
0.0
 40
0.5933572078469085
 40
1.0
 40
1.0
 40
1.0
 40
1.0
 10
1859.413011217595
 20
484.832067372987
 30
0.0
 10
1859.806002715779
 20
484.8320759639058
 30
0.0
 10
1860.4683212871
 20
484.8320904423996
 30
0.0
 10
1861.255257268903
 20
484.8320740420649
 30
0.0
 10
1861.575259113789
 20
484.832067372987
 30
0.0
  0
SPLINE
  5
25C
330
1F
100
AcDbEntity
  8
0
  6
Continuous
 62
     7
370
    15
100
AcDbSpline
210
0.0
220
0.0
230
1.0
 70
    24
 71
     3
 72
     9
 73
     5
 74
     0
 42
0.00000001
 43
0.00000001
 12
1.0
 22
0.0
 32
0.0
 13
1.0
 23
0.0
 33
0.0
 40
0.0
 40
0.0
 40
0.0
 40
0.0
 40
0.593750461021999
 40
1.0
 40
1.0
 40
1.0
 40
1.0
 10
1857.79420867014
 20
484.832067372987
 30
0.0
 10
1858.074366548652
 20
484.832067372987
 30
0.0
 10
1858.546211030305
 20
484.832067372987
 30
0.0
 10
1859.162602476676
 20
484.832067372987
 30
0.0
 10
1859.413011217595
 20
484.832067372987
 30
0.0
  0
SPLINE
  5
25D
330
1F
100
AcDbEntity
  8
0
  6
Continuous
 62
     7
370
    15
100
AcDbSpline
210
0.0
220
0.0
230
1.0
 70
     8
 71
     3
 72
     9
 73
     5
 74
     0
 42
0.00000001
 43
0.00000001
 12
1.0
 22
0.0
 32
0.0
 13
1.0
 23
0.0
 33
0.0
 40
0.0
 40
0.0
 40
0.0
 40
0.0
 40
0.3812017593697127
 40
1.0
 40
1.0
 40
1.0
 40
1.0
 10
1856.489030862332
 20
484.832067372987
 30
0.0
 10
1856.575345982857
 20
484.8320738699817
 30
0.0
 10
1856.80177494968
 20
484.832090913436
 30
0.0
 10
1857.414843147773
 20
484.8320763715071
 30
0.0
 10
1857.79420867014
 20
484.832067372987
 30
0.0
  0
LINE
  5
25E
330
1F
100
AcDbEntity
  8
0
  6
Continuous
 62
     7
370
    15
100
AcDbLine
 10
1856.479568625
 20
484.8320822741
 30
0.0
 11
1856.4890308623
 21
484.832067373
 31
0.0
  0
ARC
  5
25F
330
1F
100
AcDbEntity
  8
0
  6
Continuous
 62
     7
370
    15
100
AcDbCircle
 10
1873.0167073011
 20
484.6038128583
 30
0.0
 40
2.439804570339671
100
AcDbArc
 50
342.7153331698
 51
5.3681239271
  0
ARC
  5
260
330
1F
100
AcDbEntity
  8
0
  6
Continuous
 62
     7
370
    15
100
AcDbCircle
 10
1871.5255099815
 20
484.6123983795
 30
0.0
 40
1.332425982184044
100
AcDbArc
 50
170.5106696027
 51
213.4012280915
  0
SPLINE
  5
261
330
1F
100
AcDbEntity
  8
0
  6
Continuous
 62
     7
370
    15
100
AcDbSpline
210
0.0
220
0.0
230
1.0
 70
    24
 71
     3
 72
     9
 73
     5
 74
     0
 42
0.00000001
 43
0.00000001
 12
1.0
 22
0.0
 32
0.0
 13
1.0
 23
0.0
 33
0.0
 40
0.0
 40
0.0
 40
0.0
 40
0.0
 40
0.4942302744824954
 40
1.0
 40
1.0
 40
1.0
 40
1.0
 10
1875.346331143857
 20
483.8788996960614
 30
0.0
 10
1874.528859825389
 20
483.8788996960614
 30
0.0
 10
1872.874830599188
 20
483.8788996960614
 30
0.0
 10
1871.240000360241
 20
483.8788996960614
 30
0.0
 10
1870.413152719022
 20
483.8788996960614
 30
0.0
  0
LWPOLYLINE
  5
262
330
1F
100
AcDbEntity
  8
0
  6
Continuous
 62
     7
370
    15
100
AcDbPolyline
 90
        9
 70
   128
 43
0.0
 10
1880.5219812636
 20
484.832067373
 10
1880.5114312415
 20
484.6437912013
 10
1880.487067843
 20
484.4640086915
 10
1880.44981494
 20
484.299231651
 10
1880.4009987359
 20
484.1554205443
 10
1880.3423775678
 20
484.037805679
 10
1880.2760823016
 20
483.9506040837
 10
1880.2045269256
 20
483.8969897058
 10
1880.1302744393
 20
483.8788996961
  0
SPLINE
  5
263
330
1F
100
AcDbEntity
  8
0
  6
Continuous
 62
     7
370
    15
100
AcDbSpline
210
0.0
220
0.0
230
1.0
 70
    24
 71
     3
 72
     9
 73
     5
 74
     0
 42
0.00000001
 43
0.00000001
 12
1.0
 22
0.0
 32
0.0
 13
1.0
 23
0.0
 33
0.0
 40
0.0
 40
0.0
 40
0.0
 40
0.0
 40
0.4942587333121403
 40
1.0
 40
1.0
 40
1.0
 40
1.0
 10
1880.130274439336
 20
483.8788996960614
 30
0.0
 10
1879.365311016237
 20
483.8788996960614
 30
0.0
 10
1877.81761267215
 20
483.8788996960614
 30
0.0
 10
1876.176373514423
 20
483.8788996960614
 30
0.0
 10
1875.346331143857
 20
483.8788996960614
 30
0.0
  0
LWPOLYLINE
  5
264
330
1F
100
AcDbEntity
  8
0
  6
Continuous
 62
     7
370
    15
100
AcDbPolyline
 90
        9
 70
   128
 43
0.0
 10
1866.9932319169
 20
484.832067373
 10
1867.0037074332
 20
484.6437912013
 10
1867.0278622155
 20
484.4640086915
 10
1867.0648170953
 20
484.299231651
 10
1867.1132458692
 20
484.1554205443
 10
1867.171375299
 20
484.037805679
 10
1867.2371192222
 20
483.9506040837
 10
1867.3081083541
 20
483.8969897058
 10
1867.3817498927
 20
483.8788996961
  0
LINE
  5
265
330
1F
100
AcDbEntity
  8
0
  6
Continuous
 62
     7
370
    15
100
AcDbLine
 10
1870.413152719
 20
483.8788996961
 30
0.0
 11
1867.3817498927
 21
483.8788996961
 31
0.0
  0
LWPOLYLINE
  5
266
330
1F
100
AcDbEntity
  8
0
  6
Continuous
 62
     7
370
    15
100
AcDbPolyline
 90
        9
 70
   128
 43
0.0
 10
1864.0280498509
 20
484.832067373
 10
1864.0431149249
 20
484.6437912013
 10
1864.0778495317
 20
484.4640086915
 10
1864.1309870725
 20
484.299231651
 10
1864.2006201987
 20
484.1554205443
 10
1864.2842306142
 20
484.037805679
 10
1864.378778482
 20
483.9506040837
 10
1864.4808514361
 20
483.8969897058
 10
1864.5867539887
 20
483.8788996961
  0
LINE
  5
267
330
1F
100
AcDbEntity
  8
0
  6
Continuous
 62
     7
370
    15
100
AcDbLine
 10
1867.3817498927
 20
483.8788996961
 30
0.0
 11
1864.5867539887
 21
483.8788996961
 31
0.0
  0
LWPOLYLINE
  5
268
330
1F
100
AcDbEntity
  8
0
  6
Continuous
 62
     7
370
    15
100
AcDbPolyline
 90
        9
 70
   128
 43
0.0
 10
1883.477954412
 20
484.832067373
 10
1883.4627552276
 20
484.6437912013
 10
1883.4277523999
 20
484.4640086915
 10
1883.3741827254
 20
484.299231651
 10
1883.303983355
 20
484.1554205443
 10
1883.2197172885
 20
484.037805679
 10
1883.1244094615
 20
483.9506040837
 10
1883.0215169435
 20
483.8969897058
 10
1882.9147650247
 20
483.8788996961
  0
LINE
  5
269
330
1F
100
AcDbEntity
  8
0
  6
Continuous
 62
     7
370
    15
100
AcDbLine
 10
1882.9147650247
 20
483.8788996961
 30
0.0
 11
1880.1302744393
 21
483.8788996961
 31
0.0
  0
ARC
  5
26A
330
1F
100
AcDbEntity
  8
0
  6
Continuous
 62
     7
370
    15
100
AcDbCircle
 10
1862.4456910572
 20
484.7378441938
 30
0.0
 40
0.8755168619767317
100
AcDbArc
 50
173.82185932
 51
258.8343232984
  0
LINE
  5
26B
330
1F
100
AcDbEntity
  8
0
  6
Continuous
 62
     7
370
    15
100
AcDbLine
 10
1864.5867539887
 20
483.8788996961
 30
0.0
 11
1862.2761501317
 21
483.8788996961
 31
0.0
  0
ARC
  5
26C
330
1F
100
AcDbEntity
  8
0
  6
Continuous
 62
     7
370
    15
100
AcDbCircle
 10
1885.1923229444
 20
484.7421014915
 30
0.0
 40
0.8782554125470138
100
AcDbArc
 50
280.6235565583
 51
5.8795232224
  0
LINE
  5
26D
330
1F
100
AcDbEntity
  8
0
  6
Continuous
 62
     7
370
    15
100
AcDbLine
 10
1885.3542341237
 20
483.8788996961
 30
0.0
 11
1882.9147650247
 21
483.8788996961
 31
0.0
  0
ARC
  5
26E
330
1F
100
AcDbEntity
  8
0
  6
Continuous
 62
     7
370
    15
100
AcDbCircle
 10
1860.3281805037
 20
484.7905616667
 30
0.0
 40
0.9161100075032764
100
AcDbArc
 50
177.4032418524
 51
264.351620315
  0
LINE
  5
26F
330
1F
100
AcDbEntity
  8
0
  6
Continuous
 62
     7
370
    15
100
AcDbLine
 10
1862.2761501317
 20
483.8788996961
 30
0.0
 11
1860.2380140071
 21
483.8788996961
 31
0.0
  0
ARC
  5
270
330
1F
100
AcDbEntity
  8
0
  6
Continuous
 62
     7
370
    15
100
AcDbCircle
 10
1887.1559737068
 20
484.791987842
 30
0.0
 40
0.9173614941586773
100
AcDbArc
 50
275.5324850847
 51
2.5040501228
  0
LINE
  5
271
330
1F
100
AcDbEntity
  8
0
  6
Continuous
 62
     7
370
    15
100
AcDbLine
 10
1887.2444166188
 20
483.8788996961
 30
0.0
 11
1885.3542341237
 21
483.8788996961
 31
0.0
  0
ARC
  5
272
330
1F
100
AcDbEntity
  8
0
  6
Continuous
 62
     7
370
    15
100
AcDbCircle
 10
1858.7522615279
 20
484.8361607349
 30
0.0
 40
0.9580616023095925
100
AcDbArc
 50
180.2447995773
 51
267.6575569362
  0
LINE
  5
273
330
1F
100
AcDbEntity
  8
0
  6
Continuous
 62
     7
370
    15
100
AcDbLine
 10
1860.2380140071
 20
483.8788996961
 30
0.0
 11
1858.7131036763
 21
483.8788996961
 31
0.0
  0
ARC
  5
274
330
1F
100
AcDbEntity
  8
0
  6
Continuous
 62
     7
370
    15
100
AcDbCircle
 10
1888.7201864466
 20
484.8368761719
 30
0.0
 40
0.95874924442997
100
AcDbArc
 50
272.3005889402
 51
359.712620336
  0
LINE
  5
275
330
1F
100
AcDbEntity
  8
0
  6
Continuous
 62
     7
370
    15
100
AcDbLine
 10
1888.7586726193
 20
483.8788996961
 30
0.0
 11
1887.2444166188
 21
483.8788996961
 31
0.0
  0
ARC
  5
276
330
1F
100
AcDbEntity
  8
0
  6
Continuous
 62
     7
370
    15
100
AcDbCircle
 10
1857.4853019279
 20
484.8761424981
 30
0.0
 40
0.9972455328726999
100
AcDbArc
 50
182.5331189089
 51
269.8659129811
  0
SPLINE
  5
277
330
1F
100
AcDbEntity
  8
0
  6
Continuous
 62
     7
370
    15
100
AcDbSpline
210
0.0
220
0.0
230
1.0
 70
    24
 71
     3
 72
     9
 73
     5
 74
     0
 42
0.00000001
 43
0.00000001
 12
1.0
 22
0.0
 32
0.0
 13
1.0
 23
0.0
 33
0.0
 40
0.0
 40
0.0
 40
0.0
 40
0.0
 40
0.4942584716511866
 40
1.0
 40
1.0
 40
1.0
 40
1.0
 10
1858.71310367632
 20
483.8788996960614
 30
0.0
 10
1858.42051845244
 20
483.8788996960614
 30
0.0
 10
1857.828550401993
 20
483.8788996960614
 30
0.0
 10
1857.599040702484
 20
483.8788996960614
 30
0.0
 10
1857.482968116284
 20
483.8788996960614
 30
0.0
  0
ARC
  5
278
330
1F
100
AcDbEntity
  8
0
  6
Continuous
 62
     7
370
    15
100
AcDbCircle
 10
1889.6917238856
 20
484.8675544803
 30
0.0
 40
0.9887031066825879
100
AcDbArc
 50
270.5664750515
 51
357.9430647233
  0
LINE
  5
279
330
1F
100
AcDbEntity
  8
0
  6
Continuous
 62
     7
370
    15
100
AcDbLine
 10
1889.7014988904
 20
483.8788996961
 30
0.0
 11
1888.7586726193
 21
483.8788996961
 31
0.0
  0
LINE
  5
27A
330
1F
100
AcDbEntity
  8
0
  6
Continuous
 62
     7
370
    15
100
AcDbLine
 10
1513.7210471873
 20
817.3788975503
 30
0.0
 11
1513.7210471873
 21
509.3788992192
 31
0.0
  0
LINE
  5
27B
330
1F
100
AcDbEntity
  8
0
  6
Continuous
 62
     7
370
    15
100
AcDbLine
 10
1513.7210471873
 20
817.3788975503
 30
0.0
 11
1911.7210490947
 21
817.3788975503
 31
0.0
  0
LINE
  5
27C
330
1F
100
AcDbEntity
  8
0
  6
Continuous
 62
     7
370
    15
100
AcDbLine
 10
1911.7210490947
 20
509.3788992192
 30
0.0
 11
1911.7210490947
 21
817.3788975503
 31
0.0
  0
LINE
  5
27D
330
1F
100
AcDbEntity
  8
0
  6
Continuous
 62
     7
370
    15
100
AcDbLine
 10
1911.7210490947
 20
509.3788992192
 30
0.0
 11
1513.7210471873
 21
509.3788992192
 31
0.0
  0
LINE
  5
27E
330
1F
100
AcDbEntity
  8
0
  6
Continuous
 62
     7
370
    15
100
AcDbLine
 10
1916.7210443263
 20
817.3788975503
 30
0.0
 11
1916.7210443263
 21
509.3788992192
 31
0.0
  0
LINE
  5
27F
330
1F
100
AcDbEntity
  8
0
  6
Continuous
 62
     7
370
    15
100
AcDbLine
 10
1911.7210490947
 20
817.3788975503
 30
0.0
 11
1916.7210443263
 21
817.3788975503
 31
0.0
  0
LINE
  5
280
330
1F
100
AcDbEntity
  8
0
  6
Continuous
 62
     7
370
    15
100
AcDbLine
 10
1916.7210443263
 20
509.3788992192
 30
0.0
 11
1911.7210490947
 21
509.3788992192
 31
0.0
  0
LINE
  5
281
330
1F
100
AcDbEntity
  8
0
  6
Continuous
 62
     7
370
    15
100
AcDbLine
 10
1508.7210519557
 20
509.3788992192
 30
0.0
 11
1508.7210519557
 21
817.3788975503
 31
0.0
  0
LINE
  5
282
330
1F
100
AcDbEntity
  8
0
  6
Continuous
 62
     7
370
    15
100
AcDbLine
 10
1508.7210519557
 20
817.3788975503
 30
0.0
 11
1513.7210471873
 21
817.3788975503
 31
0.0
  0
LINE
  5
283
330
1F
100
AcDbEntity
  8
0
  6
Continuous
 62
     7
370
    15
100
AcDbLine
 10
1513.7210471873
 20
509.3788992192
 30
0.0
 11
1508.7210519557
 21
509.3788992192
 31
0.0
  0
LINE
  5
284
330
1F
100
AcDbEntity
  8
0
  6
Continuous
 62
     7
370
    15
100
AcDbLine
 10
1513.7210471873
 20
499.3788938548
 30
0.0
 11
1911.7210490947
 21
499.3788938548
 31
0.0
  0
LINE
  5
285
330
1F
100
AcDbEntity
  8
0
  6
Continuous
 62
     7
370
    15
100
AcDbLine
 10
1911.7210490947
 20
499.3788938548
 30
0.0
 11
1911.7210490947
 21
494.3788986232
 31
0.0
  0
LINE
  5
286
330
1F
100
AcDbEntity
  8
0
  6
Continuous
 62
     7
370
    15
100
AcDbLine
 10
1911.7210490947
 20
494.3788986232
 30
0.0
 11
1513.7210471873
 21
494.3788986232
 31
0.0
  0
LINE
  5
287
330
1F
100
AcDbEntity
  8
0
  6
Continuous
 62
     7
370
    15
100
AcDbLine
 10
1513.7210471873
 20
499.3788938548
 30
0.0
 11
1513.7210471873
 21
494.3788986232
 31
0.0
  0
LINE
  5
288
330
1F
100
AcDbEntity
  8
0
  6
Continuous
 62
     7
370
    15
100
AcDbLine
 10
1911.7210490947
 20
499.3788938548
 30
0.0
 11
1916.7210443263
 21
499.3788938548
 31
0.0
  0
ARC
  5
289
330
1F
100
AcDbEntity
  8
0
  6
Continuous
 62
     7
370
    15
100
AcDbCircle
 10
1911.721048141
 20
499.3788983848
 30
0.0
 40
5.000000000000057
100
AcDbArc
 50
270.0
 51
0.0
  0
LINE
  5
28A
330
1F
100
AcDbEntity
  8
0
  6
Continuous
 62
     7
370
    15
100
AcDbLine
 10
1911.7210490947
 20
499.3788938548
 30
0.0
 11
1911.7210490947
 21
509.3788992192
 31
0.0
  0
LINE
  5
28B
330
1F
100
AcDbEntity
  8
0
  6
Continuous
 62
     7
370
    15
100
AcDbLine
 10
1513.7210471873
 20
509.3788992192
 30
0.0
 11
1513.7210471873
 21
499.3788938548
 31
0.0
  0
LINE
  5
28C
330
1F
100
AcDbEntity
  8
0
  6
Continuous
 62
     7
370
    15
100
AcDbLine
 10
1916.7210443263
 20
509.3788992192
 30
0.0
 11
1916.7210443263
 21
499.3788938548
 31
0.0
  0
LINE
  5
28D
330
1F
100
AcDbEntity
  8
0
  6
Continuous
 62
     7
370
    15
100
AcDbLine
 10
1508.7210519557
 20
499.3788938548
 30
0.0
 11
1513.7210471873
 21
499.3788938548
 31
0.0
  0
LINE
  5
28E
330
1F
100
AcDbEntity
  8
0
  6
Continuous
 62
     7
370
    15
100
AcDbLine
 10
1508.7210519557
 20
499.3788938548
 30
0.0
 11
1508.7210519557
 21
509.3788992192
 31
0.0
  0
ARC
  5
28F
330
1F
100
AcDbEntity
  8
0
  6
Continuous
 62
     7
370
    15
100
AcDbCircle
 10
1513.721048141
 20
499.3788983848
 30
0.0
 40
5.0
100
AcDbArc
 50
180.0
 51
270.0
  0
LINE
  5
290
330
1F
100
AcDbEntity
  8
0
  6
Continuous
 62
     7
370
    15
100
AcDbLine
 10
1911.7210490947
 20
827.3789029147
 30
0.0
 11
1513.7210471873
 21
827.3789029147
 31
0.0
  0
LINE
  5
291
330
1F
100
AcDbEntity
  8
0
  6
Continuous
 62
     7
370
    15
100
AcDbLine
 10
1513.7210471873
 20
827.3789029147
 30
0.0
 11
1513.7210471873
 21
832.3788981463
 31
0.0
  0
LINE
  5
292
330
1F
100
AcDbEntity
  8
0
  6
Continuous
 62
     7
370
    15
100
AcDbLine
 10
1513.7210471873
 20
832.3788981463
 30
0.0
 11
1911.7210490947
 21
832.3788981463
 31
0.0
  0
LINE
  5
293
330
1F
100
AcDbEntity
  8
0
  6
Continuous
 62
     7
370
    15
100
AcDbLine
 10
1911.7210490947
 20
827.3789029147
 30
0.0
 11
1911.7210490947
 21
832.3788981463
 31
0.0
  0
LINE
  5
294
330
1F
100
AcDbEntity
  8
0
  6
Continuous
 62
     7
370
    15
100
AcDbLine
 10
1911.7210490947
 20
817.3788975503
 30
0.0
 11
1911.7210490947
 21
827.3789029147
 31
0.0
  0
LINE
  5
295
330
1F
100
AcDbEntity
  8
0
  6
Continuous
 62
     7
370
    15
100
AcDbLine
 10
1916.7210443263
 20
827.3789029147
 30
0.0
 11
1911.7210490947
 21
827.3789029147
 31
0.0
  0
LINE
  5
296
330
1F
100
AcDbEntity
  8
0
  6
Continuous
 62
     7
370
    15
100
AcDbLine
 10
1916.7210443263
 20
827.3789029147
 30
0.0
 11
1916.7210443263
 21
817.3788975503
 31
0.0
  0
ARC
  5
297
330
1F
100
AcDbEntity
  8
0
  6
Continuous
 62
     7
370
    15
100
AcDbCircle
 10
1911.721048141
 20
827.3788983848
 30
0.0
 40
5.0
100
AcDbArc
 50
0.0
 51
90.0
  0
LINE
  5
298
330
1F
100
AcDbEntity
  8
0
  6
Continuous
 62
     7
370
    15
100
AcDbLine
 10
1513.7210471873
 20
827.3789029147
 30
0.0
 11
1513.7210471873
 21
817.3788975503
 31
0.0
  0
LINE
  5
299
330
1F
100
AcDbEntity
  8
0
  6
Continuous
 62
     7
370
    15
100
AcDbLine
 10
1508.7210519557
 20
817.3788975503
 30
0.0
 11
1508.7210519557
 21
827.3789029147
 31
0.0
  0
LINE
  5
29A
330
1F
100
AcDbEntity
  8
0
  6
Continuous
 62
     7
370
    15
100
AcDbLine
 10
1513.7210471873
 20
827.3789029147
 30
0.0
 11
1508.7210519557
 21
827.3789029147
 31
0.0
  0
ARC
  5
29B
330
1F
100
AcDbEntity
  8
0
  6
Continuous
 62
     7
370
    15
100
AcDbCircle
 10
1513.721048141
 20
827.3788983848
 30
0.0
 40
5.0
100
AcDbArc
 50
90.0
 51
180.0
  0
SPLINE
  5
29C
330
1F
100
AcDbEntity
  8
0
  6
Continuous
 62
     8
370
    15
100
AcDbSpline
210
0.0
220
0.0
230
1.0
 70
     8
 71
     3
 72
     9
 73
     5
 74
     0
 42
0.00000001
 43
0.00000001
 12
1.0
 22
0.0
 32
0.0
 13
1.0
 23
0.0
 33
0.0
 40
0.0
 40
0.0
 40
0.0
 40
0.0
 40
0.5687919871423306
 40
1.0
 40
1.0
 40
1.0
 40
1.0
 10
1568.67979302454
 20
484.832067372987
 30
0.0
 10
1568.805432113317
 20
484.832073752651
 30
0.0
 10
1569.026319698966
 20
484.8320849688144
 30
0.0
 10
1568.981747532405
 20
484.832083086023
 30
0.0
 10
1568.962527657033
 20
484.8320822741482
 30
0.0
  0
SPLINE
  5
29D
330
1F
100
AcDbEntity
  8
0
  6
Continuous
 62
     8
370
    15
100
AcDbSpline
210
0.0
220
0.0
230
1.0
 70
     8
 71
     3
 72
     9
 73
     5
 74
     0
 42
0.00000001
 43
0.00000001
 12
1.0
 22
0.0
 32
0.0
 13
1.0
 23
0.0
 33
0.0
 40
0.0
 40
0.0
 40
0.0
 40
0.0
 40
0.5687920002816745
 40
1.0
 40
1.0
 40
1.0
 40
1.0
 10
1890.679789925099
 20
484.832067372987
 30
0.0
 10
1890.805427151266
 20
484.832073752651
 30
0.0
 10
1891.026311457136
 20
484.8320849688142
 30
0.0
 10
1890.981753294803
 20
484.8320830860228
 30
0.0
 10
1890.962539458752
 20
484.8320822741482
 30
0.0
  0
DIMENSION
  5
29E
330
1F
100
AcDbEntity
  8
MEDIÇÕES
100
AcDbDimension
  2
_D_1
 10
1408.720998141
 20
832.3788983848
 30
0.0
 11
1408.720998141
 21
657.8788983848
 31
0.0
 70
   160
  1
<>
 71
     2
 42
-1.0
  3
SLDDIMSTYLE0
100
AcDbAlignedDimension
 13
1537.321048141
 23
483.3788983849
 33
0.0
 14
1513.721048141
 24
832.3788983848
 34
0.0
 50
90.0
100
AcDbRotatedDimension
  0
CIRCLE
  5
2A8
330
1F
100
AcDbEntity
  8
0
  6
Continuous
 62
     7
370
    15
100
AcDbCircle
 10
731.308929635
 20
1529.1655660518
 30
0.0
 40
55.0
  0
CIRCLE
  5
2A9
330
1F
100
AcDbEntity
  8
0
  6
Continuous
 62
     7
370
    15
100
AcDbCircle
 10
731.308929635
 20
1529.1655660518
 30
0.0
 40
54.90000000000009
  0
CIRCLE
  5
2AA
330
1F
100
AcDbEntity
  8
0
  6
Continuous
 62
     7
370
    15
100
AcDbCircle
 10
773.308929635
 20
1529.1655660518
 30
0.0
 40
6.0
  0
CIRCLE
  5
2AB
330
1F
100
AcDbEntity
  8
0
  6
Continuous
 62
     7
370
    15
100
AcDbCircle
 10
731.308929635
 20
1487.1655660518
 30
0.0
 40
6.000000000000227
  0
CIRCLE
  5
2AC
330
1F
100
AcDbEntity
  8
0
  6
Continuous
 62
     7
370
    15
100
AcDbCircle
 10
689.308929635
 20
1529.1655660518
 30
0.0
 40
6.0
  0
CIRCLE
  5
2AD
330
1F
100
AcDbEntity
  8
0
  6
Continuous
 62
     7
370
    15
100
AcDbCircle
 10
731.308929635
 20
1571.1655660518
 30
0.0
 40
5.999999999999773
  0
CIRCLE
  5
2AE
330
1F
100
AcDbEntity
  8
0
  6
Continuous
 62
     7
370
    15
100
AcDbCircle
 10
731.308929635
 20
1529.1655660518
 30
0.0
 40
20.0
  0
CIRCLE
  5
2AF
330
1F
100
AcDbEntity
  8
0
  6
Continuous
 62
     7
370
    15
100
AcDbCircle
 10
731.308929635
 20
1571.1655660518
 30
0.0
 40
3.0
  0
CIRCLE
  5
2B0
330
1F
100
AcDbEntity
  8
0
  6
Continuous
 62
     7
370
    15
100
AcDbCircle
 10
731.308929635
 20
1529.1655660518
 30
0.0
 40
19.0
  0
CIRCLE
  5
2B1
330
1F
100
AcDbEntity
  8
0
  6
Continuous
 62
     7
370
    15
100
AcDbCircle
 10
689.308929635
 20
1529.1655660518
 30
0.0
 40
3.0
  0
CIRCLE
  5
2B2
330
1F
100
AcDbEntity
  8
0
  6
Continuous
 62
     7
370
    15
100
AcDbCircle
 10
773.308929635
 20
1529.1655660518
 30
0.0
 40
3.0
  0
CIRCLE
  5
2B3
330
1F
100
AcDbEntity
  8
0
  6
Continuous
 62
     7
370
    15
100
AcDbCircle
 10
731.308929635
 20
1487.1655660518
 30
0.0
 40
3.0
  0
LINE
  5
2B4
330
1F
100
AcDbEntity
  8
0
  6
Continuous
 62
     7
370
    15
100
AcDbLine
 10
981.308929635
 20
1728.1655670055
 30
0.0
 11
976.3089344034
 21
1728.1655670055
 31
0.0
  0
LINE
  5
2B5
330
1F
100
AcDbEntity
  8
0
  6
Continuous
 62
     7
370
    15
100
AcDbLine
 10
976.3089344034
 20
1733.1655622371
 30
0.0
 11
976.3089344034
 21
1728.1655670055
 31
0.0
  0
ARC
  5
2B6
330
1F
100
AcDbEntity
  8
0
  6
Continuous
 62
     7
370
    15
100
AcDbCircle
 10
976.308929635
 20
1728.1655660518
 30
0.0
 40
5.0
100
AcDbArc
 50
0.0
 51
90.0
  0
LINE
  5
2B7
330
1F
100
AcDbEntity
  8
0
  6
Continuous
 62
     7
370
    15
100
AcDbLine
 10
486.3089248667
 20
1733.1655622371
 30
0.0
 11
976.3089344034
 21
1733.1655622371
 31
0.0
  0
LINE
  5
2B8
330
1F
100
AcDbEntity
  8
0
  6
Continuous
 62
     7
370
    15
100
AcDbLine
 10
976.3089344034
 20
1728.1655670055
 30
0.0
 11
486.3089248667
 21
1728.1655670055
 31
0.0
  0
LINE
  5
2B9
330
1F
100
AcDbEntity
  8
0
  6
Continuous
 62
     7
370
    15
100
AcDbLine
 10
486.3089248667
 20
1733.1655622371
 30
0.0
 11
486.3089248667
 21
1728.1655670055
 31
0.0
  0
LINE
  5
2BA
330
1F
100
AcDbEntity
  8
0
  6
Continuous
 62
     7
370
    15
100
AcDbLine
 10
486.3089248667
 20
1728.1655670055
 30
0.0
 11
481.308929635
 21
1728.1655670055
 31
0.0
  0
ARC
  5
2BB
330
1F
100
AcDbEntity
  8
0
  6
Continuous
 62
     7
370
    15
100
AcDbCircle
 10
486.308929635
 20
1728.1655660518
 30
0.0
 40
5.0
100
AcDbArc
 50
90.0
 51
180.0
  0
LINE
  5
2BC
330
1F
100
AcDbEntity
  8
0
  6
Continuous
 62
     7
370
    15
100
AcDbLine
 10
981.308929635
 20
1728.1655670055
 30
0.0
 11
981.308929635
 21
1330.1655650982
 31
0.0
  0
LINE
  5
2BD
330
1F
100
AcDbEntity
  8
0
  6
Continuous
 62
     7
370
    15
100
AcDbLine
 10
981.308929635
 20
1330.1655650982
 30
0.0
 11
976.3089344034
 21
1330.1655650982
 31
0.0
  0
LINE
  5
2BE
330
1F
100
AcDbEntity
  8
0
  6
Continuous
 62
     7
370
    15
100
AcDbLine
 10
976.3089344034
 20
1330.1655650982
 30
0.0
 11
976.3089344034
 21
1728.1655670055
 31
0.0
  0
CIRCLE
  5
2BF
330
1F
100
AcDbEntity
  8
0
  6
Continuous
 62
     7
370
    15
100
AcDbCircle
 10
731.308929635
 20
1529.1655660518
 30
0.0
 40
56.0
  0
CIRCLE
  5
2C0
330
1F
100
AcDbEntity
  8
0
  6
Continuous
 62
     7
370
    15
100
AcDbCircle
 10
525.308929635
 20
1690.1655660518
 30
0.0
 40
21.0
  0
CIRCLE
  5
2C1
330
1F
100
AcDbEntity
  8
0
  6
Continuous
 62
     7
370
    15
100
AcDbCircle
 10
525.308929635
 20
1368.1655660518
 30
0.0
 40
21.0
  0
CIRCLE
  5
2C2
330
1F
100
AcDbEntity
  8
0
  6
Continuous
 62
     7
370
    15
100
AcDbCircle
 10
937.308929635
 20
1368.1655660518
 30
0.0
 40
21.0
  0
CIRCLE
  5
2C3
330
1F
100
AcDbEntity
  8
0
  6
Continuous
 62
     7
370
    15
100
AcDbCircle
 10
937.308929635
 20
1690.1655660518
 30
0.0
 40
21.0
  0
LINE
  5
2C4
330
1F
100
AcDbEntity
  8
0
  6
Continuous
 62
     7
370
    15
100
AcDbLine
 10
486.3089248667
 20
1728.1655670055
 30
0.0
 11
486.3089248667
 21
1330.1655650982
 31
0.0
  0
LINE
  5
2C5
330
1F
100
AcDbEntity
  8
0
  6
Continuous
 62
     7
370
    15
100
AcDbLine
 10
486.3089248667
 20
1330.1655650982
 30
0.0
 11
976.3089344034
 21
1330.1655650982
 31
0.0
  0
LINE
  5
2C6
330
1F
100
AcDbEntity
  8
0
  6
Continuous
 62
     7
370
    15
100
AcDbLine
 10
486.3089248667
 20
1330.1655650982
 30
0.0
 11
481.308929635
 21
1330.1655650982
 31
0.0
  0
LINE
  5
2C7
330
1F
100
AcDbEntity
  8
0
  6
Continuous
 62
     7
370
    15
100
AcDbLine
 10
481.308929635
 20
1330.1655650982
 30
0.0
 11
481.308929635
 21
1728.1655670055
 31
0.0
  0
CIRCLE
  5
2C8
330
1F
100
AcDbEntity
  8
0
  6
Continuous
 62
     7
370
    15
100
AcDbCircle
 10
525.308929635
 20
1690.1655660518
 30
0.0
 40
19.0
  0
CIRCLE
  5
2C9
330
1F
100
AcDbEntity
  8
0
  6
Continuous
 62
     7
370
    15
100
AcDbCircle
 10
937.308929635
 20
1690.1655660518
 30
0.0
 40
19.0
  0
CIRCLE
  5
2CA
330
1F
100
AcDbEntity
  8
0
  6
Continuous
 62
     7
370
    15
100
AcDbCircle
 10
937.308929635
 20
1368.1655660518
 30
0.0
 40
19.0
  0
CIRCLE
  5
2CB
330
1F
100
AcDbEntity
  8
0
  6
Continuous
 62
     7
370
    15
100
AcDbCircle
 10
525.308929635
 20
1368.1655660518
 30
0.0
 40
19.0
  0
LINE
  5
2CC
330
1F
100
AcDbEntity
  8
0
  6
Continuous
 62
     7
370
    15
100
AcDbLine
 10
486.3089248667
 20
1330.1655650982
 30
0.0
 11
486.3089248667
 21
1325.1655698665
 31
0.0
  0
ARC
  5
2CD
330
1F
100
AcDbEntity
  8
0
  6
Continuous
 62
     7
370
    15
100
AcDbCircle
 10
486.308929635
 20
1330.1655660518
 30
0.0
 40
5.0
100
AcDbArc
 50
180.0
 51
270.0
  0
ARC
  5
2CE
330
1F
100
AcDbEntity
  8
0
  6
Continuous
 62
     7
370
    15
100
AcDbCircle
 10
976.308929635
 20
1330.1655660518
 30
0.0
 40
5.0
100
AcDbArc
 50
270.0
 51
0.0
  0
LINE
  5
2CF
330
1F
100
AcDbEntity
  8
0
  6
Continuous
 62
     7
370
    15
100
AcDbLine
 10
976.3089344034
 20
1330.1655650982
 30
0.0
 11
976.3089344034
 21
1325.1655698665
 31
0.0
  0
LINE
  5
2D0
330
1F
100
AcDbEntity
  8
0
  6
Continuous
 62
     7
370
    15
100
AcDbLine
 10
976.3089344034
 20
1325.1655698665
 30
0.0
 11
486.3089248667
 21
1325.1655698665
 31
0.0
  0
DIMENSION
  5
2D1
330
1F
100
AcDbEntity
  8
MEDIÇÕES
100
AcDbDimension
  2
_D_2
 10
381.308929635
 20
1325.1655660518
 30
0.0
 11
381.308929635
 21
1529.1655660518
 31
0.0
 70
   160
  1
<>
 71
     2
 42
-1.0
  3
SLDDIMSTYLE0
100
AcDbAlignedDimension
 13
486.308929635
 23
1733.1655660518
 33
0.0
 14
486.308929635
 24
1325.1655660518
 34
0.0
 50
90.0
100
AcDbRotatedDimension
  0
LINE
  5
2DB
330
1F
100
AcDbEntity
  8
0
  6
Continuous
 62
     7
370
    15
100
AcDbLine
 10
2290.6424732051
 20
1733.730541309
 30
0.0
 11
2290.6424732051
 21
1731.0359596862
 31
0.0
  0
LINE
  5
2DC
330
1F
100
AcDbEntity
  8
0
  6
Continuous
 62
     7
370
    15
100
AcDbLine
 10
2400.6424709011
 20
1731.0359596862
 30
0.0
 11
2400.6424709011
 21
1733.730541309
 31
0.0
  0
SPLINE
  5
2DD
330
1F
100
AcDbEntity
  8
0
  6
Continuous
 62
     7
370
    15
100
AcDbSpline
210
0.0
220
0.0
230
1.0
 70
     8
 71
     3
 72
    33
 73
    29
 74
     0
 42
0.00000001
 43
0.00000001
 12
1.0
 22
0.0
 32
0.0
 13
1.0
 23
0.0
 33
0.0
 40
0.0
 40
0.0
 40
0.0
 40
0.0
 40
0.0071015802500026
 40
0.0504979301240263
 40
0.0934229142499121
 40
0.1354082717779302
 40
0.1766885253663549
 40
0.2176144424505967
 40
0.2584208754038154
 40
0.2992140517551473
 40
0.340045017374687
 40
0.3809344094268106
 40
0.4218796442702164
 40
0.4628676763948061
 40
0.5038811410100922
 40
0.5449010044900439
 40
0.5859031070895447
 40
0.6268655196708035
 40
0.6677686483468163
 40
0.7085949353668363
 40
0.7493329848322879
 40
0.7899866321093185
 40
0.8305926399023639
 40
0.8712153294613804
 40
0.912017026513473
 40
0.9532888000789398
 40
0.9953938146849691
 40
1.0
 40
1.0
 40
1.0
 40
1.0
 10
2364.613001034079
 20
1732.689033187171
 30
0.0
 10
2364.615767785213
 20
1732.616099091557
 30
0.0
 10
2364.635441604356
 20
1732.097479188051
 30
0.0
 10
2364.371959154999
 20
1731.137782737405
 30
0.0
 10
2363.799115575662
 20
1729.826094885055
 30
0.0
 10
2362.895964127905
 20
1728.562766889157
 30
0.0
 10
2361.719452856826
 20
1727.372854318779
 30
0.0
 10
2360.280020960018
 20
1726.273899311953
 30
0.0
 10
2358.600868504905
 20
1725.282598915084
 30
0.0
 10
2356.706335181911
 20
1724.415947436129
 30
0.0
 10
2354.626355781763
 20
1723.689859461065
 30
0.0
 10
2352.394559064477
 20
1723.118059253285
 30
0.0
 10
2350.047899659516
 20
1722.711638908743
 30
0.0
 10
2347.625834812196
 20
1722.478518565991
 30
0.0
 10
2345.169424830656
 20
1722.423350365146
 30
0.0
 10
2342.720570778968
 20
1722.547318462684
 30
0.0
 10
2340.321177201655
 20
1722.848117190471
 30
0.0
 10
2338.012337756017
 20
1723.319877904024
 30
0.0
 10
2335.833464601448
 20
1723.953293876867
 30
0.0
 10
2333.821570010438
 20
1724.735601504219
 30
0.0
 10
2332.010310028944
 20
1725.650805806857
 30
0.0
 10
2330.429266064601
 20
1726.679951336894
 30
0.0
 10
2329.102004423241
 20
1727.801431106027
 30
0.0
 10
2328.048971225852
 20
1728.992568057824
 30
0.0
 10
2327.270399993067
 20
1730.232090814269
 30
0.0
 10
2326.808916053391
 20
1731.504640994734
 30
0.0
 10
2326.609227988002
 20
1732.408443391594
 30
0.0
 10
2326.653312112063
 20
1732.888155462978
 30
0.0
 10
2326.657659241771
 20
1732.935459807597
 30
0.0
  0
LINE
  5
2DE
330
1F
100
AcDbEntity
  8
0
  6
Continuous
 62
     7
370
    15
100
AcDbLine
 10
2071.8205717911
 20
1713.1724991007
 30
0.0
 11
2071.8205717911
 21
1462.3952963408
 31
0.0
  0
LINE
  5
2DF
330
1F
100
AcDbEntity
  8
0
  6
Continuous
 62
     7
370
    15
100
AcDbLine
 10
2664.5978834887
 20
1451.3737888264
 30
0.0
 11
2664.5978834887
 21
1702.8683575244
 31
0.0
  0
LINE
  5
2E0
330
1F
100
AcDbEntity
  8
0
  6
Continuous
 62
     7
370
    15
100
AcDbLine
 10
2026.6870606175
 20
1740.4231216172
 30
0.0
 11
2026.6870606175
 21
1488.9285529191
 31
0.0
  0
ARC
  5
2E1
330
1F
100
AcDbEntity
  8
0
  6
Continuous
 62
     7
370
    15
100
AcDbCircle
 10
2378.1693839877
 20
1280.7431612479
 30
0.0
 40
4.999999999999867
100
AcDbArc
 50
240.0026882663
 51
299.9973117337
  0
LINE
  5
2E2
330
1F
100
AcDbEntity
  8
0
  6
Continuous
 62
     7
370
    15
100
AcDbLine
 10
2380.6691794905
 20
1276.4129125496
 30
0.0
 11
2662.0976797515
 21
1438.8781275809
 31
0.0
  0
LINE
  5
2E3
330
1F
100
AcDbEntity
  8
0
  6
Continuous
 62
     7
370
    15
100
AcDbLine
 10
2029.1872643547
 20
1476.4329038391
 30
0.0
 11
2375.6695938796
 21
1276.4129125496
 31
0.0
  0
LINE
  5
2E4
330
1F
100
AcDbEntity
  8
0
  6
Continuous
 62
     7
370
    15
100
AcDbLine
 10
2664.5978834887
 20
1443.2083763272
 30
0.0
 11
2664.5978834887
 21
1451.3737888264
 31
0.0
  0
ARC
  5
2E5
330
1F
100
AcDbEntity
  8
0
  6
Continuous
 62
     7
370
    15
100
AcDbCircle
 10
2659.5978828999
 20
1443.2083755006
 30
0.0
 40
5.000000000000094
100
AcDbArc
 50
299.9973117337
 51
0.0
  0
LINE
  5
2E6
330
1F
100
AcDbEntity
  8
0
  6
Continuous
 62
     7
370
    15
100
AcDbLine
 10
2026.6870606175
 20
1488.9285529191
 30
0.0
 11
2026.6870606175
 21
1480.76314042
 31
0.0
  0
ARC
  5
2E7
330
1F
100
AcDbEntity
  8
0
  6
Continuous
 62
     7
370
    15
100
AcDbCircle
 10
2031.6870612063
 20
1480.7631486444
 30
0.0
 40
5.000000000000064
100
AcDbArc
 50
180.0
 51
240.0026882664
  0
SPLINE
  5
2E8
330
1F
100
AcDbEntity
  8
0
  6
Continuous
 62
     7
370
    15
100
AcDbSpline
210
0.0
220
0.0
230
1.0
 70
     8
 71
     3
 72
    33
 73
    29
 74
     0
 42
0.00000001
 43
0.00000001
 12
1.0
 22
0.0
 32
0.0
 13
1.0
 23
0.0
 33
0.0
 40
0.0
 40
0.0
 40
0.0
 40
0.0
 40
0.0115579860439719
 40
0.0570558694759108
 40
0.0966479548760929
 40
0.1387271906199418
 40
0.1793889864521394
 40
0.2193865552226904
 40
0.2591871784175619
 40
0.2989786104977246
 40
0.3388545758454055
 40
0.378849696558028
 40
0.418957982423511
 40
0.4591543582813292
 40
0.499406896346041
 40
0.539680019892409
 40
0.5799317327107452
 40
0.6201186286689586
 40
0.6602044245106014
 40
0.7001547980078167
 40
0.739943526514892
 40
0.779564072595267
 40
0.8190526819335119
 40
0.8585120723228165
 40
0.8981332484376162
 40
0.9383582936586198
 40
0.9799227808947127
 40
1.0
 40
1.0
 40
1.0
 40
1.0
 10
2396.433438996062
 20
1582.357864065944
 30
0.0
 10
2396.439756842953
 20
1582.251833083481
 30
0.0
 10
2396.470944823819
 20
1581.728412318587
 30
0.0
 10
2396.236794114137
 20
1580.836713795062
 30
0.0
 10
2395.715751758888
 20
1579.636555072236
 30
0.0
 10
2394.900683455794
 20
1578.471376715879
 30
0.0
 10
2393.784098120143
 20
1577.32495456707
 30
0.0
 10
2392.407035215424
 20
1576.256069189343
 30
0.0
 10
2390.787481467167
 20
1575.280388694941
 30
0.0
 10
2388.946154677509
 20
1574.415715568909
 30
0.0
 10
2386.910592256963
 20
1573.680019903372
 30
0.0
 10
2384.712948806953
 20
1573.089007742288
 30
0.0
 10
2382.389482180258
 20
1572.655746833798
 30
0.0
 10
2379.979624530916
 20
1572.389924287112
 30
0.0
 10
2377.524895547857
 20
1572.297578626858
 30
0.0
 10
2375.067999129474
 20
1572.381037295965
 30
0.0
 10
2372.651996379566
 20
1572.63857816453
 30
0.0
 10
2370.319312273037
 20
1573.064684573788
 30
0.0
 10
2368.110766747687
 20
1573.649720800645
 30
0.0
 10
2366.064686774491
 20
1574.380222364769
 30
0.0
 10
2364.215983588328
 20
1575.238793407729
 30
0.0
 10
2362.594910003298
 20
1576.204258986585
 30
0.0
 10
2361.225325308826
 20
1577.252360719223
 30
0.0
 10
2360.125226223857
 20
1578.356552610799
 30
0.0
 10
2359.296690939821
 20
1579.491597925289
 30
0.0
 10
2358.755062277482
 20
1580.640257132737
 30
0.0
 10
2358.484597329482
 20
1581.584218588505
 30
0.0
 10
2358.495953788834
 20
1582.149116413171
 30
0.0
 10
2358.499652682589
 20
1582.333108357443
 30
0.0
  0
SPLINE
  5
2E9
330
1F
100
AcDbEntity
  8
0
  6
Continuous
 62
     7
370
    15
100
AcDbSpline
210
0.0
220
0.0
230
1.0
 70
     8
 71
     3
 72
    33
 73
    29
 74
     0
 42
0.00000001
 43
0.00000001
 12
1.0
 22
0.0
 32
0.0
 13
1.0
 23
0.0
 33
0.0
 40
0.0
 40
0.0
 40
0.0
 40
0.0
 40
0.0115579879414249
 40
0.0570558788426661
 40
0.0966479707426068
 40
0.1387272133945251
 40
0.1793890159020935
 40
0.2193865912389706
 40
0.2591869771657855
 40
0.298978415778433
 40
0.3388546270356907
 40
0.3788497543142375
 40
0.4189580467642227
 40
0.4591544292210046
 40
0.4994067898077921
 40
0.5396800819143339
 40
0.5799318013407185
 40
0.6201187038963395
 40
0.6602045063187922
 40
0.7001548863745856
 40
0.7399436214137021
 40
0.7795641867013081
 40
0.819052802522324
 40
0.8585121993896029
 40
0.898133382008937
 40
0.9383584338336108
 40
0.9799227775986733
 40
1.0
 40
1.0
 40
1.0
 40
1.0
 10
2624.121820346495
 20
1713.799568804195
 30
0.0
 10
2624.128138193393
 20
1713.693537821736
 30
0.0
 10
2624.159326174296
 20
1713.170117056858
 30
0.0
 10
2623.925175463745
 20
1712.278418532939
 30
0.0
 10
2623.404133111941
 20
1711.078259811678
 30
0.0
 10
2622.58906479589
 20
1709.913081449436
 30
0.0
 10
2621.472479507388
 20
1708.766659322038
 30
0.0
 10
2620.095419218187
 20
1707.697776029753
 30
0.0
 10
2618.475870178012
 20
1706.72209755166
 30
0.0
 10
2616.634542055469
 20
1705.857425346733
 30
0.0
 10
2614.598978515827
 20
1705.121725345357
 30
0.0
 10
2612.401330028983
 20
1704.530712423067
 30
0.0
 10
2610.077863517911
 20
1704.097452282174
 30
0.0
 10
2607.668009741615
 20
1703.83162664035
 30
0.0
 10
2605.213280412921
 20
1703.739293859252
 30
0.0
 10
2602.756383554057
 20
1703.822738885865
 30
0.0
 10
2600.3403777549
 20
1704.08028364201
 30
0.0
 10
2598.007693690547
 20
1704.506389153112
 30
0.0
 10
2595.799147806226
 20
1705.09142543826
 30
0.0
 10
2593.753069219779
 20
1705.82192766072
 30
0.0
 10
2591.904360678118
 20
1706.680496119799
 30
0.0
 10
2590.283306096103
 20
1707.645971805745
 30
0.0
 10
2588.913716037154
 20
1708.694070963539
 30
0.0
 10
2587.813618698521
 20
1709.798263633579
 30
0.0
 10
2586.985081626089
 20
1710.933308514928
 30
0.0
 10
2586.443459174127
 20
1712.081967274631
 30
0.0
 10
2586.172976907632
 20
1713.025924421668
 30
0.0
 10
2586.184334697037
 20
1713.590821082036
 30
0.0
 10
2586.188034033022
 20
1713.774813095694
 30
0.0
  0
ARC
  5
2EA
330
1F
100
AcDbEntity
  8
0
  6
Continuous
 62
     7
370
    15
100
AcDbCircle
 10
2659.5978828999
 20
1711.0337617991
 30
0.0
 40
5.000000000000291
100
AcDbArc
 50
0.0
 51
60.0026882663
  0
LINE
  5
2EB
330
1F
100
AcDbEntity
  8
0
  6
Continuous
 62
     7
370
    15
100
AcDbLine
 10
2664.5978834887
 20
1702.8683575244
 30
0.0
 11
2664.5978834887
 21
1711.0337700235
 31
0.0
  0
LINE
  5
2EC
330
1F
100
AcDbEntity
  8
0
  6
Continuous
 62
     7
370
    15
100
AcDbLine
 10
2662.0976797515
 20
1715.3640066044
 30
0.0
 11
2315.6153502266
 21
1915.3839978939
 31
0.0
  0
SPLINE
  5
2ED
330
1F
100
AcDbEntity
  8
0
  6
Continuous
 62
     7
370
    15
100
AcDbSpline
210
0.0
220
0.0
230
1.0
 70
     8
 71
     3
 72
    33
 73
    29
 74
     0
 42
0.00000001
 43
0.00000001
 12
1.0
 22
0.0
 32
0.0
 13
1.0
 23
0.0
 33
0.0
 40
0.0
 40
0.0
 40
0.0
 40
0.0
 40
0.0115579860439719
 40
0.0570558694759108
 40
0.0966479548760929
 40
0.1387271906199418
 40
0.1793889864521394
 40
0.2193865552226904
 40
0.2591871784175619
 40
0.2989786104977246
 40
0.3388545758454055
 40
0.378849696558028
 40
0.418957982423511
 40
0.4591543582813292
 40
0.499406896346041
 40
0.539680019892409
 40
0.5799317327107452
 40
0.6201186286689586
 40
0.6602044245106014
 40
0.7001547980078167
 40
0.739943526514892
 40
0.779564072595267
 40
0.8190526819335119
 40
0.8585120723228165
 40
0.8981332484376162
 40
0.9383582936586198
 40
0.9799227808947127
 40
1.0
 40
1.0
 40
1.0
 40
1.0
 10
2105.10544481003
 20
1750.537935296069
 30
0.0
 10
2105.111762656921
 20
1750.431904313607
 30
0.0
 10
2105.142950637787
 20
1749.908483548712
 30
0.0
 10
2104.908799928106
 20
1749.016785025187
 30
0.0
 10
2104.387757572856
 20
1747.816626302362
 30
0.0
 10
2103.572689269762
 20
1746.651447946004
 30
0.0
 10
2102.456103934111
 20
1745.505025797195
 30
0.0
 10
2101.079041029391
 20
1744.436140419468
 30
0.0
 10
2099.459487281135
 20
1743.460459925066
 30
0.0
 10
2097.618160491477
 20
1742.595786799034
 30
0.0
 10
2095.582598070931
 20
1741.860091133497
 30
0.0
 10
2093.384954620921
 20
1741.269078972413
 30
0.0
 10
2091.061487994226
 20
1740.835818063923
 30
0.0
 10
2088.651630344884
 20
1740.569995517237
 30
0.0
 10
2086.196901361825
 20
1740.477649856984
 30
0.0
 10
2083.740004943442
 20
1740.56110852609
 30
0.0
 10
2081.324002193534
 20
1740.818649394655
 30
0.0
 10
2078.991318087005
 20
1741.244755803914
 30
0.0
 10
2076.782772561655
 20
1741.82979203077
 30
0.0
 10
2074.736692588459
 20
1742.560293594894
 30
0.0
 10
2072.887989402296
 20
1743.418864637855
 30
0.0
 10
2071.266915817266
 20
1744.38433021671
 30
0.0
 10
2069.897331122794
 20
1745.432431949349
 30
0.0
 10
2068.797232037825
 20
1746.536623840924
 30
0.0
 10
2067.96869675379
 20
1747.671669155415
 30
0.0
 10
2067.42706809145
 20
1748.820328362862
 30
0.0
 10
2067.15660314345
 20
1749.76428981863
 30
0.0
 10
2067.167959602802
 20
1750.329187643297
 30
0.0
 10
2067.171658496557
 20
1750.513179587568
 30
0.0
  0
ARC
  5
2EE
330
1F
100
AcDbEntity
  8
0
  6
Continuous
 62
     7
370
    15
100
AcDbCircle
 10
2031.6870612063
 20
1748.588534943
 30
0.0
 40
5.0
100
AcDbArc
 50
119.9973117337
 51
180.0
  0
LINE
  5
2EF
330
1F
100
AcDbEntity
  8
0
  6
Continuous
 62
     7
370
    15
100
AcDbLine
 10
2026.6870606175
 20
1748.5885341163
 30
0.0
 11
2026.6870606175
 21
1740.4231216172
 31
0.0
  0
LINE
  5
2F0
330
1F
100
AcDbEntity
  8
0
  6
Continuous
 62
     7
370
    15
100
AcDbLine
 10
2310.6157646157
 20
1915.3839978939
 30
0.0
 11
2029.1872643547
 21
1752.9187828626
 31
0.0
  0
SPLINE
  5
2F1
330
1F
100
AcDbEntity
  8
0
  6
Continuous
 62
     7
370
    15
100
AcDbSpline
210
0.0
220
0.0
230
1.0
 70
     8
 71
     3
 72
    33
 73
    29
 74
     0
 42
0.00000001
 43
0.00000001
 12
1.0
 22
0.0
 32
0.0
 13
1.0
 23
0.0
 33
0.0
 40
0.0
 40
0.0
 40
0.0
 40
0.0
 40
0.0115579879414249
 40
0.0570558788426661
 40
0.0966479707426068
 40
0.1387272133945251
 40
0.1793890159020935
 40
0.2193865912389706
 40
0.2591869771657855
 40
0.298978415778433
 40
0.3388546270356907
 40
0.3788497543142375
 40
0.4189580467642227
 40
0.4591544292210046
 40
0.4994067898077921
 40
0.5396800819143339
 40
0.5799318013407185
 40
0.6201187038963395
 40
0.6602045063187922
 40
0.7001548863745856
 40
0.7399436214137021
 40
0.7795641867013081
 40
0.819052802522324
 40
0.8585121993896029
 40
0.898133382008937
 40
0.9383584338336108
 40
0.9799227775986733
 40
1.0
 40
1.0
 40
1.0
 40
1.0
 10
2332.793826160463
 20
1881.97964003432
 30
0.0
 10
2332.800144007361
 20
1881.873609051861
 30
0.0
 10
2332.831331988265
 20
1881.350188286983
 30
0.0
 10
2332.597181277713
 20
1880.458489763064
 30
0.0
 10
2332.076138925909
 20
1879.258331041803
 30
0.0
 10
2331.261070609858
 20
1878.093152679561
 30
0.0
 10
2330.144485321355
 20
1876.946730552163
 30
0.0
 10
2328.767425032155
 20
1875.877847259878
 30
0.0
 10
2327.14787599198
 20
1874.902168781786
 30
0.0
 10
2325.306547869438
 20
1874.037496576858
 30
0.0
 10
2323.270984329795
 20
1873.301796575482
 30
0.0
 10
2321.073335842951
 20
1872.710783653192
 30
0.0
 10
2318.749869331879
 20
1872.2775235123
 30
0.0
 10
2316.340015555583
 20
1872.011697870475
 30
0.0
 10
2313.88528622689
 20
1871.919365089377
 30
0.0
 10
2311.428389368026
 20
1872.00281011599
 30
0.0
 10
2309.012383568868
 20
1872.260354872136
 30
0.0
 10
2306.679699504515
 20
1872.686460383237
 30
0.0
 10
2304.471153620194
 20
1873.271496668385
 30
0.0
 10
2302.425075033747
 20
1874.001998890846
 30
0.0
 10
2300.576366492086
 20
1874.860567349925
 30
0.0
 10
2298.955311910071
 20
1875.82604303587
 30
0.0
 10
2297.585721851122
 20
1876.874142193665
 30
0.0
 10
2296.485624512489
 20
1877.978334863705
 30
0.0
 10
2295.657087440058
 20
1879.113379745054
 30
0.0
 10
2295.115464988095
 20
1880.262038504756
 30
0.0
 10
2294.8449827216
 20
1881.205995651794
 30
0.0
 10
2294.856340511005
 20
1881.770892312162
 30
0.0
 10
2294.86003984699
 20
1881.954884325819
 30
0.0
  0
ARC
  5
2F2
330
1F
100
AcDbEntity
  8
0
  6
Continuous
 62
     7
370
    15
100
AcDbCircle
 10
2313.1155601185
 20
1911.0537491957
 30
0.0
 40
5.000000000000064
100
AcDbArc
 50
60.0026882664
 51
119.9973117337
  0
LWPOLYLINE
  5
2F3
330
1F
100
AcDbEntity
  8
0
  6
Continuous
 62
     7
370
    15
100
AcDbPolyline
 90
       41
 70
   128
 43
0.0
 10
2400.6424709011
 20
1733.730541309
 10
2400.6313204255
 20
1733.0911735084
 10
2400.363888135
 20
1730.5388847787
 10
2399.7415675262
 20
1728.0072947659
 10
2398.7683928428
 20
1725.5128229973
 10
2397.4506755754
 20
1723.0716464519
 10
2395.7969636316
 20
1720.6995969148
 10
2393.8179787747
 20
1718.4120579508
 10
2391.5265586712
 20
1716.2238645402
 10
2388.9375627194
 20
1714.1492091765
 10
2386.0677806762
 20
1712.2015465387
 10
2382.9358256436
 20
1710.3935073836
 10
2379.562009439
 20
1708.7368174737
 10
2375.9682115453
 20
1707.2422219241
 10
2372.1777386758
 20
1705.9194132551
 10
2368.2151756139
 20
1704.7769696148
 10
2364.1062200836
 20
1703.8223020303
 10
2359.8775200883
 20
1703.0616000438
 10
2355.5565000555
 20
1702.4997982574
 10
2351.1711823711
 20
1702.140540217
 10
2346.7500095725
 20
1701.9861548419
 10
2342.3216560045
 20
1702.0376450196
 10
2337.9148368419
 20
1702.2946746802
 10
2333.5581355506
 20
1702.7555786805
 10
2329.2798023728
 20
1703.4173666062
 10
2325.1075910083
 20
1704.2757471021
 10
2321.0685557826
 20
1705.3251537243
 10
2317.1888909619
 20
1706.5587799152
 10
2313.4937601906
 20
1707.9686257649
 10
2310.0071255983
 20
1709.5455480031
 10
2306.7515992986
 20
1711.2793183555
 10
2303.7482955454
 20
1713.1586936847
 10
2301.0166901341
 20
1715.1714849914
 10
2298.5745008753
 20
1717.3046385802
 10
2296.4375660937
 20
1719.5443214082
 10
2294.6197435415
 20
1721.8760068127
 10
2293.1328237994
 20
1724.2845731656
 10
2291.9864492763
 20
1726.7544023374
 10
2291.1880536224
 20
1729.2694724581
 10
2290.7428169489
 20
1731.81347501
 10
2290.6424732051
 20
1733.730541309
  0
LWPOLYLINE
  5
2F4
330
1F
100
AcDbEntity
  8
0
  6
Continuous
 62
     7
370
    15
100
AcDbPolyline
 90
       79
 70
   128
 43
0.0
 10
2384.4626355667
 20
1756.2226001499
 10
2381.213028265
 20
1757.9532181356
 10
2377.7327315051
 20
1759.5272723739
 10
2374.0443178877
 20
1760.9345543595
 10
2370.171708713
 20
1762.1659383098
 10
2366.1400162585
 20
1763.21343572
 10
2361.9753900096
 20
1764.07025676
 10
2357.7048368767
 20
1764.7308410685
 10
2353.3560565587
 20
1765.190907175
 10
2348.9572531999
 20
1765.4474699872
 10
2344.53694968
 20
1765.4988658829
 10
2340.1238137585
 20
1765.3447618333
 10
2335.746469731
 20
1764.986156164
 10
2331.4333061342
 20
1764.4253770339
 10
2327.2122953046
 20
1763.6660573443
 10
2323.110808986
 20
1762.7131256145
 10
2319.1554497426
 20
1761.5727603616
 10
2315.3718705169
 20
1760.2523558855
 10
2311.7846070311
 20
1758.7604772183
 10
2308.4169225345
 20
1757.1068009133
 10
2305.2906619362
 20
1755.3020490851
 10
2302.4261001753
 20
1753.357926207
 10
2299.8418105119
 20
1751.2870430767
 10
2297.5545550438
 20
1749.102829282
 10
2295.5791704497
 20
1746.8194489938
 10
2293.9284654202
 20
1744.4517113409
 10
2292.6131426206
 20
1742.0149736564
 10
2291.6417394219
 20
1739.5250373117
 10
2291.0205488755
 20
1736.9980503931
 10
2290.7536039079
 20
1734.4504012538
 10
2290.8426338571
 20
1731.8986143481
 10
2291.2870618379
 20
1729.3592392212
 10
2292.0840060597
 20
1726.848741781
 10
2293.2282956309
 20
1724.3834039336
 10
2294.7125140234
 20
1721.9792163747
 10
2296.5270293651
 20
1719.6517698618
 10
2298.6600800512
 20
1717.4161601715
 10
2301.0978280858
 20
1715.2868843131
 10
2303.8244654374
 20
1713.2777517592
 10
2306.8223085395
 20
1711.4017933948
 10
2310.0719158412
 20
1709.6711754092
 10
2313.5522126011
 20
1708.0971211708
 10
2317.2406262185
 20
1706.6898391853
 10
2321.1132353933
 20
1705.458455235
 10
2325.1449278477
 20
1704.4109578248
 10
2329.3095540966
 20
1703.5541367848
 10
2333.5801072296
 20
1702.8935524762
 10
2337.9288875476
 20
1702.4334863698
 10
2342.3276909064
 20
1702.1769235575
 10
2346.7479944263
 20
1702.1255276619
 10
2351.1611303477
 20
1702.2796317115
 10
2355.5384743752
 20
1702.6382373808
 10
2359.851637972
 20
1703.1990165108
 10
2364.0726488017
 20
1703.9583362005
 10
2368.1741351202
 20
1704.9112679303
 10
2372.1294943637
 20
1706.0516331831
 10
2375.9130735893
 20
1707.3720376592
 10
2379.5003370751
 20
1708.8639163264
 10
2382.8680215718
 20
1710.5175926315
 10
2385.99428217
 20
1712.3223444596
 10
2388.8588439309
 20
1714.2664673377
 10
2391.4431335944
 20
1716.3373504681
 10
2393.7303890624
 20
1718.5215642628
 10
2395.7057736565
 20
1720.8049445509
 10
2397.3564786861
 20
1723.1726822039
 10
2398.6718014856
 20
1725.6094198884
 10
2399.6432046843
 20
1728.0993562331
 10
2400.2643952307
 20
1730.6263431517
 10
2400.5313401983
 20
1733.1739922909
 10
2400.4423102492
 20
1735.7257791966
 10
2399.9978822683
 20
1738.2651543236
 10
2399.2009380465
 20
1740.7756517637
 10
2398.0566484753
 20
1743.2409896112
 10
2396.5724300828
 20
1745.6451771701
 10
2394.7579147411
 20
1747.9726236829
 10
2392.6248640551
 20
1750.2082333733
 10
2390.1871160204
 20
1752.3375092316
 10
2387.4604786689
 20
1754.3466417856
 10
2384.4626355667
 20
1756.2226001499
  0
ARC
  5
2F5
330
1F
100
AcDbEntity
  8
0
  6
Continuous
 62
     7
370
    15
100
AcDbCircle
 10
2309.4577529591
 20
1731.0710053566
 30
0.0
 40
18.81531239223947
100
AcDbArc
 50
180.1067200013
 51
195.6575045165
  0
ARC
  5
2F6
330
1F
100
AcDbEntity
  8
0
  6
Continuous
 62
     7
370
    15
100
AcDbCircle
 10
2381.9447733348
 20
1731.0547268941
 30
0.0
 40
18.69770698478887
100
AcDbArc
 50
344.2932842444
 51
359.9424912377
  0
LWPOLYLINE
  5
2F7
330
1F
100
AcDbEntity
  8
0
  6
Continuous
 62
     7
370
    15
100
AcDbPolyline
 90
       26
 70
   128
 43
0.0
 10
2371.0983157386
 20
1714.2184022985
 10
2372.2867077062
 20
1713.6862520342
 10
2373.6670107388
 20
1713.3414315065
 10
2375.1524912318
 20
1713.2056100056
 10
2376.6498151539
 20
1713.2873186334
 10
2378.0649001201
 20
1713.5814235315
 10
2379.3088288131
 20
1714.0694465657
 10
2380.3034415692
 20
1714.7207226936
 10
2380.9862411769
 20
1715.4943312022
 10
2381.3143296971
 20
1716.3416603564
 10
2381.2670881837
 20
1717.209472006
 10
2380.8474840381
 20
1718.0432384178
 10
2380.0818858763
 20
1718.7905694575
 10
2379.0183997162
 20
1719.4045069497
 10
2377.7238441177
 20
1719.8464773609
 10
2376.279564474
 20
1720.0887081574
 10
2374.7763077244
 20
1720.1159801026
 10
2373.3085289078
 20
1719.9265801521
 10
2371.9684571001
 20
1719.532406808
 10
2370.8402915178
 20
1718.9582290857
 10
2369.9949165952
 20
1718.2401258572
 10
2369.485456768
 20
1717.4232146946
 10
2369.3439179372
 20
1716.5588279934
 10
2369.5791958043
 20
1715.7012768375
 10
2370.1765045633
 20
1714.9044463786
 10
2371.0983157386
 20
1714.2184022985
  0
LWPOLYLINE
  5
2F8
330
1F
100
AcDbEntity
  8
0
  6
Continuous
 62
     7
370
    15
100
AcDbPolyline
 90
       26
 70
   128
 43
0.0
 10
2311.7013462611
 20
1714.2184019183
 10
2312.8897374879
 20
1713.6862509412
 10
2314.2700402736
 20
1713.3414316966
 10
2315.7555234007
 20
1713.2056098155
 10
2317.2528455118
 20
1713.2873173979
 10
2318.6679299019
 20
1713.581423484
 10
2319.9118592328
 20
1714.0694476468
 10
2320.9064718448
 20
1714.7207240717
 10
2321.5892708763
 20
1715.4943303468
 10
2321.9173590673
 20
1716.3416608316
 10
2321.8701175538
 20
1717.2094726713
 10
2321.4505157131
 20
1718.0432385129
 10
2320.6849161931
 20
1718.7905680556
 10
2319.621428469
 20
1719.4045064507
 10
2318.3268754634
 20
1719.846477646
 10
2316.8825941734
 20
1720.0887086326
 10
2315.3793370946
 20
1720.1159805778
 10
2313.9115586072
 20
1719.9265792967
 10
2312.5714880342
 20
1719.532407806
 10
2311.4433219375
 20
1718.9582301668
 10
2310.597947694
 20
1718.2401250493
 10
2310.0884858088
 20
1717.4232142194
 10
2309.946948789
 20
1716.5588285636
 10
2310.1822246805
 20
1715.7012774078
 10
2310.7795338511
 20
1714.9044455707
 10
2311.7013462611
 20
1714.2184019183
  0
LWPOLYLINE
  5
2F9
330
1F
100
AcDbEntity
  8
0
  6
Continuous
 62
     7
370
    15
100
AcDbPolyline
 90
       26
 70
   128
 43
0.0
 10
2311.7013469197
 20
1748.5075425328
 10
2312.8897388874
 20
1747.9753922684
 10
2314.2700392857
 20
1747.6305732615
 10
2315.7555224129
 20
1747.4947502399
 10
2317.252846335
 20
1747.5764588677
 10
2318.6679313013
 20
1747.8705637658
 10
2319.9118573601
 20
1748.3585883207
 10
2320.9064701161
 20
1749.0098644485
 10
2321.589272358
 20
1749.7834714364
 10
2321.9173582441
 20
1750.6308021113
 10
2321.8701167306
 20
1751.498613761
 10
2321.4505152192
 20
1752.3323786521
 10
2320.6849170575
 20
1753.0797096917
 10
2319.6214308973
 20
1753.6936471839
 10
2318.3268752988
 20
1754.1356175951
 10
2316.8825930209
 20
1754.3778499123
 10
2315.3793362714
 20
1754.4051218575
 10
2313.9115600889
 20
1754.2157203863
 10
2312.571485647
 20
1753.821548563
 10
2311.4433200647
 20
1753.2473708406
 10
2310.5979477763
 20
1752.5292660914
 10
2310.0884879491
 20
1751.7123549289
 10
2309.9469491183
 20
1750.8479682276
 10
2310.1822243512
 20
1749.9904185925
 10
2310.7795357445
 20
1749.1935866128
 10
2311.7013469197
 20
1748.5075425328
  0
LWPOLYLINE
  5
2FA
330
1F
100
AcDbEntity
  8
0
  6
Continuous
 62
     7
370
    15
100
AcDbPolyline
 90
       26
 70
   128
 43
0.0
 10
2371.09831508
 20
1748.5075421526
 10
2372.286708941
 20
1747.9753926961
 10
2373.6670090924
 20
1747.6305719309
 10
2375.1524922196
 20
1747.4947500498
 10
2376.6498169649
 20
1747.5764591528
 10
2378.0648987207
 20
1747.8705637183
 10
2379.3088280517
 20
1748.3585878811
 10
2380.3034406637
 20
1749.009864306
 10
2380.9862423294
 20
1749.7834721017
 10
2381.3143278861
 20
1750.6308010659
 10
2381.2670863727
 20
1751.4986129056
 10
2380.847484532
 20
1752.3323787471
 10
2380.0818876462
 20
1753.0797098105
 10
2379.018399922
 20
1753.6936482057
 10
2377.7238442823
 20
1754.1356178802
 10
2376.2795629923
 20
1754.3778488669
 10
2374.7763059134
 20
1754.4051208121
 10
2373.3085300602
 20
1754.2157210516
 10
2371.9684568531
 20
1753.8215480402
 10
2370.8402907563
 20
1753.247370401
 10
2369.9949165129
 20
1752.5292652836
 10
2369.4854572619
 20
1751.7123559743
 10
2369.3439176079
 20
1750.8479687979
 10
2369.5791934993
 20
1749.9904176421
 10
2370.1765053042
 20
1749.1935873256
 10
2371.09831508
 20
1748.5075421526
  0
LWPOLYLINE
  5
2FB
330
1F
100
AcDbEntity
  8
0
  6
Continuous
 62
     7
370
    15
100
AcDbPolyline
 90
       48
 70
   128
 43
0.0
 10
2359.7846073607
 20
1741.9762777081
 10
2361.5433858002
 20
1740.8152679126
 10
2363.0184132163
 20
1739.5292887489
 10
2364.1833659385
 20
1738.1412874475
 10
2365.0174560218
 20
1736.6760337718
 10
2365.5057983846
 20
1735.1596738898
 10
2365.6396798246
 20
1733.6192694177
 10
2365.4167104836
 20
1732.0823070017
 10
2364.8408692876
 20
1730.5762151218
 10
2363.9224328238
 20
1729.1278683509
 10
2362.6777896306
 20
1727.7631144237
 10
2361.1291501094
 20
1726.5063064378
 10
2359.3041509449
 20
1725.3798722405
 10
2357.2353593445
 20
1724.4039126607
 10
2354.9596917902
 20
1723.5958446719
 10
2352.5177590345
 20
1722.970087135
 10
2349.9531351564
 20
1722.5378076284
 10
2347.3115880115
 20
1722.3067199846
 10
2344.6402555569
 20
1722.2809479037
 10
2341.9868078541
 20
1722.4609510108
 10
2339.3985962289
 20
1722.8435172526
 10
2336.9218057245
 20
1723.4218203028
 10
2334.6006355436
 20
1724.1855391256
 10
2332.4765083826
 20
1725.1210467773
 10
2330.5873274292
 20
1726.2116477276
 10
2328.9668050585
 20
1727.4378802366
 10
2327.6438619112
 20
1728.7778632597
 10
2326.6421031034
 20
1730.2076839833
 10
2325.9794071308
 20
1731.7018267508
 10
2325.6675988187
 20
1733.2336295043
 10
2325.7122422094
 20
1734.7757569052
 10
2326.1125411228
 20
1736.3006896129
 10
2326.8613523264
 20
1737.7812154638
 10
2327.9453136231
 20
1739.1909132374
 10
2329.3450801033
 20
1740.5046281533
 10
2331.0356748612
 20
1741.6989161231
 10
2332.9869275445
 20
1742.7524657153
 10
2335.1640187238
 20
1743.6464762813
 10
2337.5280980185
 20
1744.3649935027
 10
2340.0369800553
 20
1744.8951955876
 10
2342.645890393
 20
1745.2276216341
 10
2345.3082758618
 20
1745.3563390949
 10
2347.9766237927
 20
1745.2790509847
 10
2350.603320759
 20
1744.9971369394
 10
2353.1414895871
 20
1744.5156269835
 10
2355.5458388785
 20
1743.8431140918
 10
2357.7734614949
 20
1742.9915988895
 10
2359.7846073607
 20
1741.9762777081
  0
LWPOLYLINE
  5
2FC
330
1F
100
AcDbEntity
  8
0
  6
Continuous
 62
     7
370
    15
100
AcDbPolyline
 90
       13
 70
   128
 43
0.0
 10
2378.1475253947
 20
1713.606202738
 10
2378.2387345499
 20
1713.7697719189
 10
2378.3295405935
 20
1714.3689531261
 10
2378.0598797884
 20
1714.9499283887
 10
2377.4622768246
 20
1715.4426236011
 10
2376.6088112094
 20
1715.7876124488
 10
2375.6024234923
 20
1715.943284318
 10
2374.5644987372
 20
1715.8908631048
 10
2373.6202270372
 20
1715.6366707217
 10
2372.8835002076
 20
1715.2113673757
 10
2372.4431783752
 20
1714.6662509265
 10
2372.3523723316
 20
1714.0670697193
 10
2372.5343876128
 20
1713.6062030706
  0
LWPOLYLINE
  5
2FD
330
1F
100
AcDbEntity
  8
0
  6
Continuous
 62
     7
370
    15
100
AcDbPolyline
 90
       13
 70
   128
 43
0.0
 10
2318.7505564935
 20
1713.6062030706
 10
2318.8417645785
 20
1713.769772014
 10
2318.9325705399
 20
1714.3689525083
 10
2318.6629098171
 20
1714.9499277234
 10
2318.0653070179
 20
1715.4426230308
 10
2317.211841238
 20
1715.7876117835
 10
2316.2054536033
 20
1715.9432836052
 10
2315.167530083
 20
1715.8908624396
 10
2314.2232584242
 20
1715.6366706504
 10
2313.4865315122
 20
1715.2113672569
 10
2313.0462107088
 20
1714.6662508314
 10
2312.9554021133
 20
1714.0670688164
 10
2313.1374187116
 20
1713.606202738
  0
LWPOLYLINE
  5
2FE
330
1F
100
AcDbEntity
  8
0
  6
Continuous
 62
     7
370
    15
100
AcDbPolyline
 90
        3
 70
   128
 43
0.0
 10
2377.4622768246
 20
1715.034346284
 10
2378.0598797884
 20
1714.5416510717
 10
2378.3200427354
 20
1714.013869717
  0
LWPOLYLINE
  5
2FF
330
1F
100
AcDbEntity
  8
0
  6
Continuous
 62
     7
370
    15
100
AcDbPolyline
 90
        8
 70
   128
 43
0.0
 10
2372.361868955
 20
1714.0138695745
 10
2372.4431783752
 20
1714.2579736094
 10
2372.8835002076
 20
1714.8030900587
 10
2373.6202270372
 20
1715.2283934046
 10
2374.5644987372
 20
1715.4825857878
 10
2375.6024234923
 20
1715.535007001
 10
2376.6088112094
 20
1715.3793351318
 10
2377.4622768246
 20
1715.034346284
  0
LWPOLYLINE
  5
300
330
1F
100
AcDbEntity
  8
0
  6
Continuous
 62
     7
370
    15
100
AcDbPolyline
 90
        3
 70
   128
 43
0.0
 10
2318.0653070179
 20
1715.0343457138
 10
2318.6629098171
 20
1714.5416504064
 10
2318.9230751513
 20
1714.0138695745
  0
LWPOLYLINE
  5
301
330
1F
100
AcDbEntity
  8
0
  6
Continuous
 62
     7
370
    15
100
AcDbPolyline
 90
        8
 70
   128
 43
0.0
 10
2312.9649013709
 20
1714.013869717
 10
2313.0462107088
 20
1714.2579735144
 10
2313.4865315122
 20
1714.8030899399
 10
2314.2232584242
 20
1715.2283933334
 10
2315.167530083
 20
1715.4825851225
 10
2316.2054536033
 20
1715.5350062882
 10
2317.211841238
 20
1715.3793344665
 10
2318.0653070179
 20
1715.0343457138
  0
LINE
  5
302
330
1F
100
AcDbEntity
  8
0
  6
Continuous
 62
     7
370
    15
100
AcDbLine
 10
2364.6331630327
 20
1732.6523455227
 30
0.0
 11
2364.6424715594
 21
1732.9956543057
 31
0.0
  0
LWPOLYLINE
  5
303
330
1F
100
AcDbEntity
  8
0
  6
Continuous
 62
     7
370
    15
100
AcDbPolyline
 90
       13
 70
   128
 43
0.0
 10
2378.1475253123
 20
1747.8953433049
 10
2378.2387333974
 20
1748.0589122482
 10
2378.3295419929
 20
1748.6580942632
 10
2378.0598812701
 20
1749.2390694784
 10
2377.4622784709
 20
1749.7317647858
 10
2376.6088126911
 20
1750.0767535385
 10
2375.6024250563
 20
1750.2324253602
 10
2374.5644989019
 20
1750.1800026738
 10
2373.620227243
 20
1749.9258108847
 10
2372.8835003311
 20
1749.5005074912
 10
2372.4431795277
 20
1748.9553910657
 10
2372.3523735663
 20
1748.3562105714
 10
2372.5343875305
 20
1747.8953429722
  0
LWPOLYLINE
  5
304
330
1F
100
AcDbEntity
  8
0
  6
Continuous
 62
     7
370
    15
100
AcDbPolyline
 90
       13
 70
   128
 43
0.0
 10
2318.7505565758
 20
1747.8953429722
 10
2318.841765731
 20
1748.0589121532
 10
2318.9325717747
 20
1748.6580933603
 10
2318.6629109695
 20
1749.239068623
 10
2318.0653080057
 20
1749.7317638353
 10
2317.2118423905
 20
1750.0767526831
 10
2316.2054546734
 20
1750.2324245523
 10
2315.1675299184
 20
1750.1800033391
 10
2314.2232582184
 20
1749.9258109559
 10
2313.4865313887
 20
1749.50050761
 10
2313.0462095564
 20
1748.9553911607
 10
2312.9554035127
 20
1748.3562099536
 10
2313.1374187939
 20
1747.8953433049
  0
LWPOLYLINE
  5
305
330
1F
100
AcDbEntity
  8
0
  6
Continuous
 62
     7
370
    15
100
AcDbPolyline
 90
        3
 70
   128
 43
0.0
 10
2377.4622784709
 20
1749.3234874687
 10
2378.0598812701
 20
1748.8307921614
 10
2378.3200439701
 20
1748.3030098087
  0
LWPOLYLINE
  5
306
330
1F
100
AcDbEntity
  8
0
  6
Continuous
 62
     7
370
    15
100
AcDbPolyline
 90
        8
 70
   128
 43
0.0
 10
2372.3618701897
 20
1748.3030099513
 10
2372.4431795277
 20
1748.5471137487
 10
2372.8835003311
 20
1749.0922301742
 10
2373.620227243
 20
1749.5175335676
 10
2374.5644989019
 20
1749.7717253568
 10
2375.6024250563
 20
1749.8241480431
 10
2376.6088126911
 20
1749.6684762214
 10
2377.4622784709
 20
1749.3234874687
  0
LWPOLYLINE
  5
307
330
1F
100
AcDbEntity
  8
0
  6
Continuous
 62
     7
370
    15
100
AcDbPolyline
 90
        3
 70
   128
 43
0.0
 10
2318.0653080057
 20
1749.3234865183
 10
2318.6629109695
 20
1748.830791306
 10
2318.9230739165
 20
1748.3030099513
  0
LWPOLYLINE
  5
308
330
1F
100
AcDbEntity
  8
0
  6
Continuous
 62
     7
370
    15
100
AcDbPolyline
 90
        8
 70
   128
 43
0.0
 10
2312.9649001361
 20
1748.3030098087
 10
2313.0462095564
 20
1748.5471138437
 10
2313.4865313887
 20
1749.092230293
 10
2314.2232582184
 20
1749.5175336389
 10
2315.1675299184
 20
1749.7717260221
 10
2316.2054546734
 20
1749.8241472353
 10
2317.2118423905
 20
1749.668475366
 10
2318.0653080057
 20
1749.3234865183
  0
LINE
  5
309
330
1F
100
AcDbEntity
  8
0
  6
Continuous
 62
     7
370
    15
100
AcDbLine
 10
2330.0861229513
 20
1312.5844083566
 30
0.0
 11
2330.0861229513
 21
1564.0789770547
 31
0.0
  0
ARC
  5
30A
330
1F
100
AcDbEntity
  8
0
  6
Continuous
 62
     7
370
    15
100
AcDbCircle
 10
2332.2074481953
 20
1316.6785209484
 30
0.0
 40
4.611049631571265
100
AcDbArc
 50
242.6095000519
 51
297.390335657
  0
LINE
  5
30B
330
1F
100
AcDbEntity
  8
0
  6
Continuous
 62
     7
370
    15
100
AcDbLine
 10
2330.0861229513
 20
1564.0789770547
 30
0.0
 11
2072.6992598256
 21
1712.6652503894
 31
0.0
  0
LINE
  5
30C
330
1F
100
AcDbEntity
  8
0
  6
Continuous
 62
     7
370
    15
100
AcDbLine
 10
2342.8140497331
 20
1317.4828547891
 30
0.0
 11
2342.8140497331
 21
1556.7313062768
 31
0.0
  0
LINE
  5
30D
330
1F
100
AcDbEntity
  8
0
  6
Continuous
 62
     7
370
    15
100
AcDbLine
 10
2342.8140497331
 20
1317.4828547891
 30
0.0
 11
2334.3287616997
 21
1312.5844022739
 31
0.0
  0
LINE
  5
30E
330
1F
100
AcDbEntity
  8
0
  6
Continuous
 62
     7
370
    15
100
AcDbLine
 10
2072.6992598256
 20
1461.1706816913
 30
0.0
 11
2330.0861229513
 21
1312.5844083566
 31
0.0
  0
LINE
  5
30F
330
1F
100
AcDbEntity
  8
0
  6
Continuous
 62
     7
370
    15
100
AcDbLine
 10
2072.6992598256
 20
1712.6652503894
 30
0.0
 11
2072.6992598256
 21
1461.1706816913
 31
0.0
  0
LINE
  5
310
330
1F
100
AcDbEntity
  8
0
  6
Continuous
 62
     7
370
    15
100
AcDbLine
 10
2141.4593090919
 20
1530.2142271875
 30
0.0
 11
2149.0055337303
 21
1525.8578844311
 31
0.0
  0
ARC
  5
311
330
1F
100
AcDbEntity
  8
0
  6
Continuous
 62
     7
370
    15
100
AcDbCircle
 10
2149.674399991
 20
1526.6778992439
 30
0.0
 40
1.058209037849253
100
AcDbArc
 50
230.7967063026
 51
9.2137403318
  0
LINE
  5
312
330
1F
100
AcDbEntity
  8
0
  6
Continuous
 62
     7
370
    15
100
AcDbLine
 10
2150.7189559046
 20
1526.8473374657
 30
0.0
 11
2150.7189559046
 21
1544.7302928905
 31
0.0
  0
LINE
  5
313
330
1F
100
AcDbEntity
  8
0
  6
Continuous
 62
     7
370
    15
100
AcDbLine
 10
2150.7189559046
 20
1544.7302928905
 30
0.0
 11
2162.6217501255
 21
1518.8179388342
 31
0.0
  0
ARC
  5
314
330
1F
100
AcDbEntity
  8
0
  6
Continuous
 62
     7
370
    15
100
AcDbCircle
 10
2165.9662585323
 20
1520.2755793323
 30
0.0
 40
3.648349257507501
100
AcDbArc
 50
203.5490656633
 51
237.5934087284
  0
LINE
  5
315
330
1F
100
AcDbEntity
  8
0
  6
Continuous
 62
     7
370
    15
100
AcDbLine
 10
2164.0110208879
 20
1517.1954010812
 30
0.0
 11
2174.1743593531
 21
1511.3282306715
 31
0.0
  0
ARC
  5
316
330
1F
100
AcDbEntity
  8
0
  6
Continuous
 62
     7
370
    15
100
AcDbCircle
 10
2174.8432240677
 20
1512.1482431206
 30
0.0
 40
1.058206228994911
100
AcDbArc
 50
230.7966902745
 51
9.2140614803
  0
LINE
  5
317
330
1F
100
AcDbEntity
  8
0
  6
Continuous
 62
     7
370
    15
100
AcDbLine
 10
2175.887776259
 20
1512.3176867475
 30
0.0
 11
2175.887776259
 21
1542.3852472504
 31
0.0
  0
ARC
  5
318
330
1F
100
AcDbEntity
  8
0
  6
Continuous
 62
     7
370
    15
100
AcDbCircle
 10
2172.1677382052
 20
1542.2159656932
 30
0.0
 40
3.723887668480336
100
AcDbArc
 50
2.6054659052
 51
57.3945342404
  0
LINE
  5
319
330
1F
100
AcDbEntity
  8
0
  6
Continuous
 62
     7
370
    15
100
AcDbLine
 10
2174.1743593531
 20
1545.3529723773
 30
0.0
 11
2166.5350086186
 21
1549.7630756846
 31
0.0
  0
ARC
  5
31A
330
1F
100
AcDbEntity
  8
0
  6
Continuous
 62
     7
370
    15
100
AcDbCircle
 10
2165.8661444158
 20
1548.9430623493
 30
0.0
 40
1.058206592276855
100
AcDbArc
 50
50.7967420787
 51
189.2140096761
  0
LINE
  5
31B
330
1F
100
AcDbEntity
  8
0
  6
Continuous
 62
     7
370
    15
100
AcDbLine
 10
2164.8215917127
 20
1548.7736196087
 30
0.0
 11
2164.8215917127
 21
1531.1550394882
 31
0.0
  0
LINE
  5
31C
330
1F
100
AcDbEntity
  8
0
  6
Continuous
 62
     7
370
    15
100
AcDbLine
 10
2164.8215917127
 20
1531.1550394882
 30
0.0
 11
2153.9272214285
 21
1556.16633622
 31
0.0
  0
ARC
  5
31D
330
1F
100
AcDbEntity
  8
0
  6
Continuous
 62
     7
370
    15
100
AcDbCircle
 10
2150.5316022848
 20
1554.7633491345
 30
0.0
 40
3.674044383420494
100
AcDbArc
 50
22.4492213833
 51
57.5113729924
  0
LINE
  5
31E
330
1F
100
AcDbEntity
  8
0
  6
Continuous
 62
     7
370
    15
100
AcDbLine
 10
2152.5050497825
 20
1557.8623985218
 30
0.0
 11
2141.4593090919
 21
1564.2389688934
 31
0.0
  0
ARC
  5
31F
330
1F
100
AcDbEntity
  8
0
  6
Continuous
 62
     7
370
    15
100
AcDbCircle
 10
2140.9727021889
 20
1563.6424023452
 30
0.0
 40
0.7698557815364224
100
AcDbArc
 50
50.796591516
 51
189.2137408343
  0
LINE
  5
320
330
1F
100
AcDbEntity
  8
0
  6
Continuous
 62
     7
370
    15
100
AcDbLine
 10
2140.2127791687
 20
1563.5191346381
 30
0.0
 11
2140.2127791687
 21
1532.3732757786
 31
0.0
  0
ARC
  5
321
330
1F
100
AcDbEntity
  8
0
  6
Continuous
 62
     7
370
    15
100
AcDbCircle
 10
2142.9191482158
 20
1532.4964347328
 30
0.0
 40
2.709169900094107
100
AcDbArc
 50
182.6055660285
 51
237.3945389796
  0
LINE
  5
322
330
1F
100
AcDbEntity
  8
0
  6
Continuous
 62
     7
370
    15
100
AcDbLine
 10
2209.8556857147
 20
1492.671778744
 30
0.0
 11
2209.8556857147
 21
1497.5127547098
 31
0.0
  0
ARC
  5
323
330
1F
100
AcDbEntity
  8
0
  6
Continuous
 62
     7
370
    15
100
AcDbCircle
 10
2206.1356446826
 20
1497.3434729973
 30
0.0
 40
3.723890650742282
100
AcDbArc
 50
2.6054662084
 51
57.3945212225
  0
LINE
  5
324
330
1F
100
AcDbEntity
  8
0
  6
Continuous
 62
     7
370
    15
100
AcDbLine
 10
2208.1422681502
 20
1500.4804817378
 30
0.0
 11
2189.0727777104
 21
1511.4890642444
 31
0.0
  0
LINE
  5
325
330
1F
100
AcDbEntity
  8
0
  6
Continuous
 62
     7
370
    15
100
AcDbLine
 10
2189.0727777104
 20
1511.4890642444
 30
0.0
 11
2189.0727777104
 21
1515.9270743462
 31
0.0
  0
LINE
  5
326
330
1F
100
AcDbEntity
  8
0
  6
Continuous
 62
     7
370
    15
100
AcDbLine
 10
2189.0727777104
 20
1515.9270743462
 30
0.0
 11
2203.3514027881
 21
1507.6841995434
 31
0.0
  0
ARC
  5
327
330
1F
100
AcDbEntity
  8
0
  6
Continuous
 62
     7
370
    15
100
AcDbCircle
 10
2204.0202676741
 20
1508.5042129611
 30
0.0
 40
1.058207087967692
100
AcDbArc
 50
230.7967162347
 51
9.21401645
  0
LINE
  5
328
330
1F
100
AcDbEntity
  8
0
  6
Continuous
 62
     7
370
    15
100
AcDbLine
 10
2205.0648208465
 20
1508.6736559046
 30
0.0
 11
2205.0648208465
 21
1513.1253336159
 31
0.0
  0
ARC
  5
329
330
1F
100
AcDbEntity
  8
0
  6
Continuous
 62
     7
370
    15
100
AcDbCircle
 10
2201.3447782565
 20
1512.9560505695
 30
0.0
 40
3.723892267680849
100
AcDbArc
 50
2.6054856216
 51
57.3945177027
  0
LINE
  5
32A
330
1F
100
AcDbEntity
  8
0
  6
Continuous
 62
     7
370
    15
100
AcDbLine
 10
2203.3514027881
 20
1516.0930605488
 30
0.0
 11
2189.0727777104
 21
1524.3359353516
 31
0.0
  0
LINE
  5
32B
330
1F
100
AcDbEntity
  8
0
  6
Continuous
 62
     7
370
    15
100
AcDbLine
 10
2189.0727777104
 20
1524.3359353516
 30
0.0
 11
2189.0727777104
 21
1528.3836173421
 31
0.0
  0
LINE
  5
32C
330
1F
100
AcDbEntity
  8
0
  6
Continuous
 62
     7
370
    15
100
AcDbLine
 10
2189.0727777104
 20
1528.3836173421
 30
0.0
 11
2206.0385888785
 21
1518.5894630291
 31
0.0
  0
LINE
  5
32D
330
1F
100
AcDbEntity
  8
0
  6
Continuous
 62
     7
370
    15
100
AcDbLine
 10
2206.0385888785
 20
1518.5894630291
 30
0.0
 11
2213.8135665251
 21
1504.894879441
 31
0.0
  0
LINE
  5
32E
330
1F
100
AcDbEntity
  8
0
  6
Continuous
 62
     7
370
    15
100
AcDbLine
 10
2213.8135665251
 20
1504.894879441
 30
0.0
 11
2208.2922516619
 21
1481.137567796
 31
0.0
  0
ARC
  5
32F
330
1F
100
AcDbEntity
  8
0
  6
Continuous
 62
     7
370
    15
100
AcDbCircle
 10
2211.6692217611
 20
1480.715572651
 30
0.0
 40
3.403234777848358
100
AcDbArc
 50
172.8770905285
 51
248.7315842262
  0
LINE
  5
330
330
1F
100
AcDbEntity
  8
0
  6
Continuous
 62
     7
370
    15
100
AcDbLine
 10
2210.4347406078
 20
1477.5441276751
 30
0.0
 11
2220.2961232451
 21
1475.1378107591
 31
0.0
  0
ARC
  5
331
330
1F
100
AcDbEntity
  8
0
  6
Continuous
 62
     7
370
    15
100
AcDbCircle
 10
2220.5579227869
 20
1476.0603609667
 30
0.0
 40
0.9589775209361271
100
AcDbArc
 50
254.1572194569
 51
359.4701119391
  0
LINE
  5
332
330
1F
100
AcDbEntity
  8
0
  6
Continuous
 62
     7
370
    15
100
AcDbLine
 10
2221.516859297
 20
1476.0514921896
 30
0.0
 11
2223.2219140048
 21
1488.7107851519
 31
0.0
  0
LINE
  5
333
330
1F
100
AcDbEntity
  8
0
  6
Continuous
 62
     7
370
    15
100
AcDbLine
 10
2223.2219140048
 20
1488.7107851519
 30
0.0
 11
2230.8073009681
 21
1473.7433620991
 31
0.0
  0
ARC
  5
334
330
1F
100
AcDbEntity
  8
0
  6
Continuous
 62
     7
370
    15
100
AcDbCircle
 10
2233.6620891166
 20
1475.0019543315
 30
0.0
 40
3.119915027723889
100
AcDbArc
 50
203.7912732028
 51
250.2013041261
  0
LINE
  5
335
330
1F
100
AcDbEntity
  8
0
  6
Continuous
 62
     7
370
    15
100
AcDbLine
 10
2232.6053224041
 20
1472.066462227
 30
0.0
 11
2245.2381869691
 21
1469.0096362068
 31
0.0
  0
LINE
  5
336
330
1F
100
AcDbEntity
  8
0
  6
Continuous
 62
     7
370
    15
100
AcDbLine
 10
2245.2381869691
 20
1469.0096362068
 30
0.0
 11
2244.1446606427
 21
1470.9027059654
 31
0.0
  0
LINE
  5
337
330
1F
100
AcDbEntity
  8
0
  6
Continuous
 62
     7
370
    15
100
AcDbLine
 10
2244.1446606427
 20
1470.9027059654
 30
0.0
 11
2250.2479273363
 21
1467.3793650996
 31
0.0
  0
ARC
  5
338
330
1F
100
AcDbEntity
  8
0
  6
Continuous
 62
     7
370
    15
100
AcDbCircle
 10
2250.9167948891
 20
1468.1993776747
 30
0.0
 40
1.058208120596697
100
AcDbArc
 50
230.7965755026
 51
9.2138711318
  0
LINE
  5
339
330
1F
100
AcDbEntity
  8
0
  6
Continuous
 62
     7
370
    15
100
AcDbLine
 10
2251.9613495106
 20
1468.3688181343
 30
0.0
 11
2251.9613495106
 21
1491.8427090927
 31
0.0
  0
LINE
  5
33A
330
1F
100
AcDbEntity
  8
0
  6
Continuous
 62
     7
370
    15
100
AcDbLine
 10
2251.9613495106
 20
1491.8427090927
 30
0.0
 11
2261.326073685
 21
1486.4365688997
 31
0.0
  0
ARC
  5
33B
330
1F
100
AcDbEntity
  8
0
  6
Continuous
 62
     7
370
    15
100
AcDbCircle
 10
2261.8126803
 20
1487.0331360769
 30
0.0
 40
0.7698560868831424
100
AcDbArc
 50
230.7966377135
 51
9.2137470625
  0
LINE
  5
33C
330
1F
100
AcDbEntity
  8
0
  6
Continuous
 62
     7
370
    15
100
AcDbLine
 10
2262.5726036082
 20
1487.1564039155
 30
0.0
 11
2262.5726036082
 21
1492.8763829675
 31
0.0
  0
ARC
  5
33D
330
1F
100
AcDbEntity
  8
0
  6
Continuous
 62
     7
370
    15
100
AcDbCircle
 10
2259.8662345611
 20
1492.7532240132
 30
0.0
 40
2.709169900093929
100
AcDbArc
 50
2.6055660285
 51
57.3945389795
  0
LINE
  5
33E
330
1F
100
AcDbEntity
  8
0
  6
Continuous
 62
     7
370
    15
100
AcDbLine
 10
2261.326073685
 20
1495.0354315585
 30
0.0
 11
2231.5450736488
 21
1512.2276369331
 31
0.0
  0
ARC
  5
33F
330
1F
100
AcDbEntity
  8
0
  6
Continuous
 62
     7
370
    15
100
AcDbCircle
 10
2230.8762072566
 20
1511.4076248685
 30
0.0
 40
1.058206991362931
100
AcDbArc
 50
50.796606731
 51
189.2139924635
  0
LINE
  5
340
330
1F
100
AcDbEntity
  8
0
  6
Continuous
 62
     7
370
    15
100
AcDbLine
 10
2229.8316541086
 20
1511.2381823778
 30
0.0
 11
2229.8316541086
 21
1506.5826125881
 31
0.0
  0
ARC
  5
341
330
1F
100
AcDbEntity
  8
0
  6
Continuous
 62
     7
370
    15
100
AcDbCircle
 10
2233.5516951462
 20
1506.7518952378
 30
0.0
 40
3.723890698791458
100
AcDbArc
 50
182.6054806101
 51
237.3945576798
  0
LINE
  5
342
330
1F
100
AcDbEntity
  8
0
  6
Continuous
 62
     7
370
    15
100
AcDbLine
 10
2231.5450736488
 20
1503.6148851801
 30
0.0
 11
2240.5239091808
 21
1498.4315137586
 31
0.0
  0
LINE
  5
343
330
1F
100
AcDbEntity
  8
0
  6
Continuous
 62
     7
370
    15
100
AcDbLine
 10
2240.5239091808
 20
1498.4315137586
 30
0.0
 11
2240.5239091808
 21
1477.2383392245
 31
0.0
  0
LINE
  5
344
330
1F
100
AcDbEntity
  8
0
  6
Continuous
 62
     7
370
    15
100
AcDbLine
 10
2240.5239091808
 20
1477.2383392245
 30
0.0
 11
2226.4053260589
 21
1501.8086712187
 31
0.0
  0
LINE
  5
345
330
1F
100
AcDbEntity
  8
0
  6
Continuous
 62
     7
370
    15
100
AcDbLine
 10
2226.4053260589
 20
1501.8086712187
 30
0.0
 11
2230.9638738761
 21
1522.9165970846
 31
0.0
  0
ARC
  5
346
330
1F
100
AcDbEntity
  8
0
  6
Continuous
 62
     7
370
    15
100
AcDbCircle
 10
2227.5759598865
 20
1523.3085079202
 30
0.0
 40
3.410506605260811
100
AcDbArc
 50
353.4014049559
 51
68.7147386446
  0
LINE
  5
347
330
1F
100
AcDbEntity
  8
0
  6
Continuous
 62
     7
370
    15
100
AcDbLine
 10
2228.814013183
 20
1526.4863655853
 30
0.0
 11
2219.5283920577
 21
1528.7383359437
 31
0.0
  0
ARC
  5
348
330
1F
100
AcDbEntity
  8
0
  6
Continuous
 62
     7
370
    15
100
AcDbCircle
 10
2219.2684738303
 20
1527.8152844284
 30
0.0
 40
0.9589481659368819
100
AcDbArc
 50
74.273532546
 51
179.4933852172
  0
LINE
  5
349
330
1F
100
AcDbEntity
  8
0
  6
Continuous
 62
     7
370
    15
100
AcDbLine
 10
2218.3095631507
 20
1527.8237634296
 30
0.0
 11
2216.9686005792
 21
1517.8504314259
 31
0.0
  0
LINE
  5
34A
330
1F
100
AcDbEntity
  8
0
  6
Continuous
 62
     7
370
    15
100
AcDbLine
 10
2216.9686005792
 20
1517.8504314259
 30
0.0
 11
2211.1589242225
 21
1529.531773111
 31
0.0
  0
ARC
  5
34B
330
1F
100
AcDbEntity
  8
0
  6
Continuous
 62
     7
370
    15
100
AcDbCircle
 10
2208.2720417851
 20
1528.2810923136
 30
0.0
 40
3.146155219402224
100
AcDbArc
 50
23.423653223
 51
69.8160349844
  0
LINE
  5
34C
330
1F
100
AcDbEntity
  8
0
  6
Continuous
 62
     7
370
    15
100
AcDbLine
 10
2209.3575771368
 20
1531.2340409526
 30
0.0
 11
2197.1636285351
 21
1534.2840236872
 31
0.0
  0
LINE
  5
34D
330
1F
100
AcDbEntity
  8
0
  6
Continuous
 62
     7
370
    15
100
AcDbLine
 10
2197.1636285351
 20
1534.2840236872
 30
0.0
 11
2199.0567031329
 21
1531.0068092077
 31
0.0
  0
LINE
  5
34E
330
1F
100
AcDbEntity
  8
0
  6
Continuous
 62
     7
370
    15
100
AcDbLine
 10
2199.0567031329
 20
1531.0068092077
 30
0.0
 11
2179.3151105647
 21
1542.4033880143
 31
0.0
  0
ARC
  5
34F
330
1F
100
AcDbEntity
  8
0
  6
Continuous
 62
     7
370
    15
100
AcDbCircle
 10
2178.6462461702
 20
1541.5833747505
 30
0.0
 40
1.058206658033604
100
AcDbArc
 50
50.7967315882
 51
189.2140964467
  0
LINE
  5
350
330
1F
100
AcDbEntity
  8
0
  6
Continuous
 62
     7
370
    15
100
AcDbLine
 10
2177.6016936588
 20
1541.4139304174
 30
0.0
 11
2177.6016936588
 21
1511.2916120235
 31
0.0
  0
ARC
  5
351
330
1F
100
AcDbEntity
  8
0
  6
Continuous
 62
     7
370
    15
100
AcDbCircle
 10
2181.3217334499
 20
1511.4608929761
 30
0.0
 40
3.723889376495453
100
AcDbArc
 50
182.6054553966
 51
237.3945193196
  0
LINE
  5
352
330
1F
100
AcDbEntity
  8
0
  6
Continuous
 62
     7
370
    15
100
AcDbLine
 10
2179.3151105647
 20
1508.3238853757
 30
0.0
 11
2208.1422681502
 21
1491.6823215272
 31
0.0
  0
ARC
  5
353
330
1F
100
AcDbEntity
  8
0
  6
Continuous
 62
     7
370
    15
100
AcDbCircle
 10
2208.8111326746
 20
1492.5023351962
 30
0.0
 40
1.058207054100704
100
AcDbArc
 50
230.7967400033
 51
9.2140498916
  0
LINE
  5
354
330
1F
100
AcDbEntity
  8
0
  6
Continuous
 62
     7
370
    15
100
AcDbLine
 10
2181.4364246705
 20
1509.5484939425
 30
0.0
 11
2209.8556797878
 21
1493.1424071767
 31
0.0
  0
ARC
  5
355
330
1F
100
AcDbEntity
  8
0
  6
Continuous
 62
     7
370
    15
100
AcDbCircle
 10
2183.4430475557
 20
1512.6855015429
 30
0.0
 40
3.723889376496341
100
AcDbArc
 50
182.6054553966
 51
237.3945193196
  0
LINE
  5
356
330
1F
100
AcDbEntity
  8
0
  6
Continuous
 62
     7
370
    15
100
AcDbLine
 10
2179.7230077646
 20
1542.1679067519
 30
0.0
 11
2179.7230077646
 21
1512.5162205903
 31
0.0
  0
LINE
  5
357
330
1F
100
AcDbEntity
  8
0
  6
Continuous
 62
     7
370
    15
100
AcDbLine
 10
2200.4700593375
 20
1533.4570054511
 30
0.0
 11
2201.1780172387
 21
1532.2314177745
 31
0.0
  0
LINE
  5
358
330
1F
100
AcDbEntity
  8
0
  6
Continuous
 62
     7
370
    15
100
AcDbLine
 10
2220.362007989
 20
1528.5361595561
 30
0.0
 11
2219.0899146851
 21
1519.0750399926
 31
0.0
  0
LINE
  5
359
330
1F
100
AcDbEntity
  8
0
  6
Continuous
 62
     7
370
    15
100
AcDbLine
 10
2242.6452232866
 20
1499.6561223253
 30
0.0
 11
2242.6452232866
 21
1478.4629477913
 31
0.0
  0
LINE
  5
35A
330
1F
100
AcDbEntity
  8
0
  6
Continuous
 62
     7
370
    15
100
AcDbLine
 10
2233.6663877546
 20
1504.8394937468
 30
0.0
 11
2242.6452232866
 21
1499.6561223253
 31
0.0
  0
ARC
  5
35B
330
1F
100
AcDbEntity
  8
0
  6
Continuous
 62
     7
370
    15
100
AcDbCircle
 10
2235.673009252
 20
1507.9765038046
 30
0.0
 40
3.72389069879455
100
AcDbArc
 50
182.6054806101
 51
237.3945576797
  0
LINE
  5
35C
330
1F
100
AcDbEntity
  8
0
  6
Continuous
 62
     7
370
    15
100
AcDbLine
 10
2231.9529682145
 20
1511.9921571914
 30
0.0
 11
2231.9529682145
 21
1507.8072211549
 31
0.0
  0
LINE
  5
35D
330
1F
100
AcDbEntity
  8
0
  6
Continuous
 62
     7
370
    15
100
AcDbLine
 10
2254.0826636164
 20
1493.0673176595
 30
0.0
 11
2262.5725930715
 21
1488.1661857086
 31
0.0
  0
LINE
  5
35E
330
1F
100
AcDbEntity
  8
0
  6
Continuous
 62
     7
370
    15
100
AcDbLine
 10
2246.2659747485
 20
1472.1273145322
 30
0.0
 11
2251.9613389739
 21
1468.8394507491
 31
0.0
  0
LINE
  5
35F
330
1F
100
AcDbEntity
  8
0
  6
Continuous
 62
     7
370
    15
100
AcDbLine
 10
2234.7266365099
 20
1473.2910707938
 30
0.0
 11
2244.2782529816
 21
1470.9798267797
 31
0.0
  0
ARC
  5
360
330
1F
100
AcDbEntity
  8
0
  6
Continuous
 62
     7
370
    15
100
AcDbCircle
 10
2235.7834032224
 20
1476.2265628983
 30
0.0
 40
3.119915027726418
100
AcDbArc
 50
203.7912732029
 51
250.2013041261
  0
LINE
  5
361
330
1F
100
AcDbEntity
  8
0
  6
Continuous
 62
     7
370
    15
100
AcDbLine
 10
2225.3432281107
 20
1489.9353937187
 30
0.0
 11
2232.9286150739
 21
1474.9679706658
 31
0.0
  0
LINE
  5
362
330
1F
100
AcDbEntity
  8
0
  6
Continuous
 62
     7
370
    15
100
AcDbLine
 10
2212.5560547136
 20
1478.7687362419
 30
0.0
 11
2221.5860552027
 21
1476.5652868069
 31
0.0
  0
ARC
  5
363
330
1F
100
AcDbEntity
  8
0
  6
Continuous
 62
     7
370
    15
100
AcDbCircle
 10
2213.7905358669
 20
1481.9401812178
 30
0.0
 40
3.403234777849536
100
AcDbArc
 50
172.8770905285
 51
248.7315842262
  0
LINE
  5
364
330
1F
100
AcDbEntity
  8
0
  6
Continuous
 62
     7
370
    15
100
AcDbLine
 10
2215.9348806309
 20
1506.1194880077
 30
0.0
 11
2210.4135657677
 21
1482.3621763627
 31
0.0
  0
LINE
  5
365
330
1F
100
AcDbEntity
  8
0
  6
Continuous
 62
     7
370
    15
100
AcDbLine
 10
2208.1599029843
 20
1519.8140715959
 30
0.0
 11
2215.9348806309
 21
1506.1194880077
 31
0.0
  0
LINE
  5
366
330
1F
100
AcDbEntity
  8
0
  6
Continuous
 62
     7
370
    15
100
AcDbLine
 10
2191.1940918162
 20
1529.6082259088
 30
0.0
 11
2208.1599029843
 21
1519.8140715959
 31
0.0
  0
LINE
  5
367
330
1F
100
AcDbEntity
  8
0
  6
Continuous
 62
     7
370
    15
100
AcDbLine
 10
2191.1940918162
 20
1517.151682913
 30
0.0
 11
2205.0648144257
 21
1509.1442851928
 31
0.0
  0
LINE
  5
368
330
1F
100
AcDbEntity
  8
0
  6
Continuous
 62
     7
370
    15
100
AcDbLine
 10
2240.8772604562
 20
1475.9234168349
 30
0.0
 11
2225.4353374139
 21
1502.7967363323
 31
0.0
  0
ARC
  5
369
330
1F
100
AcDbEntity
  8
0
  6
Continuous
 62
     7
370
    15
100
AcDbCircle
 10
2228.0687194199
 20
1504.4666414782
 30
0.0
 40
3.118218078640481
100
AcDbArc
 50
172.3277740893
 51
212.3799884385
  0
LINE
  5
36A
330
1F
100
AcDbEntity
  8
0
  6
Continuous
 62
     7
370
    15
100
AcDbLine
 10
2224.9784155267
 20
1504.8829416501
 30
0.0
 11
2229.1140407925
 21
1524.0325628826
 31
0.0
  0
LINE
  5
36B
330
1F
100
AcDbEntity
  8
0
  6
Continuous
 62
     7
370
    15
100
AcDbLine
 10
2229.1140407925
 20
1524.0325628826
 30
0.0
 11
2223.6651144587
 21
1525.3540478875
 31
0.0
  0
ARC
  5
36C
330
1F
100
AcDbEntity
  8
0
  6
Continuous
 62
     7
370
    15
100
AcDbCircle
 10
2222.3182583269
 20
1514.8244158509
 30
0.0
 40
3.806861134924467
100
AcDbArc
 50
205.7804476335
 51
230.516429384
  0
LINE
  5
36D
330
1F
100
AcDbEntity
  8
0
  6
Continuous
 62
     7
370
    15
100
AcDbLine
 10
2218.8903045763
 20
1513.1687211976
 30
0.0
 11
2211.3226403629
 21
1528.3847937045
 31
0.0
  0
LINE
  5
36E
330
1F
100
AcDbEntity
  8
0
  6
Continuous
 62
     7
370
    15
100
AcDbLine
 10
2211.3226403629
 20
1528.3847937045
 30
0.0
 11
2205.71555123
 21
1529.787254022
 31
0.0
  0
LINE
  5
36F
330
1F
100
AcDbEntity
  8
0
  6
Continuous
 62
     7
370
    15
100
AcDbLine
 10
2220.4044630363
 20
1480.9723062999
 30
0.0
 11
2222.404980323
 21
1495.8252764934
 31
0.0
  0
LINE
  5
370
330
1F
100
AcDbEntity
  8
0
  6
Continuous
 62
     7
370
    15
100
AcDbLine
 10
2254.0826636164
 20
1493.0673176595
 30
0.0
 11
2251.9613495106
 21
1491.8427090927
 31
0.0
  0
LWPOLYLINE
  5
371
330
1F
100
AcDbEntity
  8
0
  6
Continuous
 62
     7
370
    15
100
AcDbPolyline
 90
        9
 70
   128
 43
0.0
 10
2220.3823372579
 20
1495.3332668301
 10
2220.5219763525
 20
1495.7979467139
 10
2220.7901501641
 20
1496.1200450224
 10
2221.1647092069
 20
1496.2729575444
 10
2221.6147163768
 20
1496.2440550314
 10
2222.1030034218
 20
1496.0357248911
 10
2222.5892423935
 20
1495.665172995
 10
2223.0332699792
 20
1495.1630057266
 10
2223.3984131526
 20
1494.5706994734
  0
LINE
  5
372
330
1F
100
AcDbEntity
  8
0
  6
Continuous
 62
     7
370
    15
100
AcDbLine
 10
2218.2831489305
 20
1479.7476977331
 30
0.0
 11
2220.3823372579
 21
1495.3332668301
 31
0.0
  0
LINE
  5
373
330
1F
100
AcDbEntity
  8
0
  6
Continuous
 62
     7
370
    15
100
AcDbLine
 10
2212.3023339783
 20
1481.20710095
 30
0.0
 11
2218.2831489305
 21
1479.7476977331
 31
0.0
  0
LINE
  5
374
330
1F
100
AcDbEntity
  8
0
  6
Continuous
 62
     7
370
    15
100
AcDbLine
 10
2217.3651932041
 20
1502.9917532668
 30
0.0
 11
2212.3023339783
 21
1481.20710095
 31
0.0
  0
ARC
  5
375
330
1F
100
AcDbEntity
  8
0
  6
Continuous
 62
     7
370
    15
100
AcDbCircle
 10
2214.3166726204
 20
1503.4415250374
 30
0.0
 40
3.081521117015688
100
AcDbArc
 50
351.6072579245
 51
32.1915073625
  0
LINE
  5
376
330
1F
100
AcDbEntity
  8
0
  6
Continuous
 62
     7
370
    15
100
AcDbLine
 10
2203.5942371241
 20
1528.5626454552
 30
0.0
 11
2216.9244780972
 21
1505.0832080123
 31
0.0
  0
LINE
  5
377
330
1F
100
AcDbEntity
  8
0
  6
Continuous
 62
     7
370
    15
100
AcDbLine
 10
2209.201326257
 20
1527.1601851377
 30
0.0
 11
2203.5942371241
 21
1528.5626454552
 31
0.0
  0
LINE
  5
378
330
1F
100
AcDbEntity
  8
0
  6
Continuous
 62
     7
370
    15
100
AcDbLine
 10
2216.7689904705
 20
1511.9441126308
 30
0.0
 11
2209.201326257
 21
1527.1601851377
 31
0.0
  0
LWPOLYLINE
  5
379
330
1F
100
AcDbEntity
  8
0
  6
Continuous
 62
     7
370
    15
100
AcDbPolyline
 90
        9
 70
   128
 43
0.0
 10
2219.7991842423
 20
1511.1539474994
 10
2219.6584677689
 20
1510.6868876458
 10
2219.3878362692
 20
1510.3641986074
 10
2219.0098975761
 20
1510.2128386335
 10
2218.5562236304
 20
1510.2454495799
 10
2218.0647110343
 20
1510.4593087432
 10
2217.576421355
 20
1510.8365506192
 10
2217.1321435224
 20
1511.3456616508
 10
2216.7689904705
 20
1511.9441126308
  0
LINE
  5
37A
330
1F
100
AcDbEntity
  8
0
  6
Continuous
 62
     7
370
    15
100
AcDbLine
 10
2221.5438003529
 20
1524.1294393208
 30
0.0
 11
2219.7991842423
 21
1511.1539474994
 31
0.0
  0
LINE
  5
37B
330
1F
100
AcDbEntity
  8
0
  6
Continuous
 62
     7
370
    15
100
AcDbLine
 10
2226.9927266866
 20
1522.8079543158
 30
0.0
 11
2221.5438003529
 21
1524.1294393208
 31
0.0
  0
LINE
  5
37C
330
1F
100
AcDbEntity
  8
0
  6
Continuous
 62
     7
370
    15
100
AcDbLine
 10
2222.8571014208
 20
1503.6583330834
 30
0.0
 11
2226.9927266866
 21
1522.8079543158
 31
0.0
  0
ARC
  5
37D
330
1F
100
AcDbEntity
  8
0
  6
Continuous
 62
     7
370
    15
100
AcDbCircle
 10
2225.9474053141
 20
1503.2420329114
 30
0.0
 40
3.118218078639037
100
AcDbArc
 50
172.3277740893
 51
212.3799884385
  0
LINE
  5
37E
330
1F
100
AcDbEntity
  8
0
  6
Continuous
 62
     7
370
    15
100
AcDbLine
 10
2238.7559463503
 20
1474.6988082681
 30
0.0
 11
2223.3140233081
 21
1501.5721277655
 31
0.0
  0
LINE
  5
37F
330
1F
100
AcDbEntity
  8
0
  6
Continuous
 62
     7
370
    15
100
AcDbLine
 10
2232.7304353239
 20
1476.1568259102
 30
0.0
 11
2238.7559463503
 21
1474.6988082681
 31
0.0
  0
LINE
  5
380
330
1F
100
AcDbEntity
  8
0
  6
Continuous
 62
     7
370
    15
100
AcDbLine
 10
2223.3984131526
 20
1494.5706994734
 30
0.0
 11
2232.7304353239
 21
1476.1568259102
 31
0.0
  0
LINE
  5
381
330
1F
100
AcDbEntity
  8
0
  6
Continuous
 62
     7
370
    15
100
AcDbLine
 10
2229.1140407925
 20
1524.0325628826
 30
0.0
 11
2226.9927266866
 21
1522.8079543158
 31
0.0
  0
LINE
  5
382
330
1F
100
AcDbEntity
  8
0
  6
Continuous
 62
     7
370
    15
100
AcDbLine
 10
2224.9784155267
 20
1504.8829416501
 30
0.0
 11
2222.8571014208
 21
1503.6583330834
 31
0.0
  0
LINE
  5
383
330
1F
100
AcDbEntity
  8
0
  6
Continuous
 62
     7
370
    15
100
AcDbLine
 10
2223.6651144587
 20
1525.3540478875
 30
0.0
 11
2221.5438003529
 21
1524.1294393208
 31
0.0
  0
LINE
  5
384
330
1F
100
AcDbEntity
  8
0
  6
Continuous
 62
     7
370
    15
100
AcDbLine
 10
2233.6663877546
 20
1504.8394937468
 30
0.0
 11
2231.5450736488
 21
1503.6148851801
 31
0.0
  0
LINE
  5
385
330
1F
100
AcDbEntity
  8
0
  6
Continuous
 62
     7
370
    15
100
AcDbLine
 10
2242.6452232866
 20
1499.6561223253
 30
0.0
 11
2240.5239091808
 21
1498.4315137586
 31
0.0
  0
LINE
  5
386
330
1F
100
AcDbEntity
  8
0
  6
Continuous
 62
     7
370
    15
100
AcDbLine
 10
2242.6452232866
 20
1478.4629477913
 30
0.0
 11
2240.5239091808
 21
1477.2383392245
 31
0.0
  0
LINE
  5
387
330
1F
100
AcDbEntity
  8
0
  6
Continuous
 62
     7
370
    15
100
AcDbLine
 10
2231.9529682145
 20
1507.8072211549
 30
0.0
 11
2229.8316541086
 21
1506.5826125881
 31
0.0
  0
LINE
  5
388
330
1F
100
AcDbEntity
  8
0
  6
Continuous
 62
     7
370
    15
100
AcDbLine
 10
2225.4353374139
 20
1502.7967363323
 30
0.0
 11
2223.3140233081
 21
1501.5721277655
 31
0.0
  0
LINE
  5
389
330
1F
100
AcDbEntity
  8
0
  6
Continuous
 62
     7
370
    15
100
AcDbLine
 10
2240.8772604562
 20
1475.9234168349
 30
0.0
 11
2238.7559463503
 21
1474.6988082681
 31
0.0
  0
LINE
  5
38A
330
1F
100
AcDbEntity
  8
0
  6
Continuous
 62
     7
370
    15
100
AcDbLine
 10
2219.0899146851
 20
1519.0750399926
 30
0.0
 11
2216.9686005792
 21
1517.8504314259
 31
0.0
  0
LINE
  5
38B
330
1F
100
AcDbEntity
  8
0
  6
Continuous
 62
     7
370
    15
100
AcDbLine
 10
2246.2659747485
 20
1472.1273145322
 30
0.0
 11
2244.1446606427
 21
1470.9027059654
 31
0.0
  0
LINE
  5
38C
330
1F
100
AcDbEntity
  8
0
  6
Continuous
 62
     7
370
    15
100
AcDbLine
 10
2211.3226403629
 20
1528.3847937045
 30
0.0
 11
2209.201326257
 21
1527.1601851377
 31
0.0
  0
LINE
  5
38D
330
1F
100
AcDbEntity
  8
0
  6
Continuous
 62
     7
370
    15
100
AcDbLine
 10
2218.8903045763
 20
1513.1687211976
 30
0.0
 11
2216.7689904705
 21
1511.9441126308
 31
0.0
  0
LINE
  5
38E
330
1F
100
AcDbEntity
  8
0
  6
Continuous
 62
     7
370
    15
100
AcDbLine
 10
2234.7266365099
 20
1473.2910707938
 30
0.0
 11
2232.6053224041
 21
1472.066462227
 31
0.0
  0
LINE
  5
38F
330
1F
100
AcDbEntity
  8
0
  6
Continuous
 62
     7
370
    15
100
AcDbLine
 10
2205.71555123
 20
1529.787254022
 30
0.0
 11
2203.5942371241
 21
1528.5626454552
 31
0.0
  0
LINE
  5
390
330
1F
100
AcDbEntity
  8
0
  6
Continuous
 62
     7
370
    15
100
AcDbLine
 10
2208.1599029843
 20
1519.8140715959
 30
0.0
 11
2206.0385888785
 21
1518.5894630291
 31
0.0
  0
LINE
  5
391
330
1F
100
AcDbEntity
  8
0
  6
Continuous
 62
     7
370
    15
100
AcDbLine
 10
2215.9348806309
 20
1506.1194880077
 30
0.0
 11
2213.8135665251
 21
1504.894879441
 31
0.0
  0
LINE
  5
392
330
1F
100
AcDbEntity
  8
0
  6
Continuous
 62
     7
370
    15
100
AcDbLine
 10
2225.3432281107
 20
1489.9353937187
 30
0.0
 11
2223.2219140048
 21
1488.7107851519
 31
0.0
  0
LINE
  5
393
330
1F
100
AcDbEntity
  8
0
  6
Continuous
 62
     7
370
    15
100
AcDbLine
 10
2232.9286150739
 20
1474.9679706658
 30
0.0
 11
2230.8073009681
 21
1473.7433620991
 31
0.0
  0
LINE
  5
394
330
1F
100
AcDbEntity
  8
0
  6
Continuous
 62
     7
370
    15
100
AcDbLine
 10
2201.1780172387
 20
1532.2314177745
 30
0.0
 11
2199.0567031329
 21
1531.0068092077
 31
0.0
  0
LINE
  5
395
330
1F
100
AcDbEntity
  8
0
  6
Continuous
 62
     7
370
    15
100
AcDbLine
 10
2220.4044630363
 20
1480.9723062999
 30
0.0
 11
2218.2831489305
 21
1479.7476977331
 31
0.0
  0
LINE
  5
396
330
1F
100
AcDbEntity
  8
0
  6
Continuous
 62
     7
370
    15
100
AcDbLine
 10
2191.1940918162
 20
1529.6082259088
 30
0.0
 11
2189.0727777104
 21
1528.3836173421
 31
0.0
  0
LINE
  5
397
330
1F
100
AcDbEntity
  8
0
  6
Continuous
 62
     7
370
    15
100
AcDbLine
 10
2210.4135657677
 20
1482.3621763627
 30
0.0
 11
2208.2922516619
 21
1481.137567796
 31
0.0
  0
LINE
  5
398
330
1F
100
AcDbEntity
  8
0
  6
Continuous
 62
     7
370
    15
100
AcDbLine
 10
2191.1940918162
 20
1517.151682913
 30
0.0
 11
2189.0727777104
 21
1515.9270743462
 31
0.0
  0
LINE
  5
399
330
1F
100
AcDbEntity
  8
0
  6
Continuous
 62
     7
370
    15
100
AcDbLine
 10
2212.5560547136
 20
1478.7687362419
 30
0.0
 11
2210.4347406078
 21
1477.5441276751
 31
0.0
  0
LINE
  5
39A
330
1F
100
AcDbEntity
  8
0
  6
Continuous
 62
     7
370
    15
100
AcDbLine
 10
2181.4364246705
 20
1509.5484939425
 30
0.0
 11
2179.3151105647
 21
1508.3238853757
 31
0.0
  0
LINE
  5
39B
330
1F
100
AcDbEntity
  8
0
  6
Continuous
 62
     7
370
    15
100
AcDbLine
 10
2179.7230077646
 20
1512.5162205903
 30
0.0
 11
2177.6016936588
 21
1511.2916120235
 31
0.0
  0
LINE
  5
39C
330
1F
100
AcDbEntity
  8
0
  6
Continuous
 62
     7
370
    15
100
AcDbLine
 10
2142.3340932745
 20
1563.7339610339
 30
0.0
 11
2142.3340932745
 21
1533.5978843453
 31
0.0
  0
LINE
  5
39D
330
1F
100
AcDbEntity
  8
0
  6
Continuous
 62
     7
370
    15
100
AcDbLine
 10
2166.9429058185
 20
1549.5275959432
 30
0.0
 11
2166.9429058185
 21
1532.379648055
 31
0.0
  0
LINE
  5
39E
330
1F
100
AcDbEntity
  8
0
  6
Continuous
 62
     7
370
    15
100
AcDbLine
 10
2166.1323349938
 20
1518.4200096479
 30
0.0
 11
2175.8877709906
 21
1512.7883163209
 31
0.0
  0
ARC
  5
39F
330
1F
100
AcDbEntity
  8
0
  6
Continuous
 62
     7
370
    15
100
AcDbCircle
 10
2168.0875726382
 20
1521.5001878991
 30
0.0
 40
3.648349257509685
100
AcDbArc
 50
203.5490656633
 51
237.5934087284
  0
LINE
  5
3A0
330
1F
100
AcDbEntity
  8
0
  6
Continuous
 62
     7
370
    15
100
AcDbLine
 10
2152.8402700105
 20
1545.9549014573
 30
0.0
 11
2164.7430642314
 21
1520.042547401
 31
0.0
  0
LINE
  5
3A1
330
1F
100
AcDbEntity
  8
0
  6
Continuous
 62
     7
370
    15
100
AcDbLine
 10
2143.5806231977
 20
1531.4388357543
 30
0.0
 11
2150.7189453679
 21
1527.3179700805
 31
0.0
  0
ARC
  5
3A2
330
1F
100
AcDbEntity
  8
0
  6
Continuous
 62
     7
370
    15
100
AcDbCircle
 10
2145.0404623217
 20
1533.7210432996
 30
0.0
 40
2.709169900093464
100
AcDbArc
 50
182.6055660285
 51
237.3945389796
  0
ARC
  5
3A3
330
1F
100
AcDbEntity
  8
0
  6
Continuous
 62
     7
370
    15
100
AcDbCircle
 10
2073.3219356642
 20
1462.5450116981
 30
0.0
 40
1.508810182697391
100
AcDbArc
 50
185.6946842282
 51
245.6258642564
  0
LINE
  5
3A4
330
1F
100
AcDbEntity
  8
0
  6
Continuous
 62
     7
370
    15
100
AcDbLine
 10
2166.9429058185
 20
1532.379648055
 30
0.0
 11
2164.8215917127
 21
1531.1550394882
 31
0.0
  0
LINE
  5
3A5
330
1F
100
AcDbEntity
  8
0
  6
Continuous
 62
     7
370
    15
100
AcDbLine
 10
2152.8402700105
 20
1545.9549014573
 30
0.0
 11
2150.7189559046
 21
1544.7302928905
 31
0.0
  0
LINE
  5
3A6
330
1F
100
AcDbEntity
  8
0
  6
Continuous
 62
     7
370
    15
100
AcDbLine
 10
2164.7430642314
 20
1520.042547401
 30
0.0
 11
2162.6217501255
 21
1518.8179388342
 31
0.0
  0
LINE
  5
3A7
330
1F
100
AcDbEntity
  8
0
  6
Continuous
 62
     7
370
    15
100
AcDbLine
 10
2166.1323349938
 20
1518.4200096479
 30
0.0
 11
2164.0110208879
 21
1517.1954010812
 31
0.0
  0
LINE
  5
3A8
330
1F
100
AcDbEntity
  8
0
  6
Continuous
 62
     7
370
    15
100
AcDbLine
 10
2142.3340932745
 20
1533.5978843453
 30
0.0
 11
2140.2127791687
 21
1532.3732757786
 31
0.0
  0
LINE
  5
3A9
330
1F
100
AcDbEntity
  8
0
  6
Continuous
 62
     7
370
    15
100
AcDbLine
 10
2143.5806231977
 20
1531.4388357543
 30
0.0
 11
2141.4593090919
 21
1530.2142271875
 31
0.0
  0
LINE
  5
3AA
330
1F
100
AcDbEntity
  8
0
  6
Continuous
 62
     7
370
    15
100
AcDbLine
 10
2367.5627845458
 20
1331.7699952862
 30
0.0
 11
2342.8140497331
 21
1317.4828547891
 31
0.0
  0
LINE
  5
3AB
330
1F
100
AcDbEntity
  8
0
  6
Continuous
 62
     7
370
    15
100
AcDbLine
 10
2372.5125315084
 20
1282.3763789296
 30
0.0
 11
2372.5125315084
 21
1288.0921640287
 31
0.0
  0
LINE
  5
3AC
330
1F
100
AcDbEntity
  8
0
  6
Continuous
 62
     7
370
    15
100
AcDbLine
 10
2367.5627845458
 20
1285.233807029
 30
0.0
 11
2372.5125315084
 21
1282.3763789296
 31
0.0
  0
LINE
  5
3AD
330
1F
100
AcDbEntity
  8
0
  6
Continuous
 62
     7
370
    15
100
AcDbLine
 10
2367.5627845458
 20
1548.1599459254
 30
0.0
 11
2367.5627845458
 21
1285.233807029
 31
0.0
  0
LINE
  5
3AE
330
1F
100
AcDbEntity
  8
0
  6
Continuous
 62
     7
370
    15
100
AcDbLine
 10
2372.5125315084
 20
1545.302517826
 30
0.0
 11
2367.5627845458
 21
1548.1599459254
 31
0.0
  0
LINE
  5
3AF
330
1F
100
AcDbEntity
  8
0
  6
Continuous
 62
     7
370
    15
100
AcDbLine
 10
2372.5125315084
 20
1539.5867327268
 30
0.0
 11
2372.5125315084
 21
1545.302517826
 31
0.0
  0
LINE
  5
3B0
330
1F
100
AcDbEntity
  8
0
  6
Continuous
 62
     7
370
    15
100
AcDbLine
 10
2372.5125315084
 20
1539.5867327268
 30
0.0
 11
2374.6338561509
 21
1538.3621180773
 31
0.0
  0
LINE
  5
3B1
330
1F
100
AcDbEntity
  8
0
  6
Continuous
 62
     7
370
    15
100
AcDbLine
 10
2374.6338561509
 20
1286.8675493792
 30
0.0
 11
2374.6338561509
 21
1538.3621180773
 31
0.0
  0
LINE
  5
3B2
330
1F
100
AcDbEntity
  8
0
  6
Continuous
 62
     7
370
    15
100
AcDbLine
 10
2374.6338561509
 20
1286.8675493792
 30
0.0
 11
2372.5125315084
 21
1288.0921640287
 31
0.0
  0
ARC
  5
3B3
330
1F
100
AcDbEntity
  8
0
  6
Continuous
 62
     7
370
    15
100
AcDbCircle
 10
2378.1693866851
 20
1545.1856842773
 30
0.0
 40
7.685117555605582
100
AcDbArc
 50
242.6097315137
 51
297.3902684863
  0
ARC
  5
3B4
330
1F
100
AcDbEntity
  8
0
  6
Continuous
 62
     7
370
    15
100
AcDbCircle
 10
2662.0956046431
 20
1703.1178800834
 30
0.0
 40
2.514689032202914
100
AcDbArc
 50
294.374574655
 51
354.3053975555
  0
LINE
  5
3B5
330
1F
100
AcDbEntity
  8
0
  6
Continuous
 62
     7
370
    15
100
AcDbLine
 10
2381.7049172193
 20
1538.3621180773
 30
0.0
 11
2663.1334174802
 21
1700.8273331086
 31
0.0
  0
LINE
  5
3B6
330
1F
100
AcDbEntity
  8
0
  6
Continuous
 62
     7
370
    15
100
AcDbLine
 10
2381.7049172193
 20
1538.3621180773
 30
0.0
 11
2381.7049172193
 21
1286.8675493792
 31
0.0
  0
ARC
  5
3B7
330
1F
100
AcDbEntity
  8
0
  6
Continuous
 62
     7
370
    15
100
AcDbCircle
 10
2378.1693866851
 20
1293.6911155792
 30
0.0
 40
7.685117555605986
100
AcDbArc
 50
242.6097315137
 51
297.3902684863
  0
LINE
  5
3B8
330
1F
100
AcDbEntity
  8
0
  6
Continuous
 62
     7
370
    15
100
AcDbLine
 10
2663.1334174802
 20
1449.3327644106
 30
0.0
 11
2663.1334174802
 21
1700.8273331086
 31
0.0
  0
LINE
  5
3B9
330
1F
100
AcDbEntity
  8
0
  6
Continuous
 62
     7
370
    15
100
AcDbLine
 10
2663.1334174802
 20
1449.3327644106
 30
0.0
 11
2381.7049172193
 21
1286.8675493792
 31
0.0
  0
ARC
  5
3BA
330
1F
100
AcDbEntity
  8
0
  6
Continuous
 62
     7
370
    15
100
AcDbCircle
 10
2662.0956046431
 20
1451.6233113854
 30
0.0
 40
2.514689032202124
100
AcDbArc
 50
294.374574655
 51
354.3053975555
  0
LINE
  5
3BB
330
1F
100
AcDbEntity
  8
0
  6
Continuous
 62
     7
370
    15
100
AcDbLine
 10
2030.2728512685
 20
1742.8732798165
 30
0.0
 11
2030.2728512685
 21
1737.1574947173
 31
0.0
  0
LINE
  5
3BC
330
1F
100
AcDbEntity
  8
0
  6
Continuous
 62
     7
370
    15
100
AcDbLine
 10
2035.2225982311
 20
1740.0158517171
 30
0.0
 11
2030.2728512685
 21
1742.8732798165
 31
0.0
  0
LINE
  5
3BD
330
1F
100
AcDbEntity
  8
0
  6
Continuous
 62
     7
370
    15
100
AcDbLine
 10
2035.2225982311
 20
1740.0158517171
 30
0.0
 11
2035.2225982311
 21
1477.0897128207
 31
0.0
  0
LINE
  5
3BE
330
1F
100
AcDbEntity
  8
0
  6
Continuous
 62
     7
370
    15
100
AcDbLine
 10
2030.2728512685
 20
1479.9471409201
 30
0.0
 11
2035.2225982311
 21
1477.0897128207
 31
0.0
  0
LINE
  5
3BF
330
1F
100
AcDbEntity
  8
0
  6
Continuous
 62
     7
370
    15
100
AcDbLine
 10
2030.2728512685
 20
1485.6629260193
 30
0.0
 11
2030.2728512685
 21
1479.9471409201
 31
0.0
  0
LINE
  5
3C0
330
1F
100
AcDbEntity
  8
0
  6
Continuous
 62
     7
370
    15
100
AcDbLine
 10
2030.2728512685
 20
1485.6629260193
 30
0.0
 11
2028.151526626
 21
1486.8875406687
 31
0.0
  0
LINE
  5
3C1
330
1F
100
AcDbEntity
  8
0
  6
Continuous
 62
     7
370
    15
100
AcDbLine
 10
2028.151526626
 20
1738.3821093668
 30
0.0
 11
2028.151526626
 21
1486.8875406687
 31
0.0
  0
LINE
  5
3C2
330
1F
100
AcDbEntity
  8
0
  6
Continuous
 62
     7
370
    15
100
AcDbLine
 10
2028.151526626
 20
1738.3821093668
 30
0.0
 11
2030.2728512685
 21
1737.1574947173
 31
0.0
  0
ARC
  5
3C3
330
1F
100
AcDbEntity
  8
0
  6
Continuous
 62
     7
370
    15
100
AcDbCircle
 10
2029.1893426668
 20
1740.6726601276
 30
0.0
 40
2.514693802869537
100
AcDbArc
 50
185.6949568513
 51
245.6253944583
  0
ARC
  5
3C4
330
1F
100
AcDbEntity
  8
0
  6
Continuous
 62
     7
370
    15
100
AcDbCircle
 10
2029.1893426668
 20
1489.1780914295
 30
0.0
 40
2.51469380287012
100
AcDbArc
 50
185.6949568513
 51
245.6253944583
  0
LINE
  5
3C5
330
1F
100
AcDbEntity
  8
0
  6
Continuous
 62
     7
370
    15
100
AcDbLine
 10
2381.7049172193
 20
1286.8675493792
 30
0.0
 11
2381.7049172193
 21
1278.7021368801
 31
0.0
  0
ARC
  5
3C6
330
1F
100
AcDbEntity
  8
0
  6
Continuous
 62
     7
370
    15
100
AcDbCircle
 10
2378.1693866851
 20
1285.5257030801
 30
0.0
 40
7.685117555607197
100
AcDbArc
 50
242.6097315137
 51
297.3902684863
  0
LINE
  5
3C7
330
1F
100
AcDbEntity
  8
0
  6
Continuous
 62
     7
370
    15
100
AcDbLine
 10
2374.6338561509
 20
1278.7021368801
 30
0.0
 11
2374.6338561509
 21
1286.8675493792
 31
0.0
  0
LINE
  5
3C8
330
1F
100
AcDbEntity
  8
0
  6
Continuous
 62
     7
370
    15
100
AcDbLine
 10
2663.1334174802
 20
1441.1673519114
 30
0.0
 11
2663.1334174802
 21
1449.3327644106
 31
0.0
  0
LINE
  5
3C9
330
1F
100
AcDbEntity
  8
0
  6
Continuous
 62
     7
370
    15
100
AcDbLine
 10
2381.7049172193
 20
1278.7021368801
 30
0.0
 11
2663.1334174802
 21
1441.1673519114
 31
0.0
  0
LINE
  5
3CA
330
1F
100
AcDbEntity
  8
0
  6
Continuous
 62
     7
370
    15
100
AcDbLine
 10
2035.2225982311
 20
1477.0897128207
 30
0.0
 11
2035.2225982311
 21
1482.8054979199
 31
0.0
  0
LINE
  5
3CB
330
1F
100
AcDbEntity
  8
0
  6
Continuous
 62
     7
370
    15
100
AcDbLine
 10
2367.5627845458
 20
1290.9495921281
 30
0.0
 11
2035.2225982311
 21
1482.8054979199
 31
0.0
  0
LINE
  5
3CC
330
1F
100
AcDbEntity
  8
0
  6
Continuous
 62
     7
370
    15
100
AcDbLine
 10
2367.5627845458
 20
1285.233807029
 30
0.0
 11
2367.5627845458
 21
1290.9495921281
 31
0.0
  0
LINE
  5
3CD
330
1F
100
AcDbEntity
  8
0
  6
Continuous
 62
     7
370
    15
100
AcDbLine
 10
2028.151526626
 20
1478.7221281696
 30
0.0
 11
2374.6338561509
 21
1278.7021368801
 31
0.0
  0
LINE
  5
3CE
330
1F
100
AcDbEntity
  8
0
  6
Continuous
 62
     7
370
    15
100
AcDbLine
 10
2028.151526626
 20
1486.8875406687
 30
0.0
 11
2028.151526626
 21
1478.7221281696
 31
0.0
  0
LINE
  5
3CF
330
1F
100
AcDbEntity
  8
0
  6
Continuous
 62
     7
370
    15
100
AcDbLine
 10
2071.8205717911
 20
1503.9330583433
 30
0.0
 11
2035.2225982311
 21
1482.8054979199
 31
0.0
  0
ARC
  5
3D0
330
1F
100
AcDbEntity
  8
0
  6
Continuous
 62
     7
370
    15
100
AcDbCircle
 10
2374.0288128375
 20
1546.1782086376
 30
0.0
 40
7.684048691749138
100
AcDbArc
 50
2.6056020688
 51
57.3943980768
  0
ARC
  5
3D1
330
1F
100
AcDbEntity
  8
0
  6
Continuous
 62
     7
370
    15
100
AcDbCircle
 10
2378.1693866851
 20
1553.3510967764
 30
0.0
 40
7.685117555604572
100
AcDbArc
 50
242.6097315137
 51
297.3902684863
  0
ARC
  5
3D2
330
1F
100
AcDbEntity
  8
0
  6
Continuous
 62
     7
370
    15
100
AcDbCircle
 10
2382.3099443025
 20
1546.1782180081
 30
0.0
 40
7.684032052333692
100
AcDbArc
 50
122.6055376261
 51
177.3944622283
  0
LINE
  5
3D3
330
1F
100
AcDbEntity
  8
0
  6
Continuous
 62
     7
370
    15
100
AcDbLine
 10
2374.6338561509
 20
1538.3621180773
 30
0.0
 11
2374.6338561509
 21
1546.5275305764
 31
0.0
  0
LINE
  5
3D4
330
1F
100
AcDbEntity
  8
0
  6
Continuous
 62
     7
370
    15
100
AcDbLine
 10
2381.7049172193
 20
1546.5275305764
 30
0.0
 11
2381.7049172193
 21
1538.3621180773
 31
0.0
  0
LINE
  5
3D5
330
1F
100
AcDbEntity
  8
0
  6
Continuous
 62
     7
370
    15
100
AcDbLine
 10
2031.6870571602
 20
1752.6712403649
 30
0.0
 11
2378.1693866851
 21
1552.6512490754
 31
0.0
  0
LINE
  5
3D6
330
1F
100
AcDbEntity
  8
0
  6
Continuous
 62
     7
370
    15
100
AcDbLine
 10
2374.6338561509
 20
1546.5275305764
 30
0.0
 11
2028.151526626
 21
1746.5475218659
 31
0.0
  0
ARC
  5
3D7
330
1F
100
AcDbEntity
  8
0
  6
Continuous
 62
     7
370
    15
100
AcDbCircle
 10
2035.8276147776
 20
1746.1982092976
 30
0.0
 40
7.684032052334612
100
AcDbArc
 50
122.6055376261
 51
177.3944622283
  0
LINE
  5
3D8
330
1F
100
AcDbEntity
  8
0
  6
Continuous
 62
     7
370
    15
100
AcDbLine
 10
2663.1334174802
 20
1708.9927456077
 30
0.0
 11
2381.7049172193
 21
1546.5275305764
 31
0.0
  0
LINE
  5
3D9
330
1F
100
AcDbEntity
  8
0
  6
Continuous
 62
     7
370
    15
100
AcDbLine
 10
2378.1693866851
 20
1552.6512490754
 30
0.0
 11
2659.597886946
 21
1715.1164641067
 31
0.0
  0
ARC
  5
3DA
330
1F
100
AcDbEntity
  8
0
  6
Continuous
 62
     7
370
    15
100
AcDbCircle
 10
2655.4573130984
 20
1708.6434236689
 30
0.0
 40
7.684048691747268
100
AcDbArc
 50
2.6056020688
 51
57.3943980768
  0
LINE
  5
3DB
330
1F
100
AcDbEntity
  8
0
  6
Continuous
 62
     7
370
    15
100
AcDbLine
 10
2663.1334174802
 20
1700.8273331086
 30
0.0
 11
2663.1334174802
 21
1708.9927456077
 31
0.0
  0
LINE
  5
3DC
330
1F
100
AcDbEntity
  8
0
  6
Continuous
 62
     7
370
    15
100
AcDbLine
 10
2367.5627845458
 20
1548.1599459254
 30
0.0
 11
2367.5627845458
 21
1542.4441608262
 31
0.0
  0
LINE
  5
3DD
330
1F
100
AcDbEntity
  8
0
  6
Continuous
 62
     7
370
    15
100
AcDbLine
 10
2035.2225982311
 20
1734.3000666179
 30
0.0
 11
2367.5627845458
 21
1542.4441608262
 31
0.0
  0
LINE
  5
3DE
330
1F
100
AcDbEntity
  8
0
  6
Continuous
 62
     7
370
    15
100
AcDbLine
 10
2035.2225982311
 20
1740.0158517171
 30
0.0
 11
2035.2225982311
 21
1734.3000666179
 31
0.0
  0
LINE
  5
3DF
330
1F
100
AcDbEntity
  8
0
  6
Continuous
 62
     7
370
    15
100
AcDbLine
 10
2028.151526626
 20
1746.5475218659
 30
0.0
 11
2028.151526626
 21
1738.3821093668
 31
0.0
  0
LWPOLYLINE
  5
3E0
330
1F
100
AcDbEntity
  8
0
  6
Continuous
 62
     7
370
    15
100
AcDbPolyline
 90
       80
 70
   128
 43
0.0
 10
2306.0444910844
 20
1711.0344243992
 10
2309.3157332196
 20
1709.2905018063
 10
2312.8166447275
 20
1707.7021290482
 10
2316.5250919273
 20
1706.2793494468
 10
2320.4176280004
 20
1705.031157816
 10
2324.4696431384
 20
1703.9654441968
 10
2328.6555193014
 20
1703.0889470962
 10
2332.9487948541
 20
1702.4072101482
 10
2337.3223206405
 20
1701.9245406749
 10
2341.7484509622
 20
1701.6439937196
 10
2346.199202946
 20
1701.5673378316
 10
2350.6464303996
 20
1701.6950611487
 10
2355.0620240091
 20
1702.0263561905
 10
2359.4180628047
 20
1702.5591282223
 10
2363.687007772
 20
1703.2900097012
 10
2367.841871757
 20
1704.2143762437
 10
2371.8563827853
 20
1705.3263861629
 10
2375.7051605514
 20
1706.6190093615
 10
2379.3638705187
 20
1708.0840737126
 10
2382.8093844395
 20
1709.7123151473
 10
2386.0199187315
 20
1711.493439289
 10
2388.9751731841
 20
1713.4161863205
 10
2391.6564625023
 20
1715.4684008399
 10
2394.0468387963
 20
1717.6371056136
 10
2396.1311855061
 20
1719.9085922942
 10
2397.8963271319
 20
1722.2684969317
 10
2399.3311033198
 20
1724.7019005283
 10
2400.4264419607
 20
1727.1934198994
 10
2401.1754204347
 20
1729.7273008145
 10
2401.5732998555
 20
1732.2875229245
 10
2401.6175672174
 20
1734.8579031676
 10
2401.3079406631
 20
1737.4221870101
 10
2400.6463800213
 20
1739.9641640182
 10
2399.6370696837
 20
1742.4677628998
 10
2398.2863843611
 20
1744.9171533907
 10
2396.60286801
 20
1747.2968527016
 10
2394.5971633682
 20
1749.5918118168
 10
2392.2819533443
 20
1751.7875253633
 10
2389.6718711267
 20
1753.8701078346
 10
2386.7834234626
 20
1755.8263956663
 10
2383.6348681693
 20
1757.644017948
 10
2380.2461110716
 20
1759.3114832914
 10
2376.638581537
 20
1760.8182516832
 10
2372.8350819986
 20
1762.1547939809
 10
2368.859665465
 20
1763.3126626247
 10
2364.7374587021
 20
1764.2845359273
 10
2360.4945301942
 20
1765.0642699669
 10
2356.1576998248
 20
1765.6469324225
 10
2351.7543893874
 20
1766.0288432518
 10
2347.3124381924
 20
1766.2075868569
 10
2342.8599265777
 20
1766.1820318529
 10
2338.4250112723
 20
1765.9523409523
 10
2334.0357251987
 20
1765.5199648827
 10
2329.7198194225
 20
1764.8876393447
 10
2325.5045840282
 20
1764.0593606819
 10
2321.4166663608
 20
1763.0403661112
 10
2317.4819096822
 20
1761.8370983679
 10
2313.7251957798
 20
1760.4571635061
 10
2310.1702707806
 20
1758.9092881302
 10
2306.8396143483
 20
1757.2032560486
 10
2303.7542825382
 20
1755.3498540526
 10
2300.933780039
 20
1753.3608012043
 10
2298.3959391661
 20
1751.2486728981
 10
2296.1568074965
 20
1749.0268207872
 10
2294.2305411031
 20
1746.7092929005
 10
2292.6293177908
 20
1744.3107409766
 10
2291.3632567546
 20
1741.8463315034
 10
2290.4403685298
 20
1739.3316438333
 10
2289.8664865038
 20
1736.782575901
 10
2289.6452392567
 20
1734.2152461392
 10
2289.7780255371
 20
1731.6458817094
 10
2290.2639997739
 20
1729.0907310626
 10
2291.1000984179
 20
1726.5659483676
 10
2292.2810294056
 20
1724.0874931464
 10
2293.7993314276
 20
1721.6710382732
 10
2295.645401588
 20
1719.3318597249
 10
2297.8075671853
 20
1717.084746481
 10
2300.2721607868
 20
1714.9439054817
 10
2303.0236012294
 20
1712.922872287
 10
2306.0444910844
 20
1711.0344243992
  0
LWPOLYLINE
  5
3E1
330
1F
100
AcDbEntity
  8
0
  6
Continuous
 62
     7
370
    15
100
AcDbPolyline
 90
       49
 70
   128
 43
0.0
 10
2328.6719065229
 20
1892.2770245182
 10
2330.4830935807
 20
1891.0847820749
 10
2332.0091993552
 20
1889.76626248
 10
2333.224134947
 20
1888.3440326039
 10
2334.1071114233
 20
1886.8424172216
 10
2334.6430086022
 20
1885.2871158018
 10
2334.8226700807
 20
1883.70474022
 10
2334.6430086022
 20
1882.1223646382
 10
2334.1071114233
 20
1880.5670632183
 10
2333.2241454838
 20
1879.0654539188
 10
2332.0091993552
 20
1877.64321796
 10
2330.4830935807
 20
1876.324698365
 10
2328.6719065229
 20
1875.1324559217
 10
2326.6066582624
 20
1874.086879889
 10
2324.322667858
 20
1873.2058777781
 10
2321.8590265118
 20
1872.5045103899
 10
2319.2578705357
 20
1871.9947789201
 10
2316.5637175384
 20
1871.6854120638
 10
2313.8226656353
 20
1871.5816956999
 10
2311.0816137323
 20
1871.6854120638
 10
2308.3874712716
 20
1871.9947850028
 10
2305.7863047588
 20
1872.5045103899
 10
2303.3226634126
 20
1873.2058777781
 10
2301.038683545
 20
1874.0868859717
 10
2298.9734247477
 20
1875.1324559217
 10
2297.1622482266
 20
1876.3247044477
 10
2295.6361319155
 20
1877.64321796
 10
2294.4211963236
 20
1879.0654478361
 10
2293.538230384
 20
1880.567069301
 10
2293.0023226685
 20
1882.1223646382
 10
2292.82266119
 20
1883.70474022
 10
2293.0023226685
 20
1885.2871158018
 10
2293.5382198473
 20
1886.8424172216
 10
2294.4211963236
 20
1888.3440326039
 10
2295.6361319155
 20
1889.76626248
 10
2297.1622482266
 20
1891.0847759922
 10
2298.9734247477
 20
1892.2770245182
 10
2301.038683545
 20
1893.3225944682
 10
2303.3226634126
 20
1894.2036026619
 10
2305.7863152955
 20
1894.9049761328
 10
2308.3874607349
 20
1895.4147015199
 10
2311.0816137323
 20
1895.7240683761
 10
2313.8226656353
 20
1895.82778474
 10
2316.5637175384
 20
1895.7240683761
 10
2319.2578705357
 20
1895.4147015199
 10
2321.8590265118
 20
1894.90497005
 10
2324.322667858
 20
1894.2036026619
 10
2326.6066582624
 20
1893.3226005509
 10
2328.6719065229
 20
1892.2770245182
  0
LWPOLYLINE
  5
3E2
330
1F
100
AcDbEntity
  8
0
  6
Continuous
 62
     7
370
    15
100
AcDbPolyline
 90
       49
 70
   128
 43
0.0
 10
2100.9835251725
 20
1760.8353197799
 10
2102.7947016936
 20
1759.643071254
 10
2104.3208180047
 20
1758.3245577417
 10
2105.5357535966
 20
1756.9023278656
 10
2106.4187195362
 20
1755.4007064007
 10
2106.9546272517
 20
1753.8454110635
 10
2107.1342887302
 20
1752.2630354817
 10
2106.9546272517
 20
1750.6806598999
 10
2106.4187300729
 20
1749.12535848
 10
2105.5357535966
 20
1747.6237430978
 10
2104.3208180047
 20
1746.2015132217
 10
2102.7947122303
 20
1744.8829936267
 10
2100.9835251725
 20
1743.6907511835
 10
2098.9182769119
 20
1742.6451751508
 10
2096.6342865076
 20
1741.7641730398
 10
2094.1706346247
 20
1741.0627995689
 10
2091.5694891853
 20
1740.5530741818
 10
2088.8753361879
 20
1740.2437073255
 10
2086.1342842849
 20
1740.1399909617
 10
2083.3932323818
 20
1740.2437073255
 10
2080.6990793845
 20
1740.5530741818
 10
2078.0979234084
 20
1741.0628056517
 10
2075.6342820622
 20
1741.7641730398
 10
2073.3502916578
 20
1742.6451751508
 10
2071.2850433973
 20
1743.6907511835
 10
2069.4738563395
 20
1744.8829936267
 10
2067.947750565
 20
1746.2015132217
 10
2066.7328149731
 20
1747.6237430978
 10
2065.8498384968
 20
1749.12535848
 10
2065.313941318
 20
1750.6806598999
 10
2065.1342798395
 20
1752.2630354817
 10
2065.313941318
 20
1753.8454110635
 10
2065.8498384968
 20
1755.4007124834
 10
2066.7328044364
 20
1756.9023217829
 10
2067.947750565
 20
1758.3245577417
 10
2069.4738668762
 20
1759.643071254
 10
2071.2850433973
 20
1760.8353197799
 10
2073.3503021946
 20
1761.88088973
 10
2075.6342820622
 20
1762.7618979236
 10
2078.0979234084
 20
1763.4632653118
 10
2080.6990793845
 20
1763.9729967816
 10
2083.3932323818
 20
1764.2823636379
 10
2086.1342842849
 20
1764.3860800018
 10
2088.8753361879
 20
1764.2823636379
 10
2091.5694786486
 20
1763.9729906989
 10
2094.1706451614
 20
1763.4632653118
 10
2096.6342865076
 20
1762.7618979236
 10
2098.9182663752
 20
1761.88088973
 10
2100.9835251725
 20
1760.8353197799
  0
LWPOLYLINE
  5
3E3
330
1F
100
AcDbEntity
  8
0
  6
Continuous
 62
     7
370
    15
100
AcDbPolyline
 90
       49
 70
   128
 43
0.0
 10
2392.3115193585
 20
1592.6552485498
 10
2394.1226958796
 20
1591.4630000239
 10
2395.6488121908
 20
1590.1444865116
 10
2396.8637477826
 20
1588.7222566355
 10
2397.7467137222
 20
1587.2206351705
 10
2398.2826214378
 20
1585.6653398334
 10
2398.4622829163
 20
1584.0829642516
 10
2398.2826214378
 20
1582.5005886698
 10
2397.7467242589
 20
1580.9452872499
 10
2396.8637477826
 20
1579.4436718677
 10
2395.6488121908
 20
1578.0214419916
 10
2394.1226958796
 20
1576.7029284793
 10
2392.3115193585
 20
1575.5106799534
 10
2390.2462605612
 20
1574.4651100033
 10
2387.9622806936
 20
1573.5841018097
 10
2385.4986288107
 20
1572.8827283388
 10
2382.8974833713
 20
1572.3730029517
 10
2380.203330374
 20
1572.0636360954
 10
2377.4622784709
 20
1571.9599197316
 10
2374.7212265679
 20
1572.0636360954
 10
2372.0270735705
 20
1572.3730029517
 10
2369.4259175944
 20
1572.8827344215
 10
2366.9622762482
 20
1573.5841018097
 10
2364.6782858439
 20
1574.4651039206
 10
2362.6130375833
 20
1575.5106799534
 10
2360.8018505255
 20
1576.7029223966
 10
2359.2757447511
 20
1578.0214419916
 10
2358.0608091592
 20
1579.4436718677
 10
2357.1778326829
 20
1580.9452872499
 10
2356.6419355041
 20
1582.5005886698
 10
2356.4622740256
 20
1584.0829642516
 10
2356.6419355041
 20
1585.6653398334
 10
2357.1778326829
 20
1587.2206412533
 10
2358.0607986225
 20
1588.7222505528
 10
2359.2757447511
 20
1590.1444865116
 10
2360.8018505255
 20
1591.4630061066
 10
2362.6130375833
 20
1592.6552485498
 10
2364.6782858439
 20
1593.7008245826
 10
2366.9622762482
 20
1594.5818266935
 10
2369.4259175944
 20
1595.2831940817
 10
2372.0270735705
 20
1595.7929255515
 10
2374.7212265679
 20
1596.1022924078
 10
2377.4622784709
 20
1596.2060087716
 10
2380.203330374
 20
1596.1022924078
 10
2382.8974728346
 20
1595.7929194688
 10
2385.4986393474
 20
1595.2831940817
 10
2387.9622806936
 20
1594.5818266935
 10
2390.2462605612
 20
1593.7008184998
 10
2392.3115193585
 20
1592.6552485498
  0
LWPOLYLINE
  5
3E4
330
1F
100
AcDbEntity
  8
0
  6
Continuous
 62
     7
370
    15
100
AcDbPolyline
 90
       49
 70
   128
 43
0.0
 10
2619.999900709
 20
1724.0969532881
 10
2621.8110877667
 20
1722.9047108448
 10
2623.3371935412
 20
1721.5861912499
 10
2624.5521291331
 20
1720.1639613737
 10
2625.4351056094
 20
1718.6623459915
 10
2625.9710027882
 20
1717.1070445717
 10
2626.1506642667
 20
1715.5246689898
 10
2625.9710027882
 20
1713.942293408
 10
2625.4351056094
 20
1712.3869919882
 10
2624.5521396698
 20
1710.8853826887
 10
2623.3371935412
 20
1709.4631467298
 10
2621.81107723
 20
1708.1446332176
 10
2619.999900709
 20
1706.9523846916
 10
2617.9346419117
 20
1705.9068147416
 10
2615.650662044
 20
1705.0258065479
 10
2613.1870206979
 20
1704.3244391598
 10
2610.5858647218
 20
1703.8147076899
 10
2607.8917117244
 20
1703.5053408337
 10
2605.1506598213
 20
1703.4016244698
 10
2602.4096079183
 20
1703.5053408337
 10
2599.7154654577
 20
1703.8147137727
 10
2597.1142989448
 20
1704.3244391598
 10
2594.6506575987
 20
1705.0258065479
 10
2592.366677731
 20
1705.9068147416
 10
2590.3014189337
 20
1706.9523846916
 10
2588.4902424127
 20
1708.1446332176
 10
2586.9641261015
 20
1709.4631467298
 10
2585.7491905096
 20
1710.8853766059
 10
2584.86622457
 20
1712.3869980709
 10
2584.3303168545
 20
1713.942293408
 10
2584.150655376
 20
1715.5246689898
 10
2584.3303168545
 20
1717.1070445717
 10
2584.8662140333
 20
1718.6623459915
 10
2585.7491905096
 20
1720.1639613737
 10
2586.9641261015
 20
1721.5861912499
 10
2588.4902318759
 20
1722.9047108448
 10
2590.3014189337
 20
1724.0969532881
 10
2592.3666671943
 20
1725.1425293208
 10
2594.6506575987
 20
1726.0235314317
 10
2597.1143094815
 20
1726.7249049026
 10
2599.7154549209
 20
1727.2346302897
 10
2602.4096079183
 20
1727.543997146
 10
2605.1506598213
 20
1727.6477135099
 10
2607.8917117244
 20
1727.543997146
 10
2610.5858647218
 20
1727.2346302897
 10
2613.1870206979
 20
1726.7248988199
 10
2615.650662044
 20
1726.0235314317
 10
2617.9346524484
 20
1725.1425293208
 10
2619.999900709
 20
1724.0969532881
  0
LINE
  5
3E5
330
1F
100
AcDbEntity
  8
0
  6
Continuous
 62
     7
370
    15
100
AcDbLine
 10
2313.1155574211
 20
1915.1364553962
 30
0.0
 11
2031.6870571602
 21
1752.6712403649
 31
0.0
  0
LINE
  5
3E6
330
1F
100
AcDbEntity
  8
0
  6
Continuous
 62
     7
370
    15
100
AcDbLine
 10
2659.597886946
 20
1715.1164641067
 30
0.0
 11
2313.1155574211
 21
1915.1364553962
 31
0.0
  0
LINE
  5
3E7
330
1F
100
AcDbEntity
  8
0
  6
Continuous
 62
     7
370
    15
100
AcDbLine
 10
2358.462268428
 20
1582.4498793183
 30
0.0
 11
2358.4640175222
 21
1582.3017287255
 31
0.0
  0
LINE
  5
3E8
330
1F
100
AcDbEntity
  8
0
  6
Continuous
 62
     7
370
    15
100
AcDbLine
 10
2396.4611821591
 20
1582.3323186964
 30
0.0
 11
2396.4622779772
 21
1582.4498732356
 31
0.0
  0
LWPOLYLINE
  5
3E9
330
1F
100
AcDbEntity
  8
0
  6
Continuous
 62
     7
370
    15
100
AcDbPolyline
 90
       23
 70
   128
 43
0.0
 10
2396.3382292653
 20
1581.2516244306
 10
2395.9220502097
 20
1582.5972060221
 10
2395.1375709183
 20
1584.0240891747
 10
2394.023819373
 20
1585.3760211201
 10
2392.60157397
 20
1586.627807255
 10
2390.8973029302
 20
1587.7561386176
 10
2388.9427639039
 20
1588.739993347
 10
2386.7743717683
 20
1589.5610381417
 10
2384.4325032042
 20
1590.2039932231
 10
2381.9608012733
 20
1590.6568634784
 10
2379.4053008708
 20
1590.911224348
 10
2376.8135963255
 20
1590.9623373974
 10
2374.2339773889
 20
1590.8092476405
 10
2371.7145020052
 20
1590.4547957048
 10
2369.3020901535
 20
1589.9056056664
 10
2367.0416914475
 20
1589.1718964856
 10
2364.9754105892
 20
1588.2673421044
 10
2363.141727651
 20
1587.2087794763
 10
2361.5748237272
 20
1586.015940927
 10
2360.3038539002
 20
1584.711034447
 10
2359.3525257723
 20
1583.3183787285
 10
2358.7385410199
 20
1581.8639226313
 10
2358.5709651503
 20
1581.1718070518
  0
ARC
  5
3EA
330
1F
100
AcDbEntity
  8
0
  6
Continuous
 62
     7
370
    15
100
AcDbCircle
 10
2381.5423707559
 20
1730.7480915613
 30
0.0
 40
20.11214882982173
100
AcDbArc
 50
4.7801179535
 51
25.7822835103
  0
ARC
  5
3EB
330
1F
100
AcDbEntity
  8
0
  6
Continuous
 62
     7
370
    15
100
AcDbCircle
 10
2309.8790595945
 20
1730.7108012797
 30
0.0
 40
20.25128424578788
100
AcDbArc
 50
154.2906738889
 51
175.1469246472
  0
LINE
  5
3EC
330
1F
100
AcDbEntity
  8
0
  6
Continuous
 62
     7
370
    15
100
AcDbLine
 10
2586.1506603151
 20
1713.8915901393
 30
0.0
 11
2586.1523988726
 21
1713.7434334637
 31
0.0
  0
LINE
  5
3ED
330
1F
100
AcDbEntity
  8
0
  6
Continuous
 62
     7
370
    15
100
AcDbLine
 10
2624.1495635095
 20
1713.7740234346
 30
0.0
 11
2624.1506698643
 21
1713.8915840565
 31
0.0
  0
LWPOLYLINE
  5
3EE
330
1F
100
AcDbEntity
  8
0
  6
Continuous
 62
     7
370
    15
100
AcDbPolyline
 90
       23
 70
   128
 43
0.0
 10
2624.0266106157
 20
1712.6933291688
 10
2623.6104315601
 20
1714.0389107603
 10
2622.8259522688
 20
1715.465793913
 10
2621.7122112601
 20
1716.8177319411
 10
2620.2899553204
 20
1718.0695119932
 10
2618.5856948173
 20
1719.1978494386
 10
2616.6311452544
 20
1720.1816980852
 10
2614.4627636554
 20
1721.0027489627
 10
2612.1208845547
 20
1721.6456979614
 10
2609.6491826237
 20
1722.0985682167
 10
2607.0936822213
 20
1722.3529290863
 10
2604.5019776759
 20
1722.4040421357
 10
2601.9223587394
 20
1722.2509523787
 10
2599.4028938924
 20
1721.8965065258
 10
2596.9904820406
 20
1721.3473164874
 10
2594.730072798
 20
1720.6136012238
 10
2592.6637919396
 20
1719.7090468426
 10
2590.8301090014
 20
1718.6504842146
 10
2589.2632050776
 20
1717.4576456653
 10
2587.9922457874
 20
1716.152745268
 10
2587.0409176595
 20
1714.7600895494
 10
2586.4269223704
 20
1713.3056273695
 10
2586.2593465007
 20
1712.61351179
  0
LINE
  5
3EF
330
1F
100
AcDbEntity
  8
0
  6
Continuous
 62
     7
370
    15
100
AcDbLine
 10
2067.1342742419
 20
1750.6299505484
 30
0.0
 11
2067.1360233361
 21
1750.4817999556
 31
0.0
  0
LINE
  5
3F0
330
1F
100
AcDbEntity
  8
0
  6
Continuous
 62
     7
370
    15
100
AcDbLine
 10
2105.1331879731
 20
1750.5123899265
 30
0.0
 11
2105.1342837911
 21
1750.6299444657
 31
0.0
  0
LWPOLYLINE
  5
3F1
330
1F
100
AcDbEntity
  8
0
  6
Continuous
 62
     7
370
    15
100
AcDbPolyline
 90
       23
 70
   128
 43
0.0
 10
2105.0102350792
 20
1749.4316956607
 10
2104.5940560236
 20
1750.7772772522
 10
2103.8095767323
 20
1752.2041604049
 10
2102.695825187
 20
1753.5560923502
 10
2101.273579784
 20
1754.8078784851
 10
2099.5693087442
 20
1755.9362098478
 10
2097.6147697179
 20
1756.9200645771
 10
2095.4463775823
 20
1757.7411093718
 10
2093.1045090182
 20
1758.3840644533
 10
2090.6328070873
 20
1758.8369347085
 10
2088.0773066848
 20
1759.0912955782
 10
2085.4856021395
 20
1759.1424086276
 10
2082.9059937396
 20
1758.9893127879
 10
2080.3865078192
 20
1758.6348669349
 10
2077.9740959674
 20
1758.0856768966
 10
2075.7136972615
 20
1757.3519677157
 10
2073.6474164031
 20
1756.4474133345
 10
2071.813733465
 20
1755.3888507064
 10
2070.2468295412
 20
1754.1960121572
 10
2068.9758597142
 20
1752.8911056771
 10
2068.0245315863
 20
1751.4984499586
 10
2067.4105573706
 20
1750.0439877787
 10
2067.242981501
 20
1749.3518721992
  0
LINE
  5
3F2
330
1F
100
AcDbEntity
  8
0
  6
Continuous
 62
     7
370
    15
100
AcDbLine
 10
2294.8226661291
 20
1882.0716613694
 30
0.0
 11
2294.8244046866
 21
1881.9235046938
 31
0.0
  0
LINE
  5
3F3
330
1F
100
AcDbEntity
  8
0
  6
Continuous
 62
     7
370
    15
100
AcDbLine
 10
2332.8215693235
 20
1881.9540946647
 30
0.0
 11
2332.8226756783
 21
1882.0716552867
 31
0.0
  0
LWPOLYLINE
  5
3F4
330
1F
100
AcDbEntity
  8
0
  6
Continuous
 62
     7
370
    15
100
AcDbPolyline
 90
       23
 70
   128
 43
0.0
 10
2332.6986164297
 20
1880.873400399
 10
2332.2824373741
 20
1882.2189819905
 10
2331.4979580827
 20
1883.6458651431
 10
2330.3842170741
 20
1884.9978031712
 10
2328.9619611344
 20
1886.2495832234
 10
2327.2577006313
 20
1887.3779206687
 10
2325.3031510683
 20
1888.3617693154
 10
2323.1347694694
 20
1889.1828201928
 10
2320.7928903686
 20
1889.8257691915
 10
2318.3211884377
 20
1890.2786394468
 10
2315.7656880352
 20
1890.5330003164
 10
2313.1739834899
 20
1890.5841133658
 10
2310.5943750901
 20
1890.4310175262
 10
2308.0748997064
 20
1890.0765777559
 10
2305.6624878546
 20
1889.5273877175
 10
2303.402078612
 20
1888.793672454
 10
2301.3357977536
 20
1887.8891180727
 10
2299.5021148154
 20
1886.8305554447
 10
2297.9352108916
 20
1885.6377168954
 10
2296.6642516013
 20
1884.3328164981
 10
2295.7129234735
 20
1882.9401607796
 10
2295.0989387211
 20
1881.4856925169
 10
2294.9313628514
 20
1880.7935769374
  0
LWPOLYLINE
  5
3F5
330
1F
100
AcDbEntity
  8
0
  6
Continuous
 62
     8
370
    15
100
AcDbPolyline
 90
       19
 70
   128
 43
0.0
 10
2359.0775004637
 20
1740.7515311186
 10
2357.1229635777
 20
1741.7353846124
 10
2354.9545656798
 20
1742.5564327336
 10
2352.6127017255
 20
1743.1993821125
 10
2350.1409968311
 20
1743.6522555992
 10
2347.5854905018
 20
1743.9066160887
 10
2344.9937905662
 20
1743.9577264769
 10
2342.4141749224
 20
1743.8046340588
 10
2339.8946955874
 20
1743.4501904868
 10
2337.4822866991
 20
1742.9009991179
 10
2335.2218860176
 20
1742.1672903172
 10
2333.155602772
 20
1741.2627299958
 10
2331.3219252668
 20
1740.2041705042
 10
2329.7550110532
 20
1739.0113305768
 10
2328.4840524215
 20
1737.7064290389
 10
2327.5327219887
 20
1736.3137750312
 10
2326.9187411876
 20
1734.8593105702
 10
2326.653548607
 20
1733.3701301572
 10
2326.6428433074
 20
1732.9270530721
  0
LWPOLYLINE
  5
3F6
330
1F
100
AcDbEntity
  8
0
  6
Continuous
 62
     8
370
    15
100
AcDbPolyline
 90
        7
 70
   128
 43
0.0
 10
2364.6424715594
 20
1732.9956543057
 10
2364.5428601171
 20
1734.1173349805
 10
2364.1022470846
 20
1735.5925973826
 10
2363.3177621956
 20
1737.019482246
 10
2362.2040205285
 20
1738.3714115302
 10
2360.7817693632
 20
1739.6232009915
 10
2359.0775004637
 20
1740.7515311186
  0
LINE
  5
3F7
330
1F
100
AcDbEntity
  8
0
  6
Continuous
 62
     8
370
    15
100
AcDbLine
 10
2334.3287616997
 20
1561.6297450964
 30
0.0
 11
2334.3287616997
 21
1312.5844022739
 31
0.0
  0
LINE
  5
3F8
330
1F
100
AcDbEntity
  8
0
  6
Continuous
 62
     8
370
    15
100
AcDbLine
 10
2262.5725983399
 20
1487.1561722658
 30
0.0
 11
2261.326073685
 21
1486.4365688997
 31
0.0
  0
LINE
  5
3F9
330
1F
100
AcDbEntity
  8
0
  6
Continuous
 62
     8
370
    15
100
AcDbLine
 10
2231.5453449691
 20
1512.2274750538
 30
0.0
 11
2229.8316541086
 21
1511.2381823778
 31
0.0
  0
LINE
  5
3FA
330
1F
100
AcDbEntity
  8
0
  6
Continuous
 62
     8
370
    15
100
AcDbLine
 10
2219.785714373
 20
1528.6759273914
 30
0.0
 11
2218.3095631507
 21
1527.8237634296
 31
0.0
  0
LINE
  5
3FB
330
1F
100
AcDbEntity
  8
0
  6
Continuous
 62
     8
370
    15
100
AcDbLine
 10
2251.9613442422
 20
1468.3684996251
 30
0.0
 11
2250.2479273363
 21
1467.3793650996
 31
0.0
  0
LINE
  5
3FC
330
1F
100
AcDbEntity
  8
0
  6
Continuous
 62
     8
370
    15
100
AcDbLine
 10
2221.8337272067
 20
1496.1711364129
 30
0.0
 11
2220.3823372579
 21
1495.3332668301
 31
0.0
  0
LINE
  5
3FD
330
1F
100
AcDbEntity
  8
0
  6
Continuous
 62
     8
370
    15
100
AcDbLine
 10
2205.064819694
 20
1508.6733340689
 30
0.0
 11
2203.3514027881
 21
1507.6841995434
 31
0.0
  0
LINE
  5
3FE
330
1F
100
AcDbEntity
  8
0
  6
Continuous
 62
     8
370
    15
100
AcDbLine
 10
2221.4671523576
 20
1475.8138314762
 30
0.0
 11
2220.2961232451
 21
1475.1378107591
 31
0.0
  0
LINE
  5
3FF
330
1F
100
AcDbEntity
  8
0
  6
Continuous
 62
     8
370
    15
100
AcDbLine
 10
2209.8556850561
 20
1492.6714560527
 30
0.0
 11
2208.1422681502
 21
1491.6823215272
 31
0.0
  0
LINE
  5
400
330
1F
100
AcDbEntity
  8
0
  6
Continuous
 62
     8
370
    15
100
AcDbLine
 10
2179.3153845192
 20
1542.4032230935
 30
0.0
 11
2177.6016936588
 21
1541.4139304174
 31
0.0
  0
LINE
  5
401
330
1F
100
AcDbEntity
  8
0
  6
Continuous
 62
     8
370
    15
100
AcDbLine
 10
2166.5352825731
 20
1549.7629122847
 30
0.0
 11
2164.8215917127
 21
1548.7736196087
 31
0.0
  0
LINE
  5
402
330
1F
100
AcDbEntity
  8
0
  6
Continuous
 62
     8
370
    15
100
AcDbLine
 10
2175.887776259
 20
1512.317365197
 30
0.0
 11
2174.1743593531
 21
1511.3282306715
 31
0.0
  0
LINE
  5
403
330
1F
100
AcDbEntity
  8
0
  6
Continuous
 62
     8
370
    15
100
AcDbLine
 10
2141.459504021
 20
1564.2388535757
 30
0.0
 11
2140.2127791687
 21
1563.5191346381
 31
0.0
  0
LINE
  5
404
330
1F
100
AcDbEntity
  8
0
  6
Continuous
 62
     8
370
    15
100
AcDbLine
 10
2150.7189506363
 20
1526.8470189566
 30
0.0
 11
2149.0055337303
 21
1525.8578844311
 31
0.0
  0
ARC
  5
405
330
1F
100
AcDbEntity
  8
0
  6
Continuous
 62
     8
370
    15
100
AcDbCircle
 10
2379.2732604015
 20
1278.4233998332
 30
0.0
 40
2.447580278698606
100
AcDbArc
 50
304.7729737946
 51
6.539185013
  0
ARC
  5
406
330
1F
100
AcDbEntity
  8
0
  6
Continuous
 62
     8
370
    15
100
AcDbCircle
 10
2377.01234604
 20
1278.3993449631
 30
0.0
 40
2.397685779529228
100
AcDbArc
 50
172.7450269849
 51
235.9428142075
  0
ARC
  5
407
330
1F
100
AcDbEntity
  8
0
  6
Continuous
 62
     8
370
    15
100
AcDbCircle
 10
2660.7017606638
 20
1440.888614864
 30
0.0
 40
2.447580277457208
100
AcDbArc
 50
304.7729737773
 51
6.5391850304
  0
ARC
  5
408
330
1F
100
AcDbEntity
  8
0
  6
Continuous
 62
     8
370
    15
100
AcDbCircle
 10
2030.530016516
 20
1478.419336253
 30
0.0
 40
2.397685780380091
100
AcDbArc
 50
172.7450269974
 51
235.942814195
  0
ARC
  5
409
330
1F
100
AcDbEntity
  8
0
  6
Continuous
 62
     8
370
    15
100
AcDbCircle
 10
2662.0956046431
 20
1443.4578988862
 30
0.0
 40
2.514689032202124
100
AcDbArc
 50
294.374574655
 51
354.3053975555
  0
ARC
  5
40A
330
1F
100
AcDbEntity
  8
0
  6
Continuous
 62
     8
370
    15
100
AcDbCircle
 10
2029.1893426668
 20
1481.0126789304
 30
0.0
 40
2.514693802870327
100
AcDbArc
 50
185.6949568513
 51
245.6253944583
  0
LWPOLYLINE
  5
40B
330
1F
100
AcDbEntity
  8
0
  6
Continuous
 62
     8
370
    15
100
AcDbPolyline
 90
       19
 70
   128
 43
0.0
 10
2390.8973029302
 20
1590.2057538502
 10
2388.9427639039
 20
1591.1896085795
 10
2386.7743717683
 20
1592.0106533743
 10
2384.4325032042
 20
1592.6536084557
 10
2381.9608012733
 20
1593.106478711
 10
2379.4053008708
 20
1593.3608395806
 10
2376.8135963255
 20
1593.41195263
 10
2374.2339773889
 20
1593.258862873
 10
2371.7145020052
 20
1592.9044109374
 10
2369.3020901535
 20
1592.355220899
 10
2367.0416914475
 20
1591.6215117181
 10
2364.9754105892
 20
1590.7169573369
 10
2363.141727651
 20
1589.6583947089
 10
2361.5748237272
 20
1588.4655561596
 10
2360.3038539002
 20
1587.1606496795
 10
2359.3525257723
 20
1585.767993961
 10
2358.7385410199
 20
1584.3135378638
 10
2358.4733530491
 20
1582.8243555499
 10
2358.462268428
 20
1582.4498793183
  0
LWPOLYLINE
  5
40C
330
1F
100
AcDbEntity
  8
0
  6
Continuous
 62
     8
370
    15
100
AcDbPolyline
 90
        7
 70
   128
 43
0.0
 10
2396.4622779772
 20
1582.4498732356
 10
2396.3626639007
 20
1583.5715622741
 10
2395.9220502097
 20
1585.0468212546
 10
2395.1375709183
 20
1586.4737044073
 10
2394.023819373
 20
1587.8256363527
 10
2392.60157397
 20
1589.0774224875
 10
2390.8973029302
 20
1590.2057538502
  0
LWPOLYLINE
  5
40D
330
1F
100
AcDbEntity
  8
0
  6
Continuous
 62
     8
370
    15
100
AcDbPolyline
 90
       19
 70
   128
 43
0.0
 10
2618.5856948173
 20
1721.6474646712
 10
2616.6311452544
 20
1722.6313133178
 10
2614.4627636554
 20
1723.4523641952
 10
2612.1208845547
 20
1724.0953131939
 10
2609.6491826237
 20
1724.5481834492
 10
2607.0936822213
 20
1724.8025443188
 10
2604.5019776759
 20
1724.8536573682
 10
2601.9223587394
 20
1724.7005676113
 10
2599.4028938924
 20
1724.3461217583
 10
2596.9904820406
 20
1723.7969317199
 10
2594.730072798
 20
1723.0632164564
 10
2592.6637919396
 20
1722.1586620752
 10
2590.8301090014
 20
1721.1000994471
 10
2589.2632050776
 20
1719.9072608978
 10
2587.9922457874
 20
1718.6023605005
 10
2587.0409176595
 20
1717.209704782
 10
2586.4269223704
 20
1715.7552426021
 10
2586.1617343996
 20
1714.2660602881
 10
2586.1506603151
 20
1713.8915901393
  0
LWPOLYLINE
  5
40E
330
1F
100
AcDbEntity
  8
0
  6
Continuous
 62
     8
370
    15
100
AcDbPolyline
 90
        7
 70
   128
 43
0.0
 10
2624.1506698643
 20
1713.8915840565
 10
2624.0510452511
 20
1715.0132670123
 10
2623.6104315601
 20
1716.4885259929
 10
2622.8259522688
 20
1717.9154091456
 10
2621.7122112601
 20
1719.2673471736
 10
2620.2899553204
 20
1720.5191272258
 10
2618.5856948173
 20
1721.6474646712
  0
ARC
  5
40F
330
1F
100
AcDbEntity
  8
0
  6
Continuous
 62
     8
370
    15
100
AcDbCircle
 10
2661.0624871473
 20
1713.0720621497
 30
0.0
 40
2.514882325483465
100
AcDbArc
 50
65.6929401187
 51
125.6176383323
  0
ARC
  5
410
330
1F
100
AcDbEntity
  8
0
  6
Continuous
 62
     8
370
    15
100
AcDbCircle
 10
2662.0956046431
 20
1711.2832925825
 30
0.0
 40
2.514689032203208
100
AcDbArc
 50
294.374574655
 51
354.3053975555
  0
ARC
  5
411
330
1F
100
AcDbEntity
  8
0
  6
Continuous
 62
     8
370
    15
100
AcDbCircle
 10
2314.5801576224
 20
1913.0920534392
 30
0.0
 40
2.514882325484689
100
AcDbArc
 50
65.6929401187
 51
125.6176383322
  0
LWPOLYLINE
  5
412
330
1F
100
AcDbEntity
  8
0
  6
Continuous
 62
     8
370
    15
100
AcDbPolyline
 90
       19
 70
   128
 43
0.0
 10
2099.5693087442
 20
1758.3858250803
 10
2097.6147697179
 20
1759.3696798097
 10
2095.4463775823
 20
1760.1907246044
 10
2093.1045090182
 20
1760.8336796858
 10
2090.6328070873
 20
1761.2865499411
 10
2088.0773066848
 20
1761.5409108107
 10
2085.4856021395
 20
1761.5920238601
 10
2082.9059937396
 20
1761.4389280205
 10
2080.3865078192
 20
1761.0844821675
 10
2077.9740959674
 20
1760.5352921291
 10
2075.7136972615
 20
1759.8015829483
 10
2073.6474164031
 20
1758.897028567
 10
2071.813733465
 20
1757.838465939
 10
2070.2468295412
 20
1756.6456273897
 10
2068.9758597142
 20
1755.3407209097
 10
2068.0245315863
 20
1753.9480651911
 10
2067.4105573706
 20
1752.4936030112
 10
2067.1453588631
 20
1751.00442678
 10
2067.1342742419
 20
1750.6299505484
  0
LWPOLYLINE
  5
413
330
1F
100
AcDbEntity
  8
0
  6
Continuous
 62
     8
370
    15
100
AcDbPolyline
 90
        7
 70
   128
 43
0.0
 10
2105.1342837911
 20
1750.6299444657
 10
2105.0346697147
 20
1751.7516335042
 10
2104.5940560236
 20
1753.2268924848
 10
2103.8095767323
 20
1754.6537756374
 10
2102.695825187
 20
1756.0057075828
 10
2101.273579784
 20
1757.2574937177
 10
2099.5693087442
 20
1758.3858250803
  0
ARC
  5
414
330
1F
100
AcDbEntity
  8
0
  6
Continuous
 62
     8
370
    15
100
AcDbCircle
 10
2029.1893426668
 20
1748.8380726267
 30
0.0
 40
2.514693802869631
100
AcDbArc
 50
185.6949568513
 51
245.6253944583
  0
ARC
  5
415
330
1F
100
AcDbEntity
  8
0
  6
Continuous
 62
     8
370
    15
100
AcDbCircle
 10
2030.2224569589
 20
1750.6268384079
 30
0.0
 40
2.514882325483238
100
AcDbArc
 50
54.3823616677
 51
114.3070598813
  0
ARC
  5
416
330
1F
100
AcDbEntity
  8
0
  6
Continuous
 62
     8
370
    15
100
AcDbCircle
 10
2311.6509572199
 20
1913.0920534392
 30
0.0
 40
2.514882325483653
100
AcDbArc
 50
54.3823616677
 51
114.3070598813
  0
LWPOLYLINE
  5
417
330
1F
100
AcDbEntity
  8
0
  6
Continuous
 62
     8
370
    15
100
AcDbPolyline
 90
       19
 70
   128
 43
0.0
 10
2327.2577006313
 20
1889.8275359013
 10
2325.3031510683
 20
1890.8113845479
 10
2323.1347694694
 20
1891.6324354254
 10
2320.7928903686
 20
1892.2753844241
 10
2318.3211884377
 20
1892.7282546793
 10
2315.7656880352
 20
1892.982615549
 10
2313.1739834899
 20
1893.0337285984
 10
2310.5943750901
 20
1892.8806327587
 10
2308.0748997064
 20
1892.5261929885
 10
2305.6624878546
 20
1891.9770029501
 10
2303.402078612
 20
1891.2432876865
 10
2301.3357977536
 20
1890.3387333053
 10
2299.5021148154
 20
1889.2801706772
 10
2297.9352108916
 20
1888.087332128
 10
2296.6642516013
 20
1886.7824317306
 10
2295.7129234735
 20
1885.3897760121
 10
2295.0989387211
 20
1883.9353077495
 10
2294.8337402135
 20
1882.4461315183
 10
2294.8226661291
 20
1882.0716613694
  0
LWPOLYLINE
  5
418
330
1F
100
AcDbEntity
  8
0
  6
Continuous
 62
     8
370
    15
100
AcDbPolyline
 90
        7
 70
   128
 43
0.0
 10
2332.8226756783
 20
1882.0716552867
 10
2332.7230510651
 20
1883.1933382424
 10
2332.2824373741
 20
1884.668597223
 10
2331.4979580827
 20
1886.0954803757
 10
2330.3842170741
 20
1887.4474184038
 10
2328.9619611344
 20
1888.6991984559
 10
2327.2577006313
 20
1889.8275359013
  0
ENDSEC
  0
SECTION
  2
OBJECTS
  0
DICTIONARY
  5
C
330
0
100
AcDbDictionary
281
     1
  3
ACAD_GROUP
350
D
  3
ACAD_LAYOUT
350
1A
  3
ACAD_MATERIAL
350
3B
  3
ACAD_MLEADERSTYLE
350
41A
  3
ACAD_MLINESTYLE
350
17
  3
ACAD_PLOTSETTINGS
350
19
  3
ACAD_PLOTSTYLENAME
350
E
  3
ACAD_TABLESTYLE
350
419
  0
DICTIONARY
  5
D
102
{ACAD_REACTORS
330
C
102
}
330
C
100
AcDbDictionary
281
     1
  0
DICTIONARY
  5
1A
102
{ACAD_REACTORS
330
C
102
}
330
C
100
AcDbDictionary
281
     1
  3
Layout1
350
1E
  3
Layout2
350
26
  3
Model
350
22
  0
DICTIONARY
  5
3B
102
{ACAD_REACTORS
330
C
102
}
330
C
100
AcDbDictionary
281
     1
  3
ByBlock
350
3D
  3
ByLayer
350
3C
  3
Global
350
3E
  0
DICTIONARY
  5
41A
102
{ACAD_REACTORS
330
C
102
}
330
C
100
AcDbDictionary
281
     1
  0
DICTIONARY
  5
17
102
{ACAD_REACTORS
330
C
102
}
330
C
100
AcDbDictionary
281
     1
  3
Standard
350
18
  0
DICTIONARY
  5
19
102
{ACAD_REACTORS
330
C
102
}
330
C
100
AcDbDictionary
281
     1
  0
ACDBDICTIONARYWDFLT
  5
E
102
{ACAD_REACTORS
330
C
102
}
330
C
100
AcDbDictionary
281
     1
  3
Normal
350
F
100
AcDbDictionaryWithDefault
340
F
  0
DICTIONARY
  5
419
102
{ACAD_REACTORS
330
C
102
}
330
C
100
AcDbDictionary
281
     1
  0
LAYOUT
  5
1E
102
{ACAD_REACTORS
330
1A
102
}
330
1A
100
AcDbPlotSettings
  1

  2
none_device
  4

  6

 40
0.0
 41
0.0
 42
0.0
 43
0.0
 44
0.0
 45
0.0
 46
0.0
 47
0.0
 48
0.0
 49
0.0
140
0.0
141
0.0
142
1.0
143
1.0
 70
   688
 72
     0
 73
     0
 74
     5
  7

 75
    16
 76
     0
 77
     2
 78
   300
147
1.0
148
0.0
149
0.0
100
AcDbLayout
  1
Layout1
 70
     1
 71
     1
 10
0.0
 20
0.0
 11
420.0
 21
297.0
 12
0.0
 22
0.0
 32
0.0
 14
1.0000000000E+20
 24
1.0000000000E+20
 34
1.0000000000E+20
 15
-1.0000000000E+20
 25
-1.0000000000E+20
 35
-1.0000000000E+20
146
0.0
 13
0.0
 23
0.0
 33
0.0
 16
1.0
 26
0.0
 36
0.0
 17
0.0
 27
1.0
 37
0.0
 76
     0
330
1B
  0
LAYOUT
  5
26
102
{ACAD_REACTORS
330
1A
102
}
330
1A
100
AcDbPlotSettings
  1

  2
none_device
  4

  6

 40
0.0
 41
0.0
 42
0.0
 43
0.0
 44
0.0
 45
0.0
 46
0.0
 47
0.0
 48
0.0
 49
0.0
140
0.0
141
0.0
142
1.0
143
1.0
 70
   688
 72
     0
 73
     0
 74
     5
  7

 75
    16
 76
     0
 77
     2
 78
   300
147
1.0
148
0.0
149
0.0
100
AcDbLayout
  1
Layout2
 70
     1
 71
     2
 10
0.0
 20
0.0
 11
0.0
 21
0.0
 12
0.0
 22
0.0
 32
0.0
 14
0.0
 24
0.0
 34
0.0
 15
0.0
 25
0.0
 35
0.0
146
0.0
 13
0.0
 23
0.0
 33
0.0
 16
1.0
 26
0.0
 36
0.0
 17
0.0
 27
1.0
 37
0.0
 76
     0
330
23
  0
LAYOUT
  5
22
102
{ACAD_REACTORS
330
1A
102
}
330
1A
100
AcDbPlotSettings
  1

  2
none_device
  4

  6

 40
0.0
 41
0.0
 42
0.0
 43
0.0
 44
0.0
 45
0.0
 46
0.0
 47
0.0
 48
0.0
 49
0.0
140
0.0
141
0.0
142
1.0
143
1.0
 70
  1712
 72
     0
 73
     0
 74
     0
  7

 75
     0
 76
     0
 77
     2
 78
   300
147
1.0
148
0.0
149
0.0
100
AcDbLayout
  1
Model
 70
     1
 71
     0
 10
0.0
 20
0.0
 11
2970.0
 21
2100.0
 12
0.0
 22
0.0
 32
0.0
 14
0.0
 24
0.0
 34
0.0
 15
2970.0
 25
2100.0
 35
0.0
146
0.0
 13
0.0
 23
0.0
 33
0.0
 16
1.0
 26
0.0
 36
0.0
 17
0.0
 27
1.0
 37
0.0
 76
     0
330
1F
331
29
  0
MATERIAL
  5
3D
102
{ACAD_REACTORS
330
3B
102
}
330
3B
100
AcDbMaterial
  1
ByBlock
  0
MATERIAL
  5
3C
102
{ACAD_REACTORS
330
3B
102
}
330
3B
100
AcDbMaterial
  1
ByLayer
  0
MATERIAL
  5
3E
102
{ACAD_REACTORS
330
3B
102
}
330
3B
100
AcDbMaterial
  1
Global
  0
MLINESTYLE
  5
18
102
{ACAD_REACTORS
330
17
102
}
330
17
100
AcDbMlineStyle
  2
Standard
 70
     0
  3

 62
   256
 51
90.0
 52
90.0
 71
     2
 49
0.5
 62
   256
  6
BYLAYER
 49
-0.5
 62
   256
  6
BYLAYER
  0
ACDBPLACEHOLDER
  5
F
102
{ACAD_REACTORS
330
E
102
}
330
E
  0
ENDSEC
  0
EOF
